<?xml version="1.0" standalone="no"?>
<!DOCTYPE svg PUBLIC "-//W3C//DTD SVG 1.1//EN" "http://www.w3.org/Graphics/SVG/1.1/DTD/svg11.dtd" >
<svg xmlns="http://www.w3.org/2000/svg" xmlns:xlink="http://www.w3.org/1999/xlink" version="1.1">
<metadata>
Created by FontForge 20161013 at Thu Jun  1 17:02:02 2006
 By ,,,
Copyright (c) 2000-2006, Luc[as] de Groot. All rights reserved. Published by LucasFonts.com
</metadata>
<defs>
<font id="JumboTheSansBlack-Italic" horiz-adv-x="550" >
  <font-face 
    font-family="Jumbo TheSans Black"
    font-weight="900"
    font-style="italic"
    font-stretch="normal"
    units-per-em="1000"
    panose-1="2 11 10 2 4 3 3 13 2 4"
    ascent="740"
    descent="-260"
    x-height="497"
    cap-height="675"
    bbox="-146 -260 1045.77 961"
    underline-thickness="148"
    underline-position="-316"
    slope="-11"
    unicode-range="U+000D-FB04"
  />
<missing-glyph 
d="M150 150v250h50v-200h100v-50h-150zM50 50v450h450v-450h-450zM250 350v50h150v-250h-50v100h-100v50h100v50h-100zM450 100v350h-350v-350h350z" />
    <glyph glyph-name="f_b" unicode="fb" horiz-adv-x="874" 
d="M869 348q0 -73 -20.5 -138t-62 -114.5t-103 -78.5t-143.5 -29q-110 0 -205 22l110 579q-11 2 -24.5 3t-22.5 1q-33 0 -54 -16t-27 -48l-6 -32h70l-28 -140h-70l-68 -364q-22 -118 -84 -175.5t-159 -57.5q-21 0 -44 2t-44 7l41 148q8 -2 20 -4t22 -2q13 0 23.5 3t19 12
t15.5 26t12 45l68 360h-62l28 140h61l9 48q18 98 91.5 148t194.5 50q51 0 108.5 -5.5t113.5 -15.5l-30 -160q-8 -44 -22 -84t-32 -78h2q74 110 177 110q125 0 125 -162zM684 313q0 20 -4 29.5t-15 9.5q-14 0 -33 -19t-37 -47.5t-32.5 -63t-20.5 -65.5l-4 -21q8 -2 15.5 -3.5
t18.5 -1.5q25 0 46 17.5t35.5 44.5t22.5 59t8 61z" />
    <glyph glyph-name="f_h" unicode="fh" horiz-adv-x="878" 
d="M793 0h-179l58 303q5 28 2.5 38.5t-12.5 10.5q-12 0 -29.5 -17.5t-36 -46t-34.5 -65t-23 -75.5l-28 -148h-179l113 589q-11 2 -24.5 3t-22.5 1q-33 0 -54 -16t-27 -48l-6 -32h70l-28 -140h-70l-68 -364q-22 -118 -84 -175.5t-159 -57.5q-21 0 -44 2t-44 7l41 148
q8 -2 20 -4t22 -2q13 0 23.5 3t19 12t15.5 26t12 45l68 360h-62l28 140h61l9 48q18 98 91.5 148t194.5 50q51 0 108.5 -5.5t113.5 -15.5l-32 -168q-8 -39 -21 -77.5t-30 -73.5h2q33 48 76 77.5t104 29.5q38 0 62.5 -13t37.5 -34.5t15 -51t-4 -62.5z" />
    <glyph glyph-name="f_j" unicode="fj" horiz-adv-x="616" 
d="M549 573q-26 8 -57 13.5t-60 5.5q-56 0 -83.5 -18.5t-34.5 -58.5l-3 -18h318l-97 -509q-10 -51 -29.5 -93t-51 -72t-76.5 -46.5t-106 -16.5q-18 0 -36.5 2.5t-34.5 7.5l38 153q12 -5 26.5 -8t24.5 -3q28 0 43 17.5t24 65.5l69 362h-140l-68 -364q-22 -118 -84 -175.5
t-159 -57.5q-21 0 -44 2t-44 7l41 148q8 -2 20 -4t22 -2q13 0 23.5 3t19 12t15.5 26t12 45l68 360h-62l28 140h61l2 12q20 119 94.5 176.5t209.5 57.5q25 0 46.5 -1t41.5 -3.5t39.5 -6t41.5 -8.5z" />
    <glyph glyph-name="f_k" unicode="fk" horiz-adv-x="879" 
d="M728 257l107 -257h-215l-66 231l-43 -231h-179l112 589q-11 2 -24.5 3t-22.5 1q-33 0 -54 -16t-27 -48l-6 -32h70l-28 -140h-70l-68 -364q-22 -118 -84 -175.5t-159 -57.5q-21 0 -44 2t-44 7l41 148q8 -2 20 -4t22 -2q13 0 23.5 3t19 12t15.5 26t12 45l68 360h-62l28 140
h61l9 48q18 98 91.5 148t194.5 50q51 0 108.5 -5.5t113.5 -15.5l-79 -416l191 227l146 -87z" />
    <glyph glyph-name="fi" unicode="fi" horiz-adv-x="595" 
d="M548 571q-26 8 -57 13.5t-60 5.5q-56 0 -83.5 -17.5t-34.5 -57.5l-3 -18h294l-95 -497h-178l67 357h-116l-67 -364q-22 -118 -84 -175.5t-159 -57.5q-21 0 -44 2t-44 7l41 148q8 -2 20 -4t22 -2q13 0 23.5 3t19 12t15.5 26t12 45l67 360h-62l28 140h61l2 12
q18 110 90 171t214 61q25 0 46.5 -1t41.5 -3.5t39.5 -6t41.5 -8.5z" />
    <glyph glyph-name="fl" unicode="fl" horiz-adv-x="595" 
d="M510 0h-178l112 587q-11 2 -24.5 3t-22.5 1q-33 0 -54 -15t-27 -47l-6 -32h70l-28 -140h-70l-67 -364q-22 -118 -84 -175.5t-159 -57.5q-21 0 -44 2t-44 7l41 148q8 -2 20 -4t22 -2q13 0 23.5 3t19 12t15.5 26t12 45l67 360h-62l28 140h61l9 48q18 98 91.5 147t194.5 49
q51 0 108.5 -5.5t113.5 -15.5z" />
    <glyph glyph-name="ff" unicode="ff" horiz-adv-x="653" 
d="M717 586q-10 3 -22 5t-22 2q-29 0 -41 -13t-20 -52l-6 -31h82l-27 -140h-83l-63 -344q-12 -67 -36 -113t-60 -74.5t-84 -41.5t-108 -13q-37 0 -70.5 6.5t-58.5 15.5q-31 -18 -60 -25.5t-66 -7.5q-21 0 -44 2t-44 7l41 148q8 -2 20 -4t22 -2q13 0 23.5 3t18.5 12t15 26
t12 45l67 360h-62l28 140h62l7 40q17 97 87 146t190 49q37 0 71.5 -4.5t60.5 -12.5q52 26 131 26q20 0 40 -1.5t38 -6.5zM443 577q-23 6 -40 6q-43 0 -63 -15t-25 -44l-5 -27h117l7 40q3 20 9 40zM282 357l-67 -364q-6 -34 -16 -65q9 -4 23.5 -6t26.5 -2q38 0 57 17.5
t27 63.5l66 356h-117z" />
    <glyph glyph-name="ffi" unicode="ffi" horiz-adv-x="890" 
d="M843 573q-26 8 -57 13.5t-60 5.5q-56 0 -83.5 -18.5t-34.5 -58.5l-3 -18h294l-95 -497h-178l67 357h-115l-63 -344q-12 -67 -36 -113t-60 -74.5t-84 -41.5t-108 -13q-37 0 -70.5 6.5t-58.5 15.5q-31 -18 -60 -25.5t-66 -7.5q-21 0 -44 2t-44 7l41 148q8 -2 20 -4t22 -2
q13 0 23.5 3t18.5 12t15 26t12 45l67 360h-62l28 140h62l7 40q17 97 87 146t190 49q37 0 76.5 -5.5t71.5 -16.5q35 17 76 25t93 8q25 0 46.5 -1t41.5 -3.5t39.5 -6t41.5 -8.5zM447 576q-11 3 -23 5t-21 2q-43 0 -63 -15t-25 -44l-5 -27h116l3 15q4 19 8 34.5t10 29.5z
M282 357l-67 -364q-6 -34 -16 -65q9 -4 23.5 -6t26.5 -2q38 0 57 17.5t27 63.5l66 356h-117z" />
    <glyph glyph-name="ffl" unicode="ffl" horiz-adv-x="891" 
d="M806 0h-178l112 589q-11 2 -24.5 3t-22.5 1q-33 0 -54.5 -16t-26.5 -48l-5 -32h82l-27 -140h-83l-64 -344q-12 -67 -36 -113t-60 -74.5t-84 -41.5t-108 -13q-37 0 -70.5 6.5t-58.5 15.5q-31 -18 -60 -25.5t-66 -7.5q-21 0 -44 2t-44 7l41 148q8 -2 20 -4t22 -2
q13 0 23.5 3t18.5 12t15 26t12 45l68 360h-62l28 140h62l7 40q17 97 87 146t190 49q37 0 77.5 -6.5t66.5 -14.5q66 32 162 32q51 0 108.5 -5.5t113.5 -15.5zM444 577q-23 6 -40 6q-43 0 -63 -15t-25 -44l-5 -27h116l9 48l4 16zM283 357l-68 -364q-6 -34 -16 -65
q9 -4 23.5 -6t26.5 -2q38 0 57 17.5t27 63.5l67 356h-117z" />
    <glyph glyph-name=".notdef" 
d="M150 150v250h50v-200h100v-50h-150zM50 50v450h450v-450h-450zM250 350v50h150v-250h-50v100h-100v50h100v50h-100zM450 100v350h-350v-350h350z" />
    <glyph glyph-name=".null" horiz-adv-x="0" 
 />
    <glyph glyph-name=".null" horiz-adv-x="0" 
 />
    <glyph glyph-name="nonmarkingreturn" unicode="&#xd;" horiz-adv-x="500" 
 />
    <glyph glyph-name="space" unicode=" " horiz-adv-x="218" 
 />
    <glyph glyph-name="space" unicode="&#xa0;" horiz-adv-x="218" 
 />
    <glyph glyph-name="exclam" unicode="!" horiz-adv-x="318" 
d="M247 93q0 -24 -9 -43.5t-24.5 -33.5t-35.5 -22t-42 -8t-40 7.5t-30.5 20.5t-19.5 29t-7 34q0 24 9 44.5t24.5 34.5t35.5 22t42 8q45 0 71 -28t26 -65zM248 216h-157l68 499h209z" />
    <glyph glyph-name="quotedbl" unicode="&#x22;" horiz-adv-x="452" 
d="M225 417h-134l35 290h174zM441 417h-134l35 290h173z" />
    <glyph glyph-name="numbersign" unicode="#" 
d="M262 371l-26 -90h97l26 90h-97zM561 371h-73l-26 -90h60l-24 -126h-73l-46 -155h-129l46 155h-97l-46 -155h-129l46 155h-60l24 126h73l26 90h-60l24 126h73l45 153h129l-45 -153h97l45 153h129l-45 -153h60z" />
    <glyph glyph-name="dollar" unicode="$" 
d="M476 483q-31 10 -59.5 14t-51.5 4q-33 0 -51.5 -11t-18.5 -29q0 -16 15 -26t37 -19.5t48 -21t48 -30t37 -47t15 -71.5q0 -45 -16.5 -82t-44.5 -66t-65 -48.5t-77 -28.5l-20 -106h-125l19 99q-25 0 -54.5 2.5t-53.5 7.5l31 160q33 -11 64.5 -15.5t59.5 -4.5q36 0 60 10.5
t24 32.5q0 18 -14.5 29t-36.5 21t-47.5 21.5t-47.5 30t-36.5 48t-14.5 75.5q0 37 14 71t39 62t60 47.5t76 27.5l17 90h127l-16 -82q20 -2 42 -4t47 -7z" />
    <glyph glyph-name="percent" unicode="%" horiz-adv-x="760" 
d="M598 177q0 17 -6.5 22.5t-14.5 5.5q-12 0 -21.5 -8t-15.5 -20.5t-9.5 -27t-3.5 -26.5q0 -19 7 -23.5t14 -4.5q12 0 21.5 7.5t15.5 19.5t9.5 26.5t3.5 28.5zM277 527q0 17 -6.5 22.5t-14.5 5.5q-12 0 -21.5 -8t-15.5 -20.5t-9.5 -27t-3.5 -26.5q0 -19 7 -23.5t14 -4.5
q12 0 21.5 7.5t15.5 19.5t9.5 26.5t3.5 28.5zM725 188q0 -51 -17.5 -89t-45 -63t-61 -37.5t-64.5 -12.5q-67 0 -102 33t-35 95q0 49 17.5 86.5t45 63t60.5 38t63 12.5q64 0 101.5 -31t37.5 -95zM140 -25l-94 87l614 611l94 -87zM404 538q0 -51 -17.5 -89t-45 -63t-61 -37.5
t-64.5 -12.5q-67 0 -102 33t-35 95q0 49 17.5 86.5t45 63t60.5 38t63 12.5q64 0 101.5 -31t37.5 -95z" />
    <glyph glyph-name="ampersand" unicode="&#x26;" horiz-adv-x="784" 
d="M374 167q-31 30 -58 58t-45 51q-25 -20 -38.5 -38.5t-13.5 -36.5q0 -26 16 -42t48 -16q23 0 45.5 6.5t45.5 17.5zM387 572q0 34 -33 34q-14 0 -29 -14t-15 -37q0 -14 5.5 -30t13.5 -30q21 17 39.5 35.5t18.5 41.5zM779 474q-10 -80 -49.5 -158t-92.5 -140
q22 -18 49.5 -38.5t58.5 -42.5l-124 -123q-32 21 -62.5 43t-58.5 44q-51 -31 -114 -52t-140 -21q-57 0 -98 14t-67.5 38.5t-39 58.5t-12.5 74q0 37 14 69.5t36 60.5t49.5 51.5t54.5 43.5q-8 12 -17 29.5t-16.5 36.5t-12.5 39.5t-5 38.5q0 37 17.5 73t49 64.5t75.5 46
t97 17.5q102 0 148.5 -40t46.5 -107q0 -32 -12 -61t-32.5 -55.5t-48 -51t-58.5 -47.5q20 -23 43.5 -47t52.5 -50q37 46 60 96.5t32 95.5h176v0z" />
    <glyph glyph-name="quotesingle" unicode="'" horiz-adv-x="236" 
d="M225 417h-134l35 290h174z" />
    <glyph glyph-name="parenleft" unicode="(" horiz-adv-x="304" 
d="M409 733q-50 -66 -89 -144.5t-66 -158.5t-41.5 -157t-14.5 -140q0 -89 10.5 -159t31.5 -138l-145 -59q-32 74 -52 162.5t-20 187.5q0 75 15 157.5t46.5 168t81 171.5t117.5 169l126 -60v0z" />
    <glyph glyph-name="parenright" unicode=")" horiz-adv-x="304" 
d="M310 443q0 -75 -15 -157.5t-46.5 -168t-81 -172t-117.5 -168.5l-126 60q49 66 88.5 144.5t66.5 158.5t41.5 157t14.5 140q0 89 -10.5 159t-31.5 138l145 59q32 -74 52 -162.5t20 -187.5z" />
    <glyph glyph-name="asterisk" unicode="*" horiz-adv-x="392" 
d="M345 549l90 -43l-85 -100l-60 80l-1 -105l-123 15l45 99l-91 -60l-37 113l105 20l-91 44l86 100l60 -80v105l122 -15l-44 -99l91 61l38 -115z" />
    <glyph glyph-name="plus" unicode="+" 
d="M517 222h-153l-31 -166h-174l31 166h-153l29 152h153l31 164h174l-31 -164h153z" />
    <glyph glyph-name="comma" unicode="," horiz-adv-x="294" 
d="M129 200q30 0 55 -15.5t39 -43.5t14 -66t-20.5 -82.5t-64.5 -93.5t-118 -99l-64 74q33 27 52 48.5t26.5 40.5t4 36.5t-16.5 35.5q-16 23 -16.5 52t12.5 54t37.5 42t59.5 17z" />
    <glyph glyph-name="hyphen" unicode="-" horiz-adv-x="333" 
d="M291 191h-255l28 145h255z" />
    <glyph glyph-name="hyphen" unicode="&#xad;" horiz-adv-x="333" 
d="M291 191h-255l28 145h255z" />
    <glyph glyph-name="period" unicode="." horiz-adv-x="300" 
d="M238 100q0 -24 -9.5 -45t-25 -36t-36.5 -24t-43 -9q-23 0 -42 8.5t-33.5 23.5t-22.5 34t-8 40q0 24 9.5 45t25 36t36 24t43.5 9q22 0 41.5 -8.5t34 -23.5t22.5 -34t8 -40z" />
    <glyph glyph-name="slash" unicode="/" horiz-adv-x="490" 
d="M83 -161h-185l523 918h183z" />
    <glyph glyph-name="zero" unicode="0" 
d="M375 447q0 37 -9 49.5t-32 12.5q-20 0 -36.5 -18.5t-29.5 -47.5t-22 -64t-15 -69t-9 -62t-3 -42q0 -37 8.5 -49.5t32.5 -12.5q20 0 36.5 18.5t29.5 47.5t22 64t15 69t9 62t3 42zM566 451q0 -52 -7.5 -107t-24 -107t-42.5 -97.5t-62 -79.5t-83.5 -54t-106.5 -20
q-49 0 -88 10t-66.5 34t-42.5 65t-15 104q0 52 7.5 107t24.5 107t42.5 97.5t62.5 79.5t84.5 54t107.5 20q49 0 87.5 -10.5t65.5 -35.5t41.5 -66t14.5 -101z" />
    <glyph glyph-name="one" unicode="1" 
d="M477 0h-464l31 164h148l55 291l-130 -46v175l215 66h142l-93 -486h127z" />
    <glyph glyph-name="two" unicode="2" 
d="M534 492q0 -34 -8.5 -66t-32 -67t-65.5 -75.5t-109 -91.5l-21 -16v-2q38 2 76.5 2.5t73.5 0.5h51l-34 -177h-465l30 153l43 34q79 63 127.5 104.5t75 70.5t35.5 48.5t9 38.5q0 18 -15.5 30.5t-50.5 12.5q-36 0 -70 -10t-63 -27v168q43 19 95 29.5t109 10.5q55 0 94.5 -13
t65 -36.5t37.5 -54.5t12 -67z" />
    <glyph glyph-name="three" unicode="3" 
d="M539 510q0 -23 -7.5 -46.5t-22.5 -44t-38.5 -36.5t-56.5 -25l-2 -3q44 -10 67 -42.5t23 -77.5q0 -24 -7.5 -52t-24.5 -55.5t-44.5 -53t-68 -45.5t-94.5 -31.5t-123 -11.5q-46 0 -80 4.5t-50 9.5l44 154q20 -8 49.5 -12.5t60.5 -4.5q66 0 101.5 21t35.5 53q0 20 -21 33.5
t-72 13.5q-37 0 -64 -1.5t-55 -5.5l26 138h39q35 0 68.5 4.5t59.5 14t42 25.5t16 39q0 17 -16 28.5t-59 11.5q-36 0 -71 -8t-64 -20v150q42 14 93.5 22t94.5 8q59 0 101 -10.5t68.5 -30.5t39 -48.5t12.5 -64.5z" />
    <glyph glyph-name="four" unicode="4" 
d="M338 467l-129 -177q8 0 21.5 0.5t27.5 0.5h27h20l34 176h-1zM480 291h66l-31 -163h-66l-24 -128h-179l24 128h-257l12 158l273 364h251z" />
    <glyph glyph-name="five" unicode="5" 
d="M528 480h-231l-12 -66h14q57 0 97.5 -12.5t66 -34t37 -50.5t11.5 -62q0 -66 -29 -116t-77 -84t-110 -51t-128 -17q-48 0 -79.5 2.5t-59.5 8.5l32 163q29 -8 60.5 -13t59.5 -5q54 0 89 19.5t35 60.5q0 25 -27 37t-93 12q-27 0 -55 -2t-48 -6l74 386h406z" />
    <glyph glyph-name="six" unicode="6" 
d="M347 223q0 50 -53 50q-38 0 -62 -22.5t-24 -61.5q0 -24 13.5 -39.5t41.5 -15.5q36 0 60 26.5t24 62.5zM530 499q-23 5 -47.5 7.5t-47.5 2.5q-57 0 -97.5 -20t-68.5 -58q-8 -11 -14.5 -22t-9.5 -17h1q20 12 48.5 20.5t64.5 8.5q86 0 131 -43t45 -118q0 -62 -22 -112.5
t-61 -86.5t-93.5 -55.5t-118.5 -19.5q-103 0 -158 50.5t-55 156.5q0 94 28 178.5t82 149t133 102.5t180 38q35 0 62.5 -2t45.5 -5z" />
    <glyph glyph-name="seven" unicode="7" 
d="M559 493q-40 -57 -78 -121.5t-72.5 -129t-64.5 -127t-54 -115.5h-215q28 62 62.5 130t70 132t69 119.5t59.5 92.5q-14 0 -33 -0.5t-40.5 -1t-44 -1t-43.5 -0.5h-83l34 179h463z" />
    <glyph glyph-name="eight" unicode="8" 
d="M337 196q0 17 -17 30.5t-43 25.5q-42 -21 -58 -39.5t-16 -41.5q0 -17 14 -29t43 -12q36 0 56.5 18.5t20.5 47.5zM384 490q0 12 -9.5 23t-38.5 11q-33 0 -50.5 -15.5t-17.5 -42.5q0 -17 13 -29t36 -23q35 17 51 35t16 41zM571 515q0 -55 -29.5 -99.5t-80.5 -74.5
q29 -20 48 -48.5t19 -71.5q0 -55 -25 -98.5t-66 -74t-92.5 -46.5t-105.5 -16q-114 0 -170.5 41t-56.5 114q0 41 12 71t30.5 52t40 37t40.5 26q-23 20 -38 46t-15 64q0 48 22 89.5t59 72t86.5 48t105.5 17.5q107 0 161.5 -40.5t54.5 -108.5z" />
    <glyph glyph-name="nine" unicode="9" 
d="M380 466q0 26 -14.5 38t-38.5 12q-20 0 -35.5 -7.5t-26.5 -20t-17 -28.5t-6 -34q0 -49 55 -49q15 0 30 5.5t26.5 16.5t19 27.5t7.5 39.5zM564 453q0 -51 -9 -105t-29 -105.5t-52.5 -97.5t-79 -80.5t-108 -55t-140.5 -20.5q-38 0 -65.5 1.5t-51.5 6.5l31 159q19 -7 48 -11
t55 -4q28 0 55.5 8t50.5 21t40.5 29.5t26.5 34.5q3 5 5.5 11t4.5 11h-1q-25 -15 -51.5 -21t-54.5 -6q-39 0 -72.5 10t-58 30t-38 50.5t-13.5 71.5q0 52 19.5 101.5t57 87.5t92 61t123.5 23q49 0 89 -11.5t68 -37t43 -65.5t15 -97z" />
    <glyph glyph-name="colon" unicode=":" horiz-adv-x="309" 
d="M252 102q0 -25 -9.5 -46t-25 -36.5t-36.5 -24.5t-43 -9q-23 0 -42.5 8.5t-34 23t-23 33.5t-8.5 39q0 25 9.5 46t25.5 36.5t36.5 24.5t43.5 9q22 0 42 -8.5t34 -23t22.5 -33.5t8.5 -39zM303 371q0 -25 -9.5 -46t-25 -36.5t-36.5 -24.5t-43 -9q-23 0 -42.5 8.5t-34 23
t-23 33.5t-8.5 39q0 25 9.5 46t25.5 36.5t36.5 24.5t43.5 9q22 0 42 -8.5t34 -23t22.5 -33.5t8.5 -39z" />
    <glyph glyph-name="semicolon" unicode=";" horiz-adv-x="309" 
d="M143 200q30 0 55 -15.5t39 -43.5t14 -66t-20.5 -82.5t-64.5 -93.5t-118 -99l-64 74q33 27 52 48.5t26.5 40.5t4 36.5t-16.5 35.5q-16 23 -16.5 52t12.5 54t37.5 42t59.5 17zM303 371q0 -25 -9.5 -46t-25 -36.5t-36.5 -24.5t-43 -9q-23 0 -42.5 8.5t-34 23t-23 33.5
t-8.5 39q0 25 9.5 46t25.5 36.5t36.5 24.5t43.5 9q22 0 42 -8.5t34 -23t22.5 -33.5t8.5 -39z" />
    <glyph glyph-name="semicolon" unicode="&#x37e;" horiz-adv-x="309" 
d="M143 200q30 0 55 -15.5t39 -43.5t14 -66t-20.5 -82.5t-64.5 -93.5t-118 -99l-64 74q33 27 52 48.5t26.5 40.5t4 36.5t-16.5 35.5q-16 23 -16.5 52t12.5 54t37.5 42t59.5 17zM303 371q0 -25 -9.5 -46t-25 -36.5t-36.5 -24.5t-43 -9q-23 0 -42.5 8.5t-34 23t-23 33.5
t-8.5 39q0 25 9.5 46t25.5 36.5t36.5 24.5t43.5 9q22 0 42 -8.5t34 -23t22.5 -33.5t8.5 -39z" />
    <glyph glyph-name="less" unicode="&#x3c;" 
d="M303 295l172 -192l-135 -116l-272 321l371 300l107 -126z" />
    <glyph glyph-name="equal" unicode="=" 
d="M482 114h-450l27 145h450zM524 334h-450l27 145h450z" />
    <glyph glyph-name="greater" unicode="&#x3e;" 
d="M144 -13l-107 126l243 187l-172 192l135 116l272 -321z" />
    <glyph glyph-name="question" unicode="?" horiz-adv-x="450" 
d="M273 93q0 -24 -9 -43.5t-24.5 -33.5t-35.5 -22t-42 -8t-40 7.5t-30.5 20.5t-19.5 29t-7 34q0 24 9 44.5t24.5 34.5t35.5 22t42 8q45 0 71 -28t26 -65zM483 535q0 -49 -16.5 -83t-40.5 -59.5t-51.5 -44.5t-50.5 -38.5t-37 -41.5t-10 -52h-175q-8 46 2.5 78.5t30.5 57
t45.5 42.5t48 34t38 32t15.5 37q0 19 -13.5 31t-37 19.5t-55 10.5t-66.5 4l53 165q84 -2 144.5 -17.5t99.5 -41t57.5 -60t18.5 -73.5z" />
    <glyph glyph-name="at" unicode="@" horiz-adv-x="959" 
d="M523 429q-9 5 -22 5q-18 0 -33.5 -15.5t-26 -38t-16.5 -47.5t-6 -44q0 -22 13 -22q16 0 38.5 29t43.5 102l9 31v0zM905 464q0 -65 -18 -125t-54.5 -106.5t-92 -74.5t-130.5 -28q-45 0 -69.5 20t-24.5 58h-4q-25 -33 -59 -55.5t-77 -22.5q-41 0 -67 29.5t-26 93.5
q0 47 14 99.5t46 96.5t85 73t130 29q36 0 68.5 -8t51.5 -19l-49 -177q-12 -45 -9.5 -61t22.5 -16q42 0 71 44t29 126q0 32 -10 60t-32 49t-58 33t-88 12q-80 0 -138 -31.5t-96 -81t-56.5 -110t-18.5 -117.5q0 -44 12.5 -78t39.5 -57t70.5 -35t105.5 -12q43 0 91.5 9t94.5 24
l14 -138q-29 -10 -60.5 -18t-63 -13t-61 -8t-54.5 -3q-90 0 -157 21t-111 60t-65.5 95t-21.5 126q0 97 34.5 189.5t99.5 164.5t157.5 116t208.5 44q81 0 142 -20.5t102 -57t61.5 -87.5t20.5 -112z" />
    <glyph glyph-name="A" unicode="A" horiz-adv-x="628" 
d="M407 0l-13 110h-206l-53 -110h-185l339 675h219l93 -675h-194zM366 380q-2 25 -4 48.5t-2 46.5h-2q-8 -23 -18 -47t-22 -49l-59 -123h119z" />
    <glyph glyph-name="B" unicode="B" horiz-adv-x="582" 
d="M364 229q0 23 -17 35t-47 12q-35 0 -58 -1l-22 -123q8 -1 20.5 -1.5t20.5 -0.5q51 0 77 24.5t26 54.5zM399 490q0 40 -61 40q-12 0 -25 -0.5t-22 -1.5l-22 -114q8 -1 15 -1h15q50 0 75 21.5t25 55.5zM599 534q0 -63 -28 -105t-81 -68v-1q33 -13 51.5 -46t18.5 -74
q0 -50 -22.5 -94t-63.5 -77t-99 -52t-129 -19h-56q-38 1 -77 1.5t-105 0.5l128 674q69 3 100 4t83 2h65q47 0 86.5 -7.5t68 -25t44.5 -45.5t16 -68z" />
    <glyph glyph-name="C" unicode="C" horiz-adv-x="530" 
d="M531 492q-21 8 -46 13.5t-49 5.5q-57 0 -93.5 -26t-58 -63.5t-29.5 -79t-8 -72.5q0 -52 24.5 -80.5t84.5 -28.5q32 0 59 6t53 15l-8 -171q-35 -9 -78.5 -14.5t-80.5 -5.5q-84 0 -135 24t-79.5 60t-38 78.5t-9.5 79.5q0 82 25.5 162t77 143.5t128 102.5t178.5 39
q39 0 73 -5t60 -13z" />
    <glyph glyph-name="D" unicode="D" horiz-adv-x="638" 
d="M451 420q0 51 -24 76.5t-84 25.5h-23.5t-30.5 -2l-69 -361q12 -3 34 -3q58 0 96 29.5t60.5 71t31.5 86.5t9 77zM651 437q0 -87 -27.5 -166.5t-81.5 -141t-133 -98t-182 -36.5h-37q-43 0 -87.5 1.5t-94.5 4.5l128 672q19 1 52 2t58 2t73 2h52q62 0 113.5 -13t88.5 -42
t57.5 -75t20.5 -112z" />
    <glyph glyph-name="E" unicode="E" horiz-adv-x="470" 
d="M493 517h-205l-18 -95h195l-30 -152h-194l-21 -109h205l-30 -161h-205h-182l128 675h183h204z" />
    <glyph glyph-name="F" unicode="F" horiz-adv-x="451" 
d="M483 515h-195l-20 -109h184l-30 -153h-184l-48 -253h-182l128 675h180h198z" />
    <glyph glyph-name="G" unicode="G" horiz-adv-x="651" 
d="M634 485q-38 15 -82 24t-85 9q-59 0 -102 -21.5t-70.5 -56t-41 -79t-13.5 -89.5q0 -49 28 -81.5t96 -32.5q11 0 24.5 1t25.5 4l39 205h182l-64 -335q-52 -22 -115 -33.5t-124 -11.5q-77 0 -131.5 18.5t-90 52.5t-52 82t-16.5 106q0 91 31.5 171.5t89 139.5t138.5 93.5
t180 34.5q53 0 106 -6.5t101 -19.5z" />
    <glyph glyph-name="H" unicode="H" horiz-adv-x="657" 
d="M570 0h-182l51 266h-198l-51 -266h-182l128 675h182l-47 -246h198l47 246h183z" />
    <glyph glyph-name="I" unicode="I" horiz-adv-x="276" 
d="M190 0h-182l128 675h182z" />
    <glyph glyph-name="J" unicode="J" horiz-adv-x="336" 
d="M287 187q-7 -35 -22.5 -70.5t-43.5 -64t-70 -46t-102 -17.5q-32 0 -51.5 2t-37.5 6l30 156q8 -3 19 -5.5t25 -2.5q31 0 50 15t26 51l88 464h182z" />
    <glyph glyph-name="K" unicode="K" horiz-adv-x="603" 
d="M428 337l127 -337h-225l-81 308l-59 -308h-182l128 675h182l-54 -289l190 289h230z" />
    <glyph glyph-name="L" unicode="L" horiz-adv-x="423" 
d="M372 0h-182h-182l128 675h182l-97 -509h183z" />
    <glyph glyph-name="M" unicode="M" horiz-adv-x="853" 
d="M809 0h-191l7 225q1 65 9 153h-2q-16 -45 -34 -87.5t-39 -89.5l-91 -201h-169l-17 183q-5 47 -7 95.5t0 99.5h-1q-14 -51 -26 -91t-25 -78l-68 -209h-187l238 675h202l25 -234q4 -35 5 -71.5t1 -81.5h2q16 43 32 79.5t36 76.5l114 231h204z" />
    <glyph glyph-name="N" unicode="N" horiz-adv-x="658" 
d="M572 0h-176h-38l-67 227q-12 40 -22 79t-17 73q-3 -30 -6.5 -52t-9.5 -55l-52 -272h-176l128 675h176h40l61 -197q14 -45 26.5 -89.5t20.5 -85.5q3 35 8.5 71.5t11.5 68.5l44 232h177z" />
    <glyph glyph-name="O" unicode="O" horiz-adv-x="687" 
d="M507 416q0 44 -22.5 73.5t-72.5 29.5q-45 0 -78.5 -22.5t-56.5 -58.5t-34.5 -81t-11.5 -89q0 -111 94 -111q42 0 75.5 22t57.5 58.5t36.5 83t12.5 95.5zM700 438q0 -99 -32 -182t-87 -143t-128.5 -93.5t-155.5 -33.5q-68 0 -117 17.5t-81 50t-47.5 78.5t-15.5 103
q0 90 31 172.5t85.5 145t129 99.5t160.5 37q130 0 194 -65t64 -186z" />
    <glyph glyph-name="P" unicode="P" horiz-adv-x="531" 
d="M381 472q0 27 -16.5 42t-46.5 15h-13t-14 -1l-31 -165q5 -1 7.5 -1h4.5q25 0 45 9.5t34 24.5t22 35t8 41zM572 494q0 -57 -23 -109t-64 -91.5t-99 -63t-127 -23.5h-11.5t-18.5 1l-39 -208h-182l128 675q47 2 92 3.5t90 1.5h27q49 0 90.5 -11t72 -34t47.5 -58t17 -83z" />
    <glyph glyph-name="Q" unicode="Q" horiz-adv-x="687" 
d="M507 416q0 44 -22.5 73.5t-72.5 29.5q-45 0 -78.5 -22.5t-56.5 -58.5t-34.5 -81t-11.5 -89q0 -111 94 -111q42 0 75.5 22t57.5 58.5t36.5 83t12.5 95.5zM602 -225q-51 -9 -89 -9.5t-69.5 3.5t-59 10t-56 11t-61.5 7t-75 -3l30 158q49 5 85.5 4t66.5 -5.5t57 -10.5t56 -10
t64 -4t81 7zM700 438q0 -99 -32 -182t-87 -143t-128.5 -93.5t-155.5 -33.5q-68 0 -117 17.5t-81 50t-47.5 78.5t-15.5 103q0 91 30 173.5t84 144.5t128 99t162 37q130 0 195 -65t65 -186z" />
    <glyph glyph-name="R" unicode="R" horiz-adv-x="574" 
d="M394 478q0 23 -15.5 36t-50.5 13q-11 0 -20 -0.5t-18 -1.5l-27 -145q7 -1 14 -1.5t15 -0.5q24 0 43 8.5t32 22.5t20 32t7 37zM590 516q0 -81 -40.5 -143t-125.5 -98q8 -17 16 -37l16 -40l76 -198h-211l-77 246h-7l-47 -246h-182l128 675q72 3 107.5 4t74.5 1h41
q120 0 175.5 -42t55.5 -122z" />
    <glyph glyph-name="S" unicode="S" horiz-adv-x="470" 
d="M456 516q-22 8 -47 13t-48 5q-50 0 -69 -15.5t-19 -39.5q0 -18 13 -31.5t33 -26t42.5 -27.5t42.5 -35.5t33 -49t13 -69.5q0 -52 -22 -98.5t-62 -81t-95.5 -54.5t-121.5 -20q-39 0 -74 4t-64 12l32 174q55 -26 116 -26q90 0 90 56q0 18 -13 31t-33 25t-42.5 26t-42.5 33.5
t-33 47t-13 67.5q0 52 17.5 98t53.5 80.5t91 54.5t129 20q34 0 65 -2.5t60 -7.5z" />
    <glyph glyph-name="T" unicode="T" horiz-adv-x="492" 
d="M539 515h-143l-98 -515h-182l98 515h-143l30 160h143h183h142z" />
    <glyph glyph-name="U" unicode="U" horiz-adv-x="651" 
d="M611 248q-13 -68 -42 -117.5t-71 -81.5t-96.5 -47.5t-119.5 -15.5q-79 0 -128 22t-74 59.5t-29 88.5t7 109l78 410h182l-82 -430q-20 -103 72 -103q59 0 87 30t39 90l79 413h180z" />
    <glyph glyph-name="V" unicode="V" horiz-adv-x="631" 
d="M385 0h-214l-90 675h191l38 -338q3 -27 4.5 -59.5t1.5 -60.5h2q13 32 28 65t30 65l161 328h191z" />
    <glyph glyph-name="W" unicode="W" horiz-adv-x="931" 
d="M721 0h-221l-7 253q-1 37 1 80.5t7 91.5h-1q-24 -87 -56 -165l-108 -260h-207l-30 675h186l9 -276q1 -32 -1 -70.5t-7 -76.5h1q12 37 24 72.5t28 71.5l122 279h184l16 -268q2 -29 1.5 -68t-4.5 -81h1q14 44 28.5 83t28.5 74l104 260h190z" />
    <glyph glyph-name="X" unicode="X" horiz-adv-x="658" 
d="M471 335l144 -335h-222l-66 204l-144 -204h-222l268 345l-125 330h203l65 -200l139 200h213z" />
    <glyph glyph-name="Y" unicode="Y" horiz-adv-x="585" 
d="M387 233l-44 -233h-182l44 232l-123 443h192l35 -146q7 -29 11.5 -54.5t7.5 -48.5h2q14 27 32.5 56.5t38.5 61.5l81 131h199z" />
    <glyph glyph-name="Z" unicode="Z" horiz-adv-x="523" 
d="M536 521l-246 -322q-5 -7 -10.5 -13.5t-13.5 -14.5q15 1 31 1h177l-32 -172h-439l28 147l237 324q8 10 16 19.5t17 18.5q-11 -1 -14 -1h-9h-172l31 167h428z" />
    <glyph glyph-name="bracketleft" unicode="[" horiz-adv-x="329" 
d="M379 638h-79l-134 -703h79l-27 -148h-248l190 998h248z" />
    <glyph glyph-name="backslash" unicode="\" horiz-adv-x="523" 
d="M289 -161l-181 918h164l182 -918h-165z" />
    <glyph glyph-name="bracketright" unicode="]" horiz-adv-x="329" 
d="M201 -213h-248l27 148h80l134 703h-79l28 147h248z" />
    <glyph glyph-name="asciicircum" unicode="^" 
d="M393 328l-66 221l-148 -221l-109 62l213 285h134l110 -283z" />
    <glyph glyph-name="underscore" unicode="_" 
d="M465 -242h-550l28 148h550z" />
    <glyph glyph-name="grave" unicode="`" horiz-adv-x="372" 
d="M345 544l-224 103l75 121l213 -123z" />
    <glyph glyph-name="a" unicode="a" horiz-adv-x="548" 
d="M353 361q-8 2 -15.5 3.5t-18.5 1.5q-26 0 -46.5 -18t-35 -45t-22.5 -59t-8 -60q0 -20 4 -29.5t15 -9.5q14 0 33 19t37 47.5t32.5 63t20.5 65.5l4 21v0zM557 492q-12 -61 -24 -125t-24 -127t-23 -124t-19 -116h-174q6 24 13 46.5t18 47.5h-2q-72 -107 -175 -107
q-125 0 -125 162q0 73 20.5 138t62 114.5t103 78.5t143.5 29q49 0 101.5 -3.5t104.5 -13.5z" />
    <glyph glyph-name="b" unicode="b" horiz-adv-x="548" 
d="M358 313q0 20 -4 29.5t-15 9.5q-14 0 -33 -19t-37 -47.5t-32.5 -63t-20.5 -65.5l-4 -21q8 -2 15.5 -3.5t18.5 -1.5q25 0 46 17.5t35.5 44.5t22.5 59t8 61zM543 348q0 -73 -20.5 -138t-62 -114.5t-103 -78.5t-143.5 -29q-110 0 -205 22l137 720h179l-32 -168
q-8 -44 -22 -84t-32 -78h2q74 110 177 110q125 0 125 -162z" />
    <glyph glyph-name="c" unicode="c" horiz-adv-x="392" 
d="M375 343q-24 10 -56 10q-28 0 -48 -13t-32.5 -34t-18.5 -46.5t-6 -49.5q0 -29 16 -45.5t48 -16.5q17 0 34 2.5t33 7.5l-19 -158q-25 -8 -51 -11t-52 -3q-103 0 -150.5 48t-47.5 136q0 72 21.5 134t61 108t95 72t124.5 26q45 0 90 -9z" />
    <glyph glyph-name="d" unicode="d" horiz-adv-x="548" 
d="M353 361q-8 2 -15.5 3.5t-18.5 1.5q-26 0 -46.5 -18t-35 -45t-22.5 -59t-8 -60q0 -20 4 -29.5t15 -9.5q14 0 33 19t37 47.5t32.5 63t20.5 65.5l4 21v0zM497 179q-8 -45 -15 -88t-15 -91h-173q5 24 12 46.5t18 47.5h-2q-72 -107 -175 -107q-125 0 -125 162q0 73 20.5 138
t62 114.5t103 78.5t143.5 29h11q7 0 19 -2l42 223h179z" />
    <glyph glyph-name="e" unicode="e" horiz-adv-x="498" 
d="M326 351q0 25 -29 25q-17 0 -29.5 -7.5t-22.5 -19.5t-17 -27t-11 -30q46 1 77.5 13.5t31.5 45.5zM499 375q0 -51 -23 -87.5t-63 -60t-94.5 -35t-117.5 -12.5v-12q0 -20 13 -29.5t54 -9.5q36 0 74.5 8t76.5 22v-137q-49 -17 -102 -25.5t-104 -8.5q-54 0 -90.5 13
t-58.5 36.5t-31 56.5t-9 73q0 86 26 150t68 107t94 64t104 21q56 0 91.5 -12.5t56 -32t28 -43t7.5 -46.5z" />
    <glyph glyph-name="f" unicode="f" horiz-adv-x="358" 
d="M422 586q-10 3 -22 5t-22 2q-29 0 -41 -13t-20 -52l-6 -31h82l-27 -140h-83l-68 -364q-22 -118 -84 -175.5t-159 -57.5q-21 0 -44 2t-44 7l41 148q8 -2 20 -4t22 -2q13 0 23.5 3t18.5 12t15 26t12 45l68 360h-62l28 140h62l7 40q8 48 25 86t46 64t71.5 40t101.5 14
q20 0 40 -1.5t38 -6.5z" />
    <glyph glyph-name="g" unicode="g" horiz-adv-x="544" 
d="M353 361q-8 2 -15.5 3.5t-18.5 1.5q-26 0 -46.5 -18t-35 -45t-22.5 -59t-8 -60q0 -20 4 -29.5t15 -9.5q14 0 33 19t37 47.5t32.5 63t20.5 65.5l4 21v0zM460 -10q-23 -122 -103 -177.5t-231 -55.5q-44 0 -85 6.5t-74 17.5l43 162q32 -17 69.5 -25t71.5 -8q61 0 94.5 22.5
t41.5 64.5q5 22 14 45t23 52h-2q-72 -107 -175 -107q-125 0 -125 162q0 73 20.5 138t62 114.5t103 78.5t143.5 29q49 0 101.5 -3.5t104.5 -13.5z" />
    <glyph glyph-name="h" unicode="h" horiz-adv-x="553" 
d="M468 0h-179l58 303q5 28 2.5 38.5t-12.5 10.5q-12 0 -29.5 -17.5t-36 -46t-34.5 -65t-23 -75.5l-28 -148h-179l139 730h179l-33 -176q-8 -39 -21 -77.5t-30 -73.5h2q33 48 76 77.5t104 29.5q38 0 62.5 -13t37.5 -34.5t15 -51t-4 -62.5z" />
    <glyph glyph-name="i" unicode="i" horiz-adv-x="273" 
d="M186 0h-179l95 497h179zM327 649q0 -25 -9.5 -46t-26 -36t-37.5 -23.5t-43 -8.5q-23 0 -41.5 8t-32 21.5t-21 31.5t-7.5 37q0 24 9.5 44.5t26 35.5t37 23.5t43.5 8.5q22 0 41 -8t32.5 -21.5t21 -31t7.5 -35.5z" />
    <glyph glyph-name="j" unicode="j" horiz-adv-x="275" 
d="M188 -12q-10 -51 -29.5 -93t-51 -72t-76.5 -46.5t-106 -16.5q-18 0 -36.5 2.5t-34.5 7.5l38 153q12 -5 25 -7.5t23 -2.5q28 0 44.5 18.5t25.5 63.5l97 502h179zM329 649q0 -25 -9.5 -46t-26 -36t-37.5 -23.5t-43 -8.5q-23 0 -41.5 8t-32 21.5t-21 31.5t-7.5 37
q0 24 9.5 44.5t26 35.5t37 23.5t43.5 8.5q22 0 41 -8t32.5 -21.5t21 -31t7.5 -35.5z" />
    <glyph glyph-name="k" unicode="k" horiz-adv-x="544" 
d="M402 263l108 -263h-215l-65 230l-44 -230h-179l139 730h179l-81 -424l191 227l146 -87z" />
    <glyph glyph-name="l" unicode="l" horiz-adv-x="271" 
d="M186 0h-179l139 730h179z" />
    <glyph glyph-name="m" unicode="m" horiz-adv-x="835" 
d="M749 0h-179l58 303q5 28 2.5 38.5t-12.5 10.5q-12 0 -29.5 -17.5t-36 -46t-34.5 -65t-23 -75.5l-28 -148h-178l58 303q5 28 2.5 38.5t-12.5 10.5q-12 0 -29.5 -17.5t-36 -46t-34.5 -65t-23 -75.5l-28 -148h-179l50 260q11 60 21.5 119t19.5 118h173q-4 -20 -11.5 -44.5
t-18.5 -49.5h2q34 48 75.5 77.5t102.5 29.5q42 0 72.5 -23t30.5 -75v-6t-1 -9h1q35 54 77.5 83.5t103.5 29.5q38 0 62.5 -13t37.5 -34.5t15 -51t-4 -62.5z" />
    <glyph glyph-name="n" unicode="n" horiz-adv-x="553" 
d="M468 0h-179l58 303q5 28 2.5 38.5t-12.5 10.5q-12 0 -29.5 -17.5t-36 -46t-34.5 -65t-23 -75.5l-28 -148h-179l50 260q11 60 21.5 119t19.5 118h173q-4 -19 -10.5 -42.5t-19.5 -51.5h2q33 48 76 77.5t104 29.5q38 0 62.5 -13t37.5 -34.5t15 -51t-4 -62.5z" />
    <glyph glyph-name="o" unicode="o" horiz-adv-x="553" 
d="M359 300q0 26 -10.5 38.5t-38.5 12.5q-26 0 -45 -15.5t-31 -39t-18 -50.5t-6 -50q0 -20 9.5 -34.5t35.5 -14.5q28 0 48 15t32.5 38t18 50t5.5 50zM547 324q0 -76 -26 -138t-69 -106t-100 -68t-118 -24q-60 0 -100 13t-65 36.5t-35.5 57t-10.5 74.5q0 83 27.5 146.5
t71.5 106.5t100.5 65t115.5 22t99 -14t64.5 -39t35 -58.5t10.5 -73.5z" />
    <glyph glyph-name="p" unicode="p" horiz-adv-x="548" 
d="M358 313q0 20 -4 29.5t-15 9.5q-14 0 -33 -19t-37 -47.5t-32.5 -63t-20.5 -65.5l-4 -21q8 -2 15.5 -3.5t18.5 -1.5q25 0 46 17.5t35.5 44.5t22.5 59t8 61zM543 348q0 -73 -20.5 -138t-62 -114.5t-103 -78.5t-143.5 -29h-12q-6 0 -18 2l-42 -223h-179l94 493
q11 60 21.5 119t19.5 118h174q-6 -24 -13 -46.5t-18 -47.5h2q72 107 175 107q125 0 125 -162z" />
    <glyph glyph-name="q" unicode="q" horiz-adv-x="548" 
d="M353 361q-8 2 -15.5 3.5t-18.5 1.5q-26 0 -46.5 -18t-35 -45t-22.5 -59t-8 -60q0 -20 4 -29.5t15 -9.5q14 0 33 19t37 47.5t32.5 63t20.5 65.5l4 21v0zM419 -233h-179l32 170q8 45 21 83t31 74h-2q-72 -107 -175 -107q-125 0 -125 162q0 73 20.5 138t62 114.5t103 78.5
t143.5 29q49 0 101.5 -4t104.5 -14z" />
    <glyph glyph-name="r" unicode="r" horiz-adv-x="353" 
d="M367 334q-18 7 -40 1t-44 -31.5t-42.5 -74.5t-35.5 -128l-19 -101h-179l50 260q11 60 21.5 119t19.5 118h171q-5 -23 -12 -47.5t-18 -53.5h2q35 62 73.5 91t92.5 22z" />
    <glyph glyph-name="s" unicode="s" horiz-adv-x="371" 
d="M339 368q-29 8 -55 8q-46 0 -46 -25q0 -14 15.5 -29t34 -36t34 -49.5t15.5 -67.5q0 -32 -14 -64t-44 -58t-76.5 -42.5t-111.5 -16.5q-51 0 -90 11l31 147q16 -8 35 -12t35 -4q45 0 45 24q0 18 -15 32t-32.5 32.5t-32.5 45t-15 69.5q0 37 14.5 69t43.5 56t74 37.5
t105 13.5q21 0 42.5 -1.5t40.5 -4.5z" />
    <glyph glyph-name="t" unicode="t" horiz-adv-x="372" 
d="M369 357h-91l-32 -173q-5 -26 1 -35.5t27 -9.5q16 0 28.5 2t24.5 4l-21 -142q-29 -8 -59.5 -11.5t-55.5 -3.5q-86 0 -115 43t-11 140l35 186h-62l28 140h60l27 140l185 35l-33 -175h92z" />
    <glyph glyph-name="u" unicode="u" horiz-adv-x="552" 
d="M512 237q-11 -60 -21.5 -119t-19.5 -118h-173q4 19 10.5 42.5t19.5 51.5h-2q-33 -48 -76 -77.5t-104 -29.5q-38 0 -62.5 13t-37.5 34.5t-15 51t4 62.5l66 349h179l-58 -303q-5 -28 -2.5 -38.5t12.5 -10.5q12 0 29.5 17t36 45.5t34 65.5t23.5 76l28 148h179z" />
    <glyph glyph-name="v" unicode="v" horiz-adv-x="521" 
d="M321 0h-188l-82 497h188l15 -106q5 -38 8 -76t5 -73h2l126 278l177 -48z" />
    <glyph glyph-name="w" unicode="w" horiz-adv-x="791" 
d="M608 0h-199l-10 116q-2 29 -3.5 59.5t-0.5 68.5h-1q-26 -63 -54.5 -123.5t-57.5 -120.5h-174l-50 497h186l4 -77q2 -40 5 -82.5t4 -94.5h1q21 55 50.5 121t60.5 133h162l7 -77q4 -45 6.5 -89.5t4.5 -88.5h1q26 68 55.5 137.5t58.5 138.5l175 -45z" />
    <glyph glyph-name="x" unicode="x" horiz-adv-x="539" 
d="M395 237l101 -237h-207l-38 130l-128 -166l-155 82l197 219l-99 232h197l42 -131l127 167l150 -81z" />
    <glyph glyph-name="y" unicode="y" 
d="M594 473q-60 -138 -109.5 -236t-92.5 -169t-83 -121t-80 -90q-28 -28 -54 -46.5t-51.5 -30t-51.5 -16.5t-53 -5q-19 0 -41 2t-39 6l28 153q29 -10 59 -10q21 0 38.5 3.5t30.5 13.5q14 10 22 30t8 53q0 119 -24 240.5t-59 246.5h199q8 -30 15.5 -66.5t13 -76.5t9 -81.5
t3.5 -80.5v-13h2q35 74 70.5 158.5t69.5 180.5l170 -45v0z" />
    <glyph glyph-name="z" unicode="z" horiz-adv-x="446" 
d="M432 366l-163 -200q4 0 13.5 0.5t20.5 0.5h23h21h50l-31 -167h-364l25 130l170 205q-5 -1 -22.5 -1.5t-46.5 -0.5h-56l31 164h355z" />
    <glyph glyph-name="braceleft" unicode="{" horiz-adv-x="384" 
d="M436 638q-22 0 -37 -3.5t-25.5 -15t-18 -34t-14.5 -60.5l-8 -42q-9 -49 -22.5 -81t-29.5 -52t-34 -29t-36 -12v-2q17 -3 31.5 -13t23 -31t9.5 -54t-9 -82l-15 -76q-8 -38 -9 -61t5 -35t19.5 -16t35.5 -4l-28 -148h-25q-56 0 -94 14t-58.5 45.5t-23.5 81.5t11 122l15 77
q7 34 4 55.5t-13 34.5t-25.5 18t-34.5 6l26 134q19 1 36.5 5t32.5 16t25.5 32.5t16.5 54.5l7 42q12 72 34 121.5t54.5 80.5t76.5 44.5t100 13.5h26z" />
    <glyph glyph-name="bar" unicode="|" horiz-adv-x="286" 
d="M127 -233h-142l190 1000h143z" />
    <glyph glyph-name="braceright" unicode="}" horiz-adv-x="384" 
d="M368 241q-20 -1 -37 -6t-31.5 -18t-25.5 -34.5t-18 -55.5l-15 -77q-14 -72 -36 -122t-54 -81.5t-75.5 -45.5t-99.5 -14h-25l27 148q22 0 37 4t25.5 16t18 35t15.5 61l15 76q10 49 23.5 82t29.5 54t34 31t37 13v2q-18 3 -32.5 12t-22.5 29t-9 52t8 81l8 42q7 38 8 60.5
t-5 34t-19.5 15t-35.5 3.5l28 147h26q56 0 94 -14t58 -44.5t22.5 -80t-10.5 -121.5l-8 -42q-6 -34 -3 -54.5t12.5 -32.5t25.5 -16t35 -5z" />
    <glyph glyph-name="asciitilde" unicode="~" 
d="M593 598q-5 -106 -56 -157.5t-132 -51.5q-44 0 -69.5 15t-41 33t-26 33t-24.5 15q-15 0 -24.5 -15t-14.5 -54h-135q5 106 56 157.5t132 51.5q44 0 69.5 -15t41 -33t26 -33t24.5 -15q15 0 24.5 15t14.5 54h135v0z" />
    <glyph glyph-name="Zcaron" horiz-adv-x="523" 
d="M536 521l-246 -322q-5 -7 -10.5 -13.5t-13.5 -14.5q15 1 31 1h177l-32 -172h-439l28 147l237 324q8 10 16 19.5t17 18.5q-11 -1 -14 -1h-9h-172l31 167h428zM358 703l-164 90l44 82l131 -55l142 55l28 -82z" />
    <glyph glyph-name="Zcaron" unicode="&#x17d;" horiz-adv-x="523" 
d="M536 521l-246 -322q-5 -7 -10.5 -13.5t-13.5 -14.5q15 1 31 1h177l-32 -172h-439l28 147l237 324q8 10 16 19.5t17 18.5q-11 -1 -14 -1h-9h-172l31 167h428zM358 703l-164 90l44 82l131 -55l142 55l28 -82z" />
    <glyph glyph-name="zcaron" horiz-adv-x="446" 
d="M432 366l-163 -200q4 0 13.5 0.5t20.5 0.5h23h21h50l-31 -167h-364l25 130l170 205q-5 -1 -22.5 -1.5t-46.5 -0.5h-56l31 164h355zM286 544l-144 142l74 82l92 -77l121 77l54 -82z" />
    <glyph glyph-name="zcaron" unicode="&#x17e;" horiz-adv-x="446" 
d="M432 366l-163 -200q4 0 13.5 0.5t20.5 0.5h23h21h50l-31 -167h-364l25 130l170 205q-5 -1 -22.5 -1.5t-46.5 -0.5h-56l31 164h355zM286 544l-144 142l74 82l92 -77l121 77l54 -82z" />
    <glyph glyph-name="exclamdown" unicode="&#xa1;" horiz-adv-x="318" 
d="M175 -218h-209l120 499h157zM295 420q0 -24 -9 -44.5t-24.5 -34.5t-35.5 -22t-42 -8q-45 0 -71 28t-26 65q0 24 9 43.5t24.5 33.5t35.5 22t42 8t40 -7.5t30.5 -20.5t19.5 -29t7 -34z" />
    <glyph glyph-name="cent" unicode="&#xa2;" 
d="M473 411q-15 8 -36.5 12.5t-43.5 4.5q-27 0 -48.5 -10.5t-36 -28t-22.5 -39t-8 -42.5q0 -35 23.5 -51t56.5 -16q23 0 42 3t43 14l24 -140q-21 -9 -51 -16.5t-51 -9.5l-18 -92h-134l18 93q-72 10 -110.5 57t-38.5 126q0 50 15.5 97.5t46 87t75 67.5t102.5 40l16 82h134
l-15 -77q20 -2 42.5 -7t39.5 -11z" />
    <glyph glyph-name="sterling" unicode="&#xa3;" 
d="M506 497q-18 6 -42.5 11.5t-53.5 5.5q-49 0 -67 -26.5t-21 -92.5h138l-26 -140h-122q-2 -26 -13.5 -54t-29.5 -48q16 1 32.5 1.5t31.5 0.5h161l-30 -155h-443l23 123q42 26 62 61t22 71h-80l26 140h63q3 43 14 90t41 87t85.5 66t148.5 26q31 0 66.5 -4t67.5 -11z" />
    <glyph glyph-name="currency" unicode="&#xa4;" 
d="M367 364q0 47 -49 47q-19 0 -35 -8.5t-28 -23t-18.5 -34t-6.5 -40.5q0 -25 11.5 -40t33.5 -15q27 0 44.5 12t28 29t15 37t4.5 36zM518 444q4 -10 6 -23.5t2 -27.5q0 -48 -13.5 -89.5t-46.5 -86.5l53 -90l-160 -98l-53 96q-14 -2 -28 -3.5t-28 -1.5q-9 0 -18 0.5t-18 1.5
l-82 -91l-129 104l78 80q-6 14 -8 29.5t-2 34.5q0 42 13.5 84t44.5 81l-49 87l158 96l50 -91q15 2 29.5 3.5t29.5 1.5q11 0 21 -0.5t20 -1.5l80 90l126 -106z" />
    <glyph glyph-name="yen" unicode="&#xa5;" 
d="M438 354h97l-21 -111h-141l-8 -43h141l-21 -111h-141l-17 -89h-184l17 89h-141l21 111h141l8 43h-141l21 111h98l-83 296h196l23 -117q5 -22 8 -45.5t5 -36.5h2q7 14 20.5 37.5t24.5 42.5l70 119h201z" />
    <glyph glyph-name="brokenbar" unicode="&#xa6;" horiz-adv-x="286" 
d="M127 -233h-142l72 378h142zM248 399h-142l69 368h143z" />
    <glyph glyph-name="section" unicode="&#xa7;" horiz-adv-x="533" 
d="M333 255q0 11 -3.5 20.5t-13.5 22t-26.5 29.5t-43.5 42q-25 -21 -25 -58q0 -10 4 -19.5t13.5 -22t26.5 -29t44 -39.5q13 10 18.5 24.5t5.5 29.5zM487 583q-18 5 -36.5 7.5t-36.5 2.5q-46 0 -61.5 -14t-15.5 -35q0 -14 11.5 -26.5t29.5 -27.5t38 -32.5t38 -41.5
t29.5 -55.5t11.5 -72.5q0 -28 -8.5 -54t-22 -49t-32 -41.5t-37.5 -30.5q8 -11 13 -30.5t5 -39.5q0 -41 -18 -79.5t-55 -68.5t-93 -48t-131 -18q-30 0 -57 2.5t-47 6.5l39 154q20 -5 39 -9t38 -4q29 0 46.5 5.5t27 13.5t12.5 17t3 16q0 16 -12 30t-29.5 29t-38 32t-38 38.5
t-29.5 49t-12 63.5q0 60 28.5 108t73.5 77q-11 17 -16 35t-5 43q0 30 14.5 66t48 67t87.5 51.5t134 20.5q28 0 53 -2t48 -5z" />
    <glyph glyph-name="dieresis" unicode="&#xa8;" horiz-adv-x="535" 
d="M324 643q0 -20 -7.5 -37t-20.5 -30t-30 -20t-36 -7t-35 7t-28 19.5t-18.5 28.5t-6.5 34q0 19 8 36t21 30t30 20t36 7t35 -7t27.5 -19t18 -28t6.5 -34zM541 643q0 -20 -7.5 -37t-20.5 -30t-30 -20t-36 -7q-38 0 -63 26.5t-25 63.5q0 19 8 36t21 29.5t30 19.5t36 7t35 -7
t27.5 -19t18 -28t6.5 -34z" />
    <glyph glyph-name="copyright" unicode="&#xa9;" horiz-adv-x="755" 
d="M482 378q-12 17 -45 17q-29 0 -44.5 -24.5t-15.5 -58.5q0 -17 9 -25.5t23 -8.5t29.5 3t29.5 11l5 -113q-51 -24 -104 -24q-58 0 -97 35t-39 102q0 41 14 80.5t41 70t65 49.5t86 19q31 0 52 -5t35 -13zM621 343q0 43 -16 81t-43.5 66.5t-65.5 45t-81 16.5
q-45 0 -86.5 -17.5t-73 -49t-50 -74.5t-18.5 -93q0 -42 16 -79.5t43.5 -65.5t65 -44.5t81.5 -16.5q45 0 86 17.5t72.5 48.5t50.5 73.5t19 91.5zM756 352q0 -80 -30.5 -148t-81.5 -117.5t-118 -77.5t-140 -28q-71 0 -132 26t-106 70.5t-70.5 105t-25.5 129.5q0 79 30.5 147
t81.5 117.5t118 78t140 28.5q70 0 131 -26t106 -70.5t71 -105t26 -129.5z" />
    <glyph glyph-name="ordfeminine" unicode="&#xaa;" horiz-adv-x="427" 
d="M301 570q-5 2 -11.5 3t-14.5 1q-19 0 -34 -12t-25.5 -31t-16 -41.5t-5.5 -44.5q0 -30 14 -30q11 0 25.5 12.5t28 32.5t24 45t13.5 49l2 16v0zM372 124h-349l26 140h349zM461 675q-18 -94 -37.5 -192.5t-30.5 -183.5h-136q5 18 10.5 35.5t12.5 36.5h-1q-55 -82 -132 -82
q-47 0 -72.5 30.5t-25.5 93.5q0 55 16.5 105t48.5 88t79 60t109 22q36 0 77 -2.5t82 -10.5z" />
    <glyph glyph-name="guillemotleft" unicode="&#xab;" horiz-adv-x="559" 
d="M209 291l46 -157l-151 -58l-64 225l137 207l135 -63zM458 291l55 -147l-148 -60l-76 215l146 201l130 -64z" />
    <glyph glyph-name="logicalnot" unicode="&#xac;" 
d="M476 84h-163l26 138h-302l29 152h465z" />
    <glyph glyph-name="registered" unicode="&#xae;" horiz-adv-x="555" 
d="M358 574q0 14 -17 14h-8l-6 -35h6q9 0 17 5t8 16zM446 591q0 -22 -9.5 -40t-35.5 -32q3 -5 5 -12.5t3 -13.5l9 -63h-89l-2 70h-11l-13 -70h-75l41 215h102q40 0 57.5 -14t17.5 -40zM485 543q0 29 -10.5 55t-29.5 45.5t-44 31t-55 11.5q-31 0 -59 -12.5t-49.5 -34
t-34 -51.5t-12.5 -64q0 -29 10.5 -55.5t29.5 -46t44 -31t55 -11.5t58 12.5t49.5 34t34.5 51.5t13 65zM589 548q0 -58 -22 -106.5t-58.5 -83t-84.5 -54t-99 -19.5q-50 0 -93.5 18t-75.5 49t-50.5 73.5t-18.5 92.5q0 58 22 106.5t58.5 83t84 54t98.5 19.5q50 0 93.5 -18
t76 -49t51 -74t18.5 -92z" />
    <glyph glyph-name="macron" unicode="&#xaf;" horiz-adv-x="387" 
d="M409 575h-289l24 130h289z" />
    <glyph glyph-name="macron" unicode="&#x2c9;" horiz-adv-x="387" 
d="M409 575h-289l24 130h289z" />
    <glyph glyph-name="degree" unicode="&#xb0;" horiz-adv-x="397" 
d="M310 591q0 14 -9.5 27t-26.5 13q-20 0 -34.5 -13.5t-14.5 -38.5q0 -19 10 -30.5t30 -11.5t32.5 15t12.5 39zM440 601q0 -46 -17 -79.5t-44 -55t-61 -31.5t-68 -10q-78 0 -117 39.5t-39 102.5q0 44 17.5 76.5t44.5 54.5t60 32.5t65 10.5q46 0 76.5 -12t49 -32t26 -45
t7.5 -51z" />
    <glyph glyph-name="plusminus" unicode="&#xb1;" 
d="M469 0h-468l29 152h468zM544 362h-153l-31 -164h-174l31 164h-153l28 150h153l32 163h174l-32 -163h153z" />
    <glyph glyph-name="twosuperior" unicode="&#xb2;" horiz-adv-x="323" 
d="M352 582q0 -33 -18.5 -60t-66.5 -58l-14 -9h82l-20 -105h-251l20 100l39 25q42 27 55 41t13 24q0 13 -18 13q-11 0 -25.5 -3.5t-28.5 -8.5v103q25 8 53.5 13t57.5 5q66 0 94 -22.5t28 -57.5z" />
    <glyph glyph-name="threesuperior" unicode="&#xb3;" horiz-adv-x="314" 
d="M345 588q0 -24 -13 -48t-45 -37q20 -2 32 -17.5t12 -37.5q0 -18 -8.5 -37.5t-29 -35.5t-56 -26.5t-89.5 -10.5q-22 0 -48 3.5t-37 5.5l23 82q19 -7 47 -7q21 0 33.5 6.5t12.5 18.5q0 28 -79 14l14 74h4q45 0 61.5 8t16.5 22q0 6 -4.5 9.5t-17.5 3.5t-28 -3t-28 -10v81
q17 5 48 10.5t61 5.5q66 0 92 -21.5t26 -52.5z" />
    <glyph glyph-name="acute" unicode="&#xb4;" horiz-adv-x="392" 
d="M214 544l-55 100l218 124l64 -123z" />
    <glyph glyph-name="mu" unicode="&#xb5;" horiz-adv-x="565" 
d="M522 -3q-17 -4 -35.5 -6.5t-35.5 -2.5q-66 0 -91 22t-25 62v10.5t1 11.5h-1q-31 -55 -63 -78.5t-56 -23.5q-20 0 -30.5 6.5t-15.5 16.5v-33t-2 -29q-8 -48 -11.5 -93t-2.5 -93h-179q9 133 36 265t52 263l38 202h179l-52 -273q-5 -26 -7 -41.5t-1 -23.5t4 -11t8 -3
q12 0 29.5 17t36 45.5t34 65.5t23.5 76l28 148h179l-50 -259q-9 -48 -9 -70q0 -17 4 -23t16 -6q8 0 13 1l-14 -143v0z" />
    <glyph glyph-name="mu" unicode="&#x3bc;" horiz-adv-x="565" 
d="M522 -3q-17 -4 -35.5 -6.5t-35.5 -2.5q-66 0 -91 22t-25 62v10.5t1 11.5h-1q-31 -55 -63 -78.5t-56 -23.5q-20 0 -30.5 6.5t-15.5 16.5v-33t-2 -29q-8 -48 -11.5 -93t-2.5 -93h-179q9 133 36 265t52 263l38 202h179l-52 -273q-5 -26 -7 -41.5t-1 -23.5t4 -11t8 -3
q12 0 29.5 17t36 45.5t34 65.5t23.5 76l28 148h179l-50 -259q-9 -48 -9 -70q0 -17 4 -23t16 -6q8 0 13 1l-14 -143v0z" />
    <glyph glyph-name="paragraph" unicode="&#xb6;" horiz-adv-x="610" 
d="M292 206q-110 0 -163 52t-53 140q0 56 21 106.5t60 88.5t95.5 60t128.5 22zM634 527h-56l-118 -623h-210l28 148h64l119 623h201z" />
    <glyph glyph-name="periodcentered" unicode="&#xb7;" horiz-adv-x="320" 
d="M288 301q0 -24 -9.5 -44.5t-25 -35.5t-36.5 -24t-44 -9t-43 8.5t-34 23.5t-22 34.5t-8 41.5q0 23 9 43.5t25 35.5t37 24t44 9t42.5 -8.5t34 -23.5t22.5 -34.5t8 -40.5z" />
    <glyph glyph-name="periodcentered" unicode="&#x2219;" horiz-adv-x="320" 
d="M288 301q0 -24 -9.5 -44.5t-25 -35.5t-36.5 -24t-44 -9t-43 8.5t-34 23.5t-22 34.5t-8 41.5q0 23 9 43.5t25 35.5t37 24t44 9t42.5 -8.5t34 -23.5t22.5 -34.5t8 -40.5z" />
    <glyph glyph-name="cedilla" unicode="&#xb8;" horiz-adv-x="392" 
d="M200 -39q28 -58 13.5 -108t-62.5 -86h-135q38 36 49 72t-15 84l150 38v0z" />
    <glyph glyph-name="onesuperior" unicode="&#xb9;" horiz-adv-x="323" 
d="M280 350h-141l36 191l-62 -22v101l92 30h132z" />
    <glyph glyph-name="ordmasculine" unicode="&#xba;" horiz-adv-x="426" 
d="M322 524q0 20 -7 31t-27 11q-21 0 -35.5 -11.5t-23.5 -28.5t-13 -37t-4 -37q0 -19 7.5 -30.5t28.5 -11.5q19 0 33 10.5t23 27t13.5 37t4.5 39.5zM373 124h-350l26 140h350zM463 542q0 -57 -18.5 -103.5t-50.5 -80t-75 -52t-92 -18.5q-42 0 -71.5 11.5t-48 31t-27.5 45.5
t-9 56q0 55 17 102.5t48 81.5t75 53.5t98 19.5q46 0 75.5 -12.5t47 -32.5t24.5 -47t7 -55z" />
    <glyph glyph-name="guillemotright" unicode="&#xbb;" horiz-adv-x="559" 
d="M155 84l-130 64l107 145l-55 147l148 60l76 -215zM413 76l-135 63l103 154l-46 157l151 58l64 -225z" />
    <glyph glyph-name="onequarter" unicode="&#xbc;" horiz-adv-x="735" 
d="M482 132h46l18 92zM666 39h-36l-8 -39h-120l7 39h-134l6 89l119 172h179l-31 -167h36zM117 -25l-94 87l614 611l94 -87zM279 350h-141l36 191l-62 -22v101l92 30h132z" />
    <glyph glyph-name="onehalf" unicode="&#xbd;" horiz-adv-x="735" 
d="M279 350h-141l36 191l-62 -22v101l92 30h132zM117 -25l-94 87l614 611l94 -87zM693 232q0 -33 -18.5 -60t-66.5 -58l-14 -9h82l-20 -105h-251l20 100l39 25q42 27 55 41t13 24q0 13 -18 13q-11 0 -25.5 -3.5t-28.5 -8.5v103q25 8 53.5 13t57.5 5q66 0 94 -22.5t28 -57.5z
" />
    <glyph glyph-name="threequarters" unicode="&#xbe;" horiz-adv-x="745" 
d="M351 588q0 -24 -13 -48t-45 -37q20 -2 32 -17.5t12 -37.5q0 -18 -8.5 -37.5t-29 -35.5t-56 -26.5t-89.5 -10.5q-22 0 -48 3.5t-37 5.5l23 82q19 -7 47 -7q21 0 33.5 6.5t12.5 18.5q0 28 -79 14l14 74h4q45 0 61.5 8t16.5 22q0 6 -4.5 9.5t-17.5 3.5t-28 -3t-28 -10v81
q17 5 48 10.5t61 5.5q66 0 92 -21.5t26 -52.5zM127 -25l-94 87l614 611l94 -87zM676 39h-36l-8 -39h-120l7 39h-134l6 89l119 172h179l-31 -167h36zM492 132h46l18 92z" />
    <glyph glyph-name="questiondown" unicode="&#xbf;" horiz-adv-x="450" 
d="M364 281q8 -46 -2.5 -78.5t-30.5 -57t-45.5 -42.5t-48 -34t-38 -32t-15.5 -37q0 -19 13.5 -31t37 -19.5t55 -10.5t66.5 -4l-53 -165q-84 1 -144.5 17t-99.5 41.5t-57.5 60t-18.5 73.5q0 49 16.5 83t40.5 59.5t51.5 44.5t50.5 38.5t37 41t10 52.5h175v0zM401 420
q0 -24 -9 -44.5t-24.5 -34.5t-35.5 -22t-42 -8q-45 0 -71 28t-26 65q0 24 9 43.5t24.5 33.5t35.5 22t42 8t40 -7.5t30.5 -20.5t19.5 -29t7 -34z" />
    <glyph glyph-name="Agrave" unicode="&#xc0;" horiz-adv-x="628" 
d="M407 0l-13 110h-206l-53 -110h-185l339 675h219l93 -675h-194zM366 380q-2 25 -4 48.5t-2 46.5h-2q-8 -23 -18 -47t-22 -49l-59 -123h119zM485 703l-236 49l51 123l224 -76z" />
    <glyph glyph-name="Aacute" unicode="&#xc1;" horiz-adv-x="628" 
d="M407 0l-13 110h-206l-53 -110h-185l339 675h219l93 -675h-194zM366 380q-2 25 -4 48.5t-2 46.5h-2q-8 -23 -18 -47t-22 -49l-59 -123h119zM313 703l-15 96l245 76l19 -123z" />
    <glyph glyph-name="Acircumflex" unicode="&#xc2;" horiz-adv-x="628" 
d="M407 0l-13 110h-206l-53 -110h-185l339 675h219l93 -675h-194zM366 380q-2 25 -4 48.5t-2 46.5h-2q-8 -23 -18 -47t-22 -49l-59 -123h119zM539 703l-131 55l-142 -55l-28 82l181 90l164 -90z" />
    <glyph glyph-name="Atilde" unicode="&#xc3;" horiz-adv-x="628" 
d="M407 0l-13 110h-206l-53 -110h-185l339 675h219l93 -675h-194zM366 380q-2 25 -4 48.5t-2 46.5h-2q-8 -23 -18 -47t-22 -49l-59 -123h119zM613 812q-55 -95 -145 -95q-26 0 -43 6t-29 13.5t-22.5 14t-22.5 6.5q-18 0 -29 -9.5t-22 -29.5l-85 58q28 47 63.5 71t81.5 24
q26 0 43 -6.5t29.5 -14t23 -13.5t22.5 -6q17 0 28.5 9.5t22.5 29.5l84 -58v0z" />
    <glyph glyph-name="Adieresis" unicode="&#xc4;" horiz-adv-x="628" 
d="M407 0l-13 110h-206l-53 -110h-185l339 675h219l93 -675h-194zM366 380q-2 25 -4 48.5t-2 46.5h-2q-8 -23 -18 -47t-22 -49l-59 -123h119zM600 795q0 -40 -26.5 -65t-61.5 -25q-17 0 -32 6.5t-26 18t-17 26t-6 30.5q0 19 7 36t19 29t28 19t33 7q18 0 33 -7t26 -18.5
t17 -26t6 -30.5zM388 795q0 -40 -26.5 -65t-61.5 -25q-17 0 -32 6.5t-26 18t-17 26t-6 30.5q0 19 7 36t19 29t28 19t33 7q18 0 33 -7t26 -18.5t17 -26t6 -30.5z" />
    <glyph glyph-name="Aring" unicode="&#xc5;" horiz-adv-x="628" 
d="M543 840q0 -29 -11 -53t-30 -41t-44 -26.5t-52 -9.5t-50.5 9.5t-40.5 25.5t-26.5 38t-9.5 47q0 29 11 53t29.5 41.5t43.5 27t52 9.5t50.5 -9.5t41 -25.5t27 -38.5t9.5 -47.5zM454 837q0 17 -11 29.5t-30 12.5q-20 0 -32.5 -14t-12.5 -31t12 -29.5t29 -12.5q20 0 32.5 13
t12.5 32zM407 0l-13 110h-206l-53 -110h-185l339 675h219l93 -675h-194zM366 380q-2 25 -4 48.5t-2 46.5h-2q-8 -23 -18 -47t-22 -49l-59 -123h119z" />
    <glyph glyph-name="AE" unicode="&#xc6;" horiz-adv-x="772" 
d="M419 522q-22 -42 -45 -83.5t-43 -76.5l-56 -95h96l49 255h-1zM795 517h-203l-18 -95h196l-29 -152h-196l-21 -109h207l-30 -161h-382l24 121h-153l-71 -121h-193l407 675h492z" />
    <glyph glyph-name="Ccedilla" unicode="&#xc7;" horiz-adv-x="530" 
d="M531 492q-21 8 -46 13.5t-49 5.5q-57 0 -93.5 -26t-58 -63.5t-29.5 -79t-8 -72.5q0 -52 24.5 -80.5t84.5 -28.5q32 0 59 6t53 15l-8 -171q-35 -9 -78.5 -14.5t-80.5 -5.5q-84 0 -135 24t-79.5 60t-38 78.5t-9.5 79.5q0 82 25.5 162t77 143.5t128 102.5t178.5 39
q39 0 73 -5t60 -13zM319 -39q28 -58 13.5 -108t-62.5 -86h-135q38 36 49 72t-15 84l150 38v0z" />
    <glyph glyph-name="Egrave" unicode="&#xc8;" horiz-adv-x="470" 
d="M493 517h-205l-18 -95h195l-30 -152h-194l-21 -109h205l-30 -161h-205h-182l128 675h183h204zM417 703l-236 49l51 123l224 -76z" />
    <glyph glyph-name="Eacute" unicode="&#xc9;" horiz-adv-x="470" 
d="M493 517h-205l-18 -95h195l-30 -152h-194l-21 -109h205l-30 -161h-205h-182l128 675h183h204zM243 703l-15 96l245 76l19 -123z" />
    <glyph glyph-name="Ecircumflex" unicode="&#xca;" horiz-adv-x="470" 
d="M493 517h-205l-18 -95h195l-30 -152h-194l-21 -109h205l-30 -161h-205h-182l128 675h183h204zM471 703l-131 55l-142 -55l-28 82l181 90l164 -90z" />
    <glyph glyph-name="Edieresis" unicode="&#xcb;" horiz-adv-x="470" 
d="M493 517h-205l-18 -95h195l-30 -152h-194l-21 -109h205l-30 -161h-205h-182l128 675h183h204zM532 795q0 -40 -26.5 -65t-61.5 -25q-17 0 -32 6.5t-26 18t-17 26t-6 30.5q0 19 7 36t19 29t28 19t33 7q18 0 33 -7t26 -18.5t17 -26t6 -30.5zM320 795q0 -40 -26.5 -65
t-61.5 -25q-17 0 -32 6.5t-26 18t-17 26t-6 30.5q0 19 7 36t19 29t28 19t33 7q18 0 33 -7t26 -18.5t17 -26t6 -30.5z" />
    <glyph glyph-name="Igrave" unicode="&#xcc;" horiz-adv-x="276" 
d="M190 0h-182l128 675h182zM323 703l-236 49l51 123l224 -76z" />
    <glyph glyph-name="Iacute" unicode="&#xcd;" horiz-adv-x="276" 
d="M190 0h-182l128 675h182zM140 703l-15 96l245 76l19 -123z" />
    <glyph glyph-name="Icircumflex" unicode="&#xce;" horiz-adv-x="276" 
d="M190 0h-182l128 675h182zM367 703l-131 55l-142 -55l-28 82l181 90l164 -90z" />
    <glyph glyph-name="Idieresis" unicode="&#xcf;" horiz-adv-x="276" 
d="M190 0h-182l128 675h182zM431 795q0 -40 -26.5 -65t-61.5 -25q-17 0 -32 6.5t-26 18t-17 26t-6 30.5q0 19 7 36t19 29t28 19t33 7q18 0 33 -7t26 -18.5t17 -26t6 -30.5zM219 795q0 -40 -26.5 -65t-61.5 -25q-17 0 -32 6.5t-26 18t-17 26t-6 30.5q0 19 7 36t19 29t28 19
t33 7q18 0 33 -7t26 -18.5t17 -26t6 -30.5z" />
    <glyph glyph-name="Eth" unicode="&#xd0;" horiz-adv-x="648" 
d="M460 420q0 51 -24 76.5t-84 25.5h-33q-10 0 -21 -2l-21 -112h89l-27 -140h-89l-21 -109q12 -3 34 -3q58 0 96 29.5t60.5 71t31.5 86.5t9 77zM660 437q1 -87 -28 -168.5t-83 -141.5t-132 -96t-181 -36q-64 0 -116.5 1.5t-102.5 4.5l51 267h-52l27 140h52l50 265
q19 1 45.5 2t56.5 2t62.5 1.5t65.5 0.5q62 0 115.5 -13t90.5 -42t58 -74.5t21 -112.5z" />
    <glyph glyph-name="Ntilde" unicode="&#xd1;" horiz-adv-x="658" 
d="M572 0h-176h-38l-67 227q-12 40 -22 79t-17 73q-3 -30 -6.5 -52t-9.5 -55l-52 -272h-176l128 675h176h40l61 -197q14 -45 26.5 -89.5t20.5 -85.5q3 35 8.5 71.5t11.5 68.5l44 232h177zM639 812q-55 -95 -145 -95q-26 0 -43 6t-29 13.5t-22.5 14t-22.5 6.5q-18 0 -29 -9.5
t-22 -29.5l-85 58q28 47 63.5 71t81.5 24q26 0 43 -6.5t29.5 -14t23 -13.5t22.5 -6q17 0 28.5 9.5t22.5 29.5l84 -58v0z" />
    <glyph glyph-name="Ograve" unicode="&#xd2;" horiz-adv-x="687" 
d="M507 416q0 44 -22.5 73.5t-72.5 29.5q-45 0 -78.5 -22.5t-56.5 -58.5t-34.5 -81t-11.5 -89q0 -111 94 -111q42 0 75.5 22t57.5 58.5t36.5 83t12.5 95.5zM700 438q0 -99 -32 -182t-87 -143t-128.5 -93.5t-155.5 -33.5q-68 0 -117 17.5t-81 50t-47.5 78.5t-15.5 103
q0 90 31 172.5t85.5 145t129 99.5t160.5 37q130 0 194 -65t64 -186zM535 703l-236 49l51 123l224 -76z" />
    <glyph glyph-name="Oacute" unicode="&#xd3;" horiz-adv-x="687" 
d="M507 416q0 44 -22.5 73.5t-72.5 29.5q-45 0 -78.5 -22.5t-56.5 -58.5t-34.5 -81t-11.5 -89q0 -111 94 -111q42 0 75.5 22t57.5 58.5t36.5 83t12.5 95.5zM700 438q0 -99 -32 -182t-87 -143t-128.5 -93.5t-155.5 -33.5q-68 0 -117 17.5t-81 50t-47.5 78.5t-15.5 103
q0 90 31 172.5t85.5 145t129 99.5t160.5 37q130 0 194 -65t64 -186zM356 703l-15 96l245 76l19 -123z" />
    <glyph glyph-name="Ocircumflex" unicode="&#xd4;" horiz-adv-x="687" 
d="M507 416q0 44 -22.5 73.5t-72.5 29.5q-45 0 -78.5 -22.5t-56.5 -58.5t-34.5 -81t-11.5 -89q0 -111 94 -111q42 0 75.5 22t57.5 58.5t36.5 83t12.5 95.5zM700 438q0 -99 -32 -182t-87 -143t-128.5 -93.5t-155.5 -33.5q-68 0 -117 17.5t-81 50t-47.5 78.5t-15.5 103
q0 90 31 172.5t85.5 145t129 99.5t160.5 37q130 0 194 -65t64 -186zM586 703l-131 55l-142 -55l-28 82l181 90l164 -90z" />
    <glyph glyph-name="Otilde" unicode="&#xd5;" horiz-adv-x="687" 
d="M507 416q0 44 -22.5 73.5t-72.5 29.5q-45 0 -78.5 -22.5t-56.5 -58.5t-34.5 -81t-11.5 -89q0 -111 94 -111q42 0 75.5 22t57.5 58.5t36.5 83t12.5 95.5zM700 438q0 -99 -32 -182t-87 -143t-128.5 -93.5t-155.5 -33.5q-68 0 -117 17.5t-81 50t-47.5 78.5t-15.5 103
q0 90 31 172.5t85.5 145t129 99.5t160.5 37q130 0 194 -65t64 -186zM656 812q-55 -95 -145 -95q-26 0 -43 6t-29 13.5t-22.5 14t-22.5 6.5q-18 0 -29 -9.5t-22 -29.5l-85 58q28 47 63.5 71t81.5 24q26 0 43 -6.5t29.5 -14t23 -13.5t22.5 -6q17 0 28.5 9.5t22.5 29.5l84 -58
v0z" />
    <glyph glyph-name="Odieresis" unicode="&#xd6;" horiz-adv-x="687" 
d="M507 416q0 44 -22.5 73.5t-72.5 29.5q-45 0 -78.5 -22.5t-56.5 -58.5t-34.5 -81t-11.5 -89q0 -111 94 -111q42 0 75.5 22t57.5 58.5t36.5 83t12.5 95.5zM700 438q0 -99 -32 -182t-87 -143t-128.5 -93.5t-155.5 -33.5q-68 0 -117 17.5t-81 50t-47.5 78.5t-15.5 103
q0 90 31 172.5t85.5 145t129 99.5t160.5 37q130 0 194 -65t64 -186zM647 795q0 -40 -26.5 -65t-61.5 -25q-17 0 -32 6.5t-26 18t-17 26t-6 30.5q0 19 7 36t19 29t28 19t33 7q18 0 33 -7t26 -18.5t17 -26t6 -30.5zM435 795q0 -40 -26.5 -65t-61.5 -25q-17 0 -32 6.5t-26 18
t-17 26t-6 30.5q0 19 7 36t19 29t28 19t33 7q18 0 33 -7t26 -18.5t17 -26t6 -30.5z" />
    <glyph glyph-name="multiply" unicode="&#xd7;" 
d="M397 295l111 -139l-124 -99l-109 136l-161 -136l-90 107l164 138l-110 138l124 98l107 -133l158 133l91 -107z" />
    <glyph glyph-name="Oslash" unicode="&#xd8;" horiz-adv-x="687" 
d="M388 526q-16 -3 -31 -9q-33 -13 -58 -40t-41.5 -61.5t-25 -73.5t-8.5 -78q0 -24 5 -47l159 309v0zM514 420q0 26 -8 48l-165 -319q22 3 46 14q30 14 53.5 40.5t40 60.5t25 74t8.5 82zM700 438q0 -99 -32 -182t-87 -143t-128.5 -93.5t-155.5 -33.5q-11 0 -21 0.5t-20 1.5
l-47 -98l-129 42l49 96q-48 32 -70.5 84.5t-22.5 122.5q0 91 30 173.5t84 144.5t128 99t162 37h16q9 0 17 -1l46 91l127 -40l-46 -89q100 -61 100 -212z" />
    <glyph glyph-name="Ugrave" unicode="&#xd9;" horiz-adv-x="651" 
d="M611 248q-13 -68 -42 -117.5t-71 -81.5t-96.5 -47.5t-119.5 -15.5q-79 0 -128 22t-74 59.5t-29 88.5t7 109l78 410h182l-82 -430q-20 -103 72 -103q59 0 87 30t39 90l79 413h180zM484 703l-236 49l51 123l224 -76z" />
    <glyph glyph-name="Uacute" unicode="&#xda;" horiz-adv-x="651" 
d="M611 248q-13 -68 -42 -117.5t-71 -81.5t-96.5 -47.5t-119.5 -15.5q-79 0 -128 22t-74 59.5t-29 88.5t7 109l78 410h182l-82 -430q-20 -103 72 -103q59 0 87 30t39 90l79 413h180zM359 703l-15 96l245 76l19 -123z" />
    <glyph glyph-name="Ucircumflex" unicode="&#xdb;" horiz-adv-x="651" 
d="M611 248q-13 -68 -42 -117.5t-71 -81.5t-96.5 -47.5t-119.5 -15.5q-79 0 -128 22t-74 59.5t-29 88.5t7 109l78 410h182l-82 -430q-20 -103 72 -103q59 0 87 30t39 90l79 413h180zM560 703l-131 55l-142 -55l-28 82l181 90l164 -90z" />
    <glyph glyph-name="Udieresis" unicode="&#xdc;" horiz-adv-x="651" 
d="M611 248q-13 -68 -42 -117.5t-71 -81.5t-96.5 -47.5t-119.5 -15.5q-79 0 -128 22t-74 59.5t-29 88.5t7 109l78 410h182l-82 -430q-20 -103 72 -103q59 0 87 30t39 90l79 413h180zM617 795q0 -40 -26.5 -65t-61.5 -25q-17 0 -32 6.5t-26 18t-17 26t-6 30.5q0 19 7 36
t19 29t28 19t33 7q18 0 33 -7t26 -18.5t17 -26t6 -30.5zM405 795q0 -40 -26.5 -65t-61.5 -25q-17 0 -32 6.5t-26 18t-17 26t-6 30.5q0 19 7 36t19 29t28 19t33 7q18 0 33 -7t26 -18.5t17 -26t6 -30.5z" />
    <glyph glyph-name="Yacute" unicode="&#xdd;" horiz-adv-x="585" 
d="M387 233l-44 -233h-182l44 232l-123 443h192l35 -146q7 -29 11.5 -54.5t7.5 -48.5h2q14 27 32.5 56.5t38.5 61.5l81 131h199zM335 703l-15 96l245 76l19 -123z" />
    <glyph glyph-name="Thorn" unicode="&#xde;" horiz-adv-x="553" 
d="M384 378q0 26 -15.5 45.5t-53.5 19.5q-14 0 -22.5 -0.5t-18.5 -1.5l-34 -179q19 -3 33 -3q24 0 44 9.5t35 25.5t23.5 37.5t8.5 46.5zM576 409q0 -65 -24.5 -120t-67.5 -95.5t-101.5 -63t-127.5 -22.5h-27q-9 0 -17 1l-21 -109h-182l128 675h183l-16 -83q11 1 23 1.5
t29 0.5q104 0 162.5 -45t58.5 -140z" />
    <glyph glyph-name="germandbls" unicode="&#xdf;" horiz-adv-x="620" 
d="M607 584q0 -47 -19 -78t-42 -54.5t-42 -43.5t-19 -44q0 -16 14 -33.5t30.5 -40t30.5 -51t14 -65.5q0 -34 -14 -67t-44 -59.5t-76.5 -43t-111.5 -16.5q-25 0 -48 2.5t-42 6.5l31 145q16 -7 35 -10.5t35 -3.5q45 0 45 32q0 19 -13 37t-29 39t-29 48t-13 64q0 43 18.5 73
t40.5 54t40.5 46t18.5 48q0 13 -11 21.5t-32 8.5q-34 0 -60 -27t-36 -79l-95 -501q-45 -233 -254 -233q-18 0 -38.5 2.5t-37.5 6.5l41 142q9 -2 20 -2.5t18 -0.5q31 0 47 19.5t26 69.5l93 490q12 65 40 112.5t67 79t87.5 46.5t102.5 15q47 0 86 -10t66.5 -29.5t43 -48.5
t15.5 -67z" />
    <glyph glyph-name="agrave" unicode="&#xe0;" horiz-adv-x="548" 
d="M353 361q-8 2 -15.5 3.5t-18.5 1.5q-26 0 -46.5 -18t-35 -45t-22.5 -59t-8 -60q0 -20 4 -29.5t15 -9.5q14 0 33 19t37 47.5t32.5 63t20.5 65.5l4 21v0zM557 492q-12 -61 -24 -125t-24 -127t-23 -124t-19 -116h-174q6 24 13 46.5t18 47.5h-2q-72 -107 -175 -107
q-125 0 -125 162q0 73 20.5 138t62 114.5t103 78.5t143.5 29q49 0 101.5 -3.5t104.5 -13.5zM440 544l-224 103l75 121l213 -123z" />
    <glyph glyph-name="aacute" unicode="&#xe1;" horiz-adv-x="548" 
d="M353 361q-8 2 -15.5 3.5t-18.5 1.5q-26 0 -46.5 -18t-35 -45t-22.5 -59t-8 -60q0 -20 4 -29.5t15 -9.5q14 0 33 19t37 47.5t32.5 63t20.5 65.5l4 21v0zM557 492q-12 -61 -24 -125t-24 -127t-23 -124t-19 -116h-174q6 24 13 46.5t18 47.5h-2q-72 -107 -175 -107
q-125 0 -125 162q0 73 20.5 138t62 114.5t103 78.5t143.5 29q49 0 101.5 -3.5t104.5 -13.5zM308 544l-55 100l218 124l64 -123z" />
    <glyph glyph-name="acircumflex" unicode="&#xe2;" horiz-adv-x="548" 
d="M353 361q-8 2 -15.5 3.5t-18.5 1.5q-26 0 -46.5 -18t-35 -45t-22.5 -59t-8 -60q0 -20 4 -29.5t15 -9.5q14 0 33 19t37 47.5t32.5 63t20.5 65.5l4 21v0zM557 492q-12 -61 -24 -125t-24 -127t-23 -124t-19 -116h-174q6 24 13 46.5t18 47.5h-2q-72 -107 -175 -107
q-125 0 -125 162q0 73 20.5 138t62 114.5t103 78.5t143.5 29q49 0 101.5 -3.5t104.5 -13.5zM461 544l-92 77l-121 -77l-54 82l197 142l144 -142z" />
    <glyph glyph-name="atilde" unicode="&#xe3;" horiz-adv-x="548" 
d="M353 361q-8 2 -15.5 3.5t-18.5 1.5q-26 0 -46.5 -18t-35 -45t-22.5 -59t-8 -60q0 -20 4 -29.5t15 -9.5q14 0 33 19t37 47.5t32.5 63t20.5 65.5l4 21v0zM557 492q-12 -61 -24 -125t-24 -127t-23 -124t-19 -116h-174q6 24 13 46.5t18 47.5h-2q-72 -107 -175 -107
q-125 0 -125 162q0 73 20.5 138t62 114.5t103 78.5t143.5 29q49 0 101.5 -3.5t104.5 -13.5zM563 664q-26 -52 -62.5 -79t-81.5 -27q-25 0 -41 7t-28 15.5t-22.5 15.5t-22.5 7q-31 0 -52 -43l-81 64q26 52 62.5 79t81.5 27q25 0 41 -7t28 -15.5t22.5 -15.5t22.5 -7
q17 0 29.5 11t23.5 32l80 -64v0z" />
    <glyph glyph-name="adieresis" unicode="&#xe4;" horiz-adv-x="548" 
d="M353 361q-8 2 -15.5 3.5t-18.5 1.5q-26 0 -46.5 -18t-35 -45t-22.5 -59t-8 -60q0 -20 4 -29.5t15 -9.5q14 0 33 19t37 47.5t32.5 63t20.5 65.5l4 21v0zM557 492q-12 -61 -24 -125t-24 -127t-23 -124t-19 -116h-174q6 24 13 46.5t18 47.5h-2q-72 -107 -175 -107
q-125 0 -125 162q0 73 20.5 138t62 114.5t103 78.5t143.5 29q49 0 101.5 -3.5t104.5 -13.5zM349 643q0 -20 -7.5 -37t-20.5 -30t-30 -20t-36 -7t-35 7t-28 19.5t-18.5 28.5t-6.5 34q0 19 8 36t21 30t30 20t36 7t35 -7t27.5 -19t18 -28t6.5 -34zM566 643q0 -20 -7.5 -37
t-20.5 -30t-30 -20t-36 -7q-38 0 -63 26.5t-25 63.5q0 19 8 36t21 29.5t30 19.5t36 7t35 -7t27.5 -19t18 -28t6.5 -34z" />
    <glyph glyph-name="aring" unicode="&#xe5;" horiz-adv-x="548" 
d="M353 361q-8 2 -15.5 3.5t-18.5 1.5q-26 0 -46.5 -18t-35 -45t-22.5 -59t-8 -60q0 -20 4 -29.5t15 -9.5q14 0 33 19t37 47.5t32.5 63t20.5 65.5l4 21v0zM557 492q-12 -61 -24 -125t-24 -127t-23 -124t-19 -116h-174q6 24 13 46.5t18 47.5h-2q-72 -107 -175 -107
q-125 0 -125 162q0 73 20.5 138t62 114.5t103 78.5t143.5 29q49 0 101.5 -3.5t104.5 -13.5zM427 676q0 18 -12.5 32t-33.5 14q-23 0 -36.5 -15t-13.5 -35t13 -33t33 -13q22 0 36 14.5t14 35.5zM526 679q0 -32 -12.5 -58.5t-33.5 -45.5t-48.5 -29.5t-57.5 -10.5t-56 10
t-45 28t-30 42.5t-11 52.5q0 33 12.5 59.5t33.5 45.5t48.5 29.5t57.5 10.5t56 -10.5t45 -28.5t30 -42.5t11 -52.5z" />
    <glyph glyph-name="ae" unicode="&#xe6;" horiz-adv-x="761" 
d="M286 195q-51 0 -78 -10t-27 -36q0 -11 7 -18t24 -7q32 0 52 21.5t22 49.5zM589 351q0 11 -8 19t-23 8t-27.5 -7t-22.5 -18.5t-16.5 -25.5t-10.5 -27q46 0 77 11.5t31 39.5zM762 375q0 -87 -74 -136.5t-225 -49.5q-1 -7 -1 -11v-10q0 -20 14 -29.5t55 -9.5q36 0 74.5 8
t76.5 22v-137q-49 -17 -102 -25.5t-104 -8.5q-71 0 -107.5 20.5t-53.5 57.5q-30 -39 -73.5 -58.5t-88.5 -19.5q-42 0 -70 12t-44 31.5t-22.5 43t-6.5 46.5q0 90 76 137.5t221 47.5l4 17q5 19 -9 32.5t-57 13.5q-32 0 -67 -6.5t-71 -22.5v145q42 14 89 20t92 6q54 0 87.5 -10
t55.5 -29q13 7 30.5 14t37 12t39.5 8.5t39 3.5q57 0 93.5 -12.5t56.5 -32t27.5 -43.5t7.5 -47z" />
    <glyph glyph-name="ccedilla" unicode="&#xe7;" horiz-adv-x="392" 
d="M375 343q-24 10 -56 10q-28 0 -48 -13t-32.5 -34t-18.5 -46.5t-6 -49.5q0 -29 16 -45.5t48 -16.5q17 0 34 2.5t33 7.5l-19 -158q-25 -8 -51 -11t-52 -3q-103 0 -150.5 48t-47.5 136q0 72 21.5 134t61 108t95 72t124.5 26q45 0 90 -9zM231 -39q28 -58 13.5 -108t-62.5 -86
h-135q38 36 49 72t-15 84l150 38v0z" />
    <glyph glyph-name="egrave" unicode="&#xe8;" horiz-adv-x="498" 
d="M326 351q0 25 -29 25q-17 0 -29.5 -7.5t-22.5 -19.5t-17 -27t-11 -30q46 1 77.5 13.5t31.5 45.5zM499 375q0 -51 -23 -87.5t-63 -60t-94.5 -35t-117.5 -12.5v-12q0 -20 13 -29.5t54 -9.5q36 0 74.5 8t76.5 22v-137q-49 -17 -102 -25.5t-104 -8.5q-54 0 -90.5 13
t-58.5 36.5t-31 56.5t-9 73q0 86 26 150t68 107t94 64t104 21q56 0 91.5 -12.5t56 -32t28 -43t7.5 -46.5zM398 544l-224 103l75 121l213 -123z" />
    <glyph glyph-name="eacute" unicode="&#xe9;" horiz-adv-x="498" 
d="M326 351q0 25 -29 25q-17 0 -29.5 -7.5t-22.5 -19.5t-17 -27t-11 -30q46 1 77.5 13.5t31.5 45.5zM499 375q0 -51 -23 -87.5t-63 -60t-94.5 -35t-117.5 -12.5v-12q0 -20 13 -29.5t54 -9.5q36 0 74.5 8t76.5 22v-137q-49 -17 -102 -25.5t-104 -8.5q-54 0 -90.5 13
t-58.5 36.5t-31 56.5t-9 73q0 86 26 150t68 107t94 64t104 21q56 0 91.5 -12.5t56 -32t28 -43t7.5 -46.5zM266 544l-55 100l218 124l64 -123z" />
    <glyph glyph-name="ecircumflex" unicode="&#xea;" horiz-adv-x="498" 
d="M326 351q0 25 -29 25q-17 0 -29.5 -7.5t-22.5 -19.5t-17 -27t-11 -30q46 1 77.5 13.5t31.5 45.5zM499 375q0 -51 -23 -87.5t-63 -60t-94.5 -35t-117.5 -12.5v-12q0 -20 13 -29.5t54 -9.5q36 0 74.5 8t76.5 22v-137q-49 -17 -102 -25.5t-104 -8.5q-54 0 -90.5 13
t-58.5 36.5t-31 56.5t-9 73q0 86 26 150t68 107t94 64t104 21q56 0 91.5 -12.5t56 -32t28 -43t7.5 -46.5zM436 544l-92 77l-121 -77l-54 82l197 142l144 -142z" />
    <glyph glyph-name="edieresis" unicode="&#xeb;" horiz-adv-x="498" 
d="M326 351q0 25 -29 25q-17 0 -29.5 -7.5t-22.5 -19.5t-17 -27t-11 -30q46 1 77.5 13.5t31.5 45.5zM499 375q0 -51 -23 -87.5t-63 -60t-94.5 -35t-117.5 -12.5v-12q0 -20 13 -29.5t54 -9.5q36 0 74.5 8t76.5 22v-137q-49 -17 -102 -25.5t-104 -8.5q-54 0 -90.5 13
t-58.5 36.5t-31 56.5t-9 73q0 86 26 150t68 107t94 64t104 21q56 0 91.5 -12.5t56 -32t28 -43t7.5 -46.5zM323 643q0 -20 -7.5 -37t-20.5 -30t-30 -20t-36 -7t-35 7t-28 19.5t-18.5 28.5t-6.5 34q0 19 8 36t21 30t30 20t36 7t35 -7t27.5 -19t18 -28t6.5 -34zM540 643
q0 -20 -7.5 -37t-20.5 -30t-30 -20t-36 -7q-38 0 -63 26.5t-25 63.5q0 19 8 36t21 29.5t30 19.5t36 7t35 -7t27.5 -19t18 -28t6.5 -34z" />
    <glyph glyph-name="igrave" unicode="&#xec;" horiz-adv-x="273" 
d="M186 0h-179l95 497h179zM270 544l-224 103l75 121l213 -123z" />
    <glyph glyph-name="iacute" unicode="&#xed;" horiz-adv-x="273" 
d="M186 0h-179l95 497h179zM136 544l-55 100l218 124l64 -123z" />
    <glyph glyph-name="icircumflex" unicode="&#xee;" horiz-adv-x="273" 
d="M186 0h-179l95 497h179zM307 544l-92 77l-121 -77l-54 82l197 142l144 -142z" />
    <glyph glyph-name="idieresis" unicode="&#xef;" horiz-adv-x="273" 
d="M186 0h-179l95 497h179zM192 643q0 -20 -7.5 -37t-20.5 -30t-30 -20t-36 -7t-35 7t-28 19.5t-18.5 28.5t-6.5 34q0 19 8 36t21 30t30 20t36 7t35 -7t27.5 -19t18 -28t6.5 -34zM409 643q0 -20 -7.5 -37t-20.5 -30t-30 -20t-36 -7q-38 0 -63 26.5t-25 63.5q0 19 8 36
t21 29.5t30 19.5t36 7t35 -7t27.5 -19t18 -28t6.5 -34z" />
    <glyph glyph-name="eth" unicode="&#xf0;" horiz-adv-x="556" 
d="M358 297q0 25 -11 40.5t-34 15.5t-41 -11t-31.5 -30.5t-20.5 -45.5t-7 -56q0 -32 12.5 -48t33.5 -16q30 0 49.5 18t30.5 43t15 50t4 40zM487 633q36 -58 50.5 -117t14.5 -120q0 -113 -29.5 -191t-75.5 -126t-100.5 -69.5t-104.5 -21.5t-90 10.5t-68 33.5t-43.5 58.5
t-15.5 86.5q0 78 26 139t67.5 103t94 64t105.5 22q32 0 47 -9q-3 6 -5.5 12t-6.5 13q-5 11 -11.5 22.5t-14.5 22.5l-88 -37l-54 81l75 32q-14 13 -27.5 23.5t-27.5 19.5l174 74q13 -11 25.5 -23.5t22.5 -23.5l83 35l54 -81z" />
    <glyph glyph-name="ntilde" unicode="&#xf1;" horiz-adv-x="553" 
d="M468 0h-179l58 303q5 28 2.5 38.5t-12.5 10.5q-12 0 -29.5 -17.5t-36 -46t-34.5 -65t-23 -75.5l-28 -148h-179l50 260q11 60 21.5 119t19.5 118h173q-4 -19 -10.5 -42.5t-19.5 -51.5h2q33 48 76 77.5t104 29.5q38 0 62.5 -13t37.5 -34.5t15 -51t-4 -62.5zM543 664
q-26 -52 -62.5 -79t-81.5 -27q-25 0 -41 7t-28 15.5t-22.5 15.5t-22.5 7q-31 0 -52 -43l-81 64q26 52 62.5 79t81.5 27q25 0 41 -7t28 -15.5t22.5 -15.5t22.5 -7q17 0 29.5 11t23.5 32l80 -64v0z" />
    <glyph glyph-name="ograve" unicode="&#xf2;" horiz-adv-x="553" 
d="M359 300q0 26 -10.5 38.5t-38.5 12.5q-26 0 -45 -15.5t-31 -39t-18 -50.5t-6 -50q0 -20 9.5 -34.5t35.5 -14.5q28 0 48 15t32.5 38t18 50t5.5 50zM547 324q0 -76 -26 -138t-69 -106t-100 -68t-118 -24q-60 0 -100 13t-65 36.5t-35.5 57t-10.5 74.5q0 83 27.5 146.5
t71.5 106.5t100.5 65t115.5 22t99 -14t64.5 -39t35 -58.5t10.5 -73.5zM407 544l-224 103l75 121l213 -123z" />
    <glyph glyph-name="oacute" unicode="&#xf3;" horiz-adv-x="553" 
d="M359 300q0 26 -10.5 38.5t-38.5 12.5q-26 0 -45 -15.5t-31 -39t-18 -50.5t-6 -50q0 -20 9.5 -34.5t35.5 -14.5q28 0 48 15t32.5 38t18 50t5.5 50zM547 324q0 -76 -26 -138t-69 -106t-100 -68t-118 -24q-60 0 -100 13t-65 36.5t-35.5 57t-10.5 74.5q0 83 27.5 146.5
t71.5 106.5t100.5 65t115.5 22t99 -14t64.5 -39t35 -58.5t10.5 -73.5zM296 544l-55 100l218 124l64 -123z" />
    <glyph glyph-name="ocircumflex" unicode="&#xf4;" horiz-adv-x="553" 
d="M359 300q0 26 -10.5 38.5t-38.5 12.5q-26 0 -45 -15.5t-31 -39t-18 -50.5t-6 -50q0 -20 9.5 -34.5t35.5 -14.5q28 0 48 15t32.5 38t18 50t5.5 50zM547 324q0 -76 -26 -138t-69 -106t-100 -68t-118 -24q-60 0 -100 13t-65 36.5t-35.5 57t-10.5 74.5q0 83 27.5 146.5
t71.5 106.5t100.5 65t115.5 22t99 -14t64.5 -39t35 -58.5t10.5 -73.5zM459 544l-92 77l-121 -77l-54 82l197 142l144 -142z" />
    <glyph glyph-name="otilde" unicode="&#xf5;" horiz-adv-x="553" 
d="M359 300q0 26 -10.5 38.5t-38.5 12.5q-26 0 -45 -15.5t-31 -39t-18 -50.5t-6 -50q0 -20 9.5 -34.5t35.5 -14.5q28 0 48 15t32.5 38t18 50t5.5 50zM547 324q0 -76 -26 -138t-69 -106t-100 -68t-118 -24q-60 0 -100 13t-65 36.5t-35.5 57t-10.5 74.5q0 83 27.5 146.5
t71.5 106.5t100.5 65t115.5 22t99 -14t64.5 -39t35 -58.5t10.5 -73.5zM555 664q-26 -52 -62.5 -79t-81.5 -27q-25 0 -41 7t-28 15.5t-22.5 15.5t-22.5 7q-31 0 -52 -43l-81 64q26 52 62.5 79t81.5 27q25 0 41 -7t28 -15.5t22.5 -15.5t22.5 -7q17 0 29.5 11t23.5 32l80 -64v0
z" />
    <glyph glyph-name="odieresis" unicode="&#xf6;" horiz-adv-x="553" 
d="M359 300q0 26 -10.5 38.5t-38.5 12.5q-26 0 -45 -15.5t-31 -39t-18 -50.5t-6 -50q0 -20 9.5 -34.5t35.5 -14.5q28 0 48 15t32.5 38t18 50t5.5 50zM547 324q0 -76 -26 -138t-69 -106t-100 -68t-118 -24q-60 0 -100 13t-65 36.5t-35.5 57t-10.5 74.5q0 83 27.5 146.5
t71.5 106.5t100.5 65t115.5 22t99 -14t64.5 -39t35 -58.5t10.5 -73.5zM341 643q0 -20 -7.5 -37t-20.5 -30t-30 -20t-36 -7t-35 7t-28 19.5t-18.5 28.5t-6.5 34q0 19 8 36t21 30t30 20t36 7t35 -7t27.5 -19t18 -28t6.5 -34zM558 643q0 -20 -7.5 -37t-20.5 -30t-30 -20t-36 -7
q-38 0 -63 26.5t-25 63.5q0 19 8 36t21 29.5t30 19.5t36 7t35 -7t27.5 -19t18 -28t6.5 -34z" />
    <glyph glyph-name="divide" unicode="&#xf7;" 
d="M358 103q0 -23 -9 -43t-24 -34.5t-34.5 -23t-40.5 -8.5t-39.5 8t-32 22t-21 31.5t-7.5 37.5q0 23 9 43t24 34.5t34.5 23t40.5 8.5t39.5 -8t32 -22t21 -32t7.5 -37zM517 222h-480l29 152h480zM434 503q0 -23 -9 -43t-24 -34.5t-34.5 -23t-40.5 -8.5t-39.5 8t-32 22
t-21 31.5t-7.5 37.5q0 23 9 43t24 34.5t34.5 23t40.5 8.5t39.5 -8t32 -22t21 -32t7.5 -37z" />
    <glyph glyph-name="oslash" unicode="&#xf8;" horiz-adv-x="553" 
d="M547 324q0 -76 -25.5 -138t-69 -106t-100 -68t-117.5 -24q-11 0 -21.5 0.5t-20.5 1.5l-57 -100l-90 42l49 86q-39 23 -55.5 61.5t-16.5 89.5q0 75 23 137.5t65 107.5t99.5 70t126.5 25q10 0 20 -0.5t19 -1.5l62 108l88 -40l-55 -96q42 -24 59 -64t17 -91zM382 304
q0 3 -0.5 8.5t-2.5 16.5l-114 -202q10 0 22 3q27 8 45.5 30.5t29.5 49.5t15.5 53t4.5 41zM304 370q-13 0 -25 -3q-18 -5 -34 -21t-29 -38.5t-20.5 -50t-7.5 -55.5q0 -11 4 -27z" />
    <glyph glyph-name="ugrave" unicode="&#xf9;" horiz-adv-x="552" 
d="M512 237q-11 -60 -21.5 -119t-19.5 -118h-173q4 19 10.5 42.5t19.5 51.5h-2q-33 -48 -76 -77.5t-104 -29.5q-38 0 -62.5 13t-37.5 34.5t-15 51t4 62.5l66 349h179l-58 -303q-5 -28 -2.5 -38.5t12.5 -10.5q12 0 29.5 17t36 45.5t34 65.5t23.5 76l28 148h179zM395 544
l-224 103l75 121l213 -123z" />
    <glyph glyph-name="uacute" unicode="&#xfa;" horiz-adv-x="552" 
d="M512 237q-11 -60 -21.5 -119t-19.5 -118h-173q4 19 10.5 42.5t19.5 51.5h-2q-33 -48 -76 -77.5t-104 -29.5q-38 0 -62.5 13t-37.5 34.5t-15 51t4 62.5l66 349h179l-58 -303q-5 -28 -2.5 -38.5t12.5 -10.5q12 0 29.5 17t36 45.5t34 65.5t23.5 76l28 148h179zM299 544
l-55 100l218 124l64 -123z" />
    <glyph glyph-name="ucircumflex" unicode="&#xfb;" horiz-adv-x="552" 
d="M512 237q-11 -60 -21.5 -119t-19.5 -118h-173q4 19 10.5 42.5t19.5 51.5h-2q-33 -48 -76 -77.5t-104 -29.5q-38 0 -62.5 13t-37.5 34.5t-15 51t4 62.5l66 349h179l-58 -303q-5 -28 -2.5 -38.5t12.5 -10.5q12 0 29.5 17t36 45.5t34 65.5t23.5 76l28 148h179zM446 544
l-92 77l-121 -77l-54 82l197 142l144 -142z" />
    <glyph glyph-name="udieresis" unicode="&#xfc;" horiz-adv-x="552" 
d="M512 237q-11 -60 -21.5 -119t-19.5 -118h-173q4 19 10.5 42.5t19.5 51.5h-2q-33 -48 -76 -77.5t-104 -29.5q-38 0 -62.5 13t-37.5 34.5t-15 51t4 62.5l66 349h179l-58 -303q-5 -28 -2.5 -38.5t12.5 -10.5q12 0 29.5 17t36 45.5t34 65.5t23.5 76l28 148h179zM328 643
q0 -20 -7.5 -37t-20.5 -30t-30 -20t-36 -7t-35 7t-28 19.5t-18.5 28.5t-6.5 34q0 19 8 36t21 30t30 20t36 7t35 -7t27.5 -19t18 -28t6.5 -34zM545 643q0 -20 -7.5 -37t-20.5 -30t-30 -20t-36 -7q-38 0 -63 26.5t-25 63.5q0 19 8 36t21 29.5t30 19.5t36 7t35 -7t27.5 -19
t18 -28t6.5 -34z" />
    <glyph glyph-name="yacute" unicode="&#xfd;" 
d="M594 473q-60 -138 -109.5 -236t-92.5 -169t-83 -121t-80 -90q-28 -28 -54 -46.5t-51.5 -30t-51.5 -16.5t-53 -5q-19 0 -41 2t-39 6l28 153q29 -10 59 -10q21 0 38.5 3.5t30.5 13.5q14 10 22 30t8 53q0 119 -24 240.5t-59 246.5h199q8 -30 15.5 -66.5t13 -76.5t9 -81.5
t3.5 -80.5v-13h2q35 74 70.5 158.5t69.5 180.5l170 -45v0zM295 544l-55 100l218 124l64 -123z" />
    <glyph glyph-name="thorn" unicode="&#xfe;" horiz-adv-x="548" 
d="M358 313q0 20 -4 29.5t-15 9.5q-14 0 -33 -19t-37 -47.5t-32.5 -63t-20.5 -65.5l-4 -21q8 -2 15.5 -3.5t18.5 -1.5q25 0 46 17.5t35.5 44.5t22.5 59t8 61zM543 348q0 -73 -20.5 -138t-62 -114.5t-103 -78.5t-143.5 -29h-12q-6 0 -18 2l-42 -223h-179l183 963h182
l-22 -115q-7 -35 -13.5 -63t-13.5 -52.5t-15.5 -46t-19.5 -43.5h3q35 48 78.5 74t95.5 26q122 0 122 -162z" />
    <glyph glyph-name="ydieresis" unicode="&#xff;" 
d="M594 473q-60 -138 -109.5 -236t-92.5 -169t-83 -121t-80 -90q-28 -28 -54 -46.5t-51.5 -30t-51.5 -16.5t-53 -5q-19 0 -41 2t-39 6l28 153q29 -10 59 -10q21 0 38.5 3.5t30.5 13.5q14 10 22 30t8 53q0 119 -24 240.5t-59 246.5h199q8 -30 15.5 -66.5t13 -76.5t9 -81.5
t3.5 -80.5v-13h2q35 74 70.5 158.5t69.5 180.5l170 -45v0zM322 643q0 -20 -7.5 -37t-20.5 -30t-30 -20t-36 -7t-35 7t-28 19.5t-18.5 28.5t-6.5 34q0 19 8 36t21 30t30 20t36 7t35 -7t27.5 -19t18 -28t6.5 -34zM539 643q0 -20 -7.5 -37t-20.5 -30t-30 -20t-36 -7
q-38 0 -63 26.5t-25 63.5q0 19 8 36t21 29.5t30 19.5t36 7t35 -7t27.5 -19t18 -28t6.5 -34z" />
    <glyph glyph-name="dotlessi" unicode="&#x131;" horiz-adv-x="273" 
d="M186 0h-179l95 497h179z" />
    <glyph glyph-name="Lslash" unicode="&#x141;" horiz-adv-x="433" 
d="M377 0h-182h-182l49 260l-40 -16l-23 143l95 39l47 249h182l-32 -169l79 32l23 -143l-134 -54l-33 -175h183z" />
    <glyph glyph-name="lslash" unicode="&#x142;" horiz-adv-x="324" 
d="M304 464l-88 -464h-179l75 393l-40 -16l-22 134l91 34l35 185h179l-22 -113l43 17l23 -134z" />
    <glyph glyph-name="OE" unicode="&#x152;" horiz-adv-x="839" 
d="M472 506q-14 6 -30 9.5t-30 3.5q-45 0 -78.5 -22.5t-56.5 -58.5t-34.5 -81t-11.5 -89q0 -111 94 -111q23 0 44 5.5t41 13.5l62 330v0zM861 517h-204l-18 -95h194l-29 -152h-194l-21 -109h205l-31 -161h-366q-24 -6 -49.5 -10t-50.5 -4q-68 0 -117 17.5t-81 50t-47.5 78.5
t-15.5 103q0 90 31 172.5t85.5 145t129 99.5t160.5 37q30 0 55.5 -3.5t49.5 -10.5h345z" />
    <glyph glyph-name="oe" unicode="&#x153;" horiz-adv-x="816" 
d="M359 300q0 26 -10.5 38.5t-38.5 12.5q-26 0 -45 -15.5t-31 -39t-18 -50.5t-6 -50q0 -20 9.5 -34.5t35.5 -14.5q28 0 48 15t32.5 38t18 50t5.5 50zM646 351q0 25 -29 25q-17 0 -29.5 -7.5t-22.5 -19.5t-17 -27t-11 -30q46 1 77.5 13.5t31.5 45.5zM819 375q0 -51 -23 -87.5
t-63.5 -60t-94.5 -35t-117 -12.5v-12q0 -20 13 -29.5t54 -9.5q36 0 74.5 8t76.5 22v-137q-49 -17 -102 -25.5t-104 -8.5q-54 0 -88 13t-53 36q-67 -49 -157 -49q-60 0 -100.5 13t-65 36.5t-35.5 57t-11 74.5q0 83 27.5 146.5t71.5 106.5t100.5 65t114.5 22q104 0 151 -47
q31 23 65.5 35t82.5 12q57 0 92.5 -12.5t55.5 -32t27.5 -43t7.5 -46.5z" />
    <glyph glyph-name="Scaron" unicode="&#x160;" horiz-adv-x="470" 
d="M456 516q-22 8 -47 13t-48 5q-50 0 -69 -15.5t-19 -39.5q0 -18 13 -31.5t33 -26t42.5 -27.5t42.5 -35.5t33 -49t13 -69.5q0 -52 -22 -98.5t-62 -81t-95.5 -54.5t-121.5 -20q-39 0 -74 4t-64 12l32 174q55 -26 116 -26q90 0 90 56q0 18 -13 31t-33 25t-42.5 26t-42.5 33.5
t-33 47t-13 67.5q0 52 17.5 98t53.5 80.5t91 54.5t129 20q34 0 65 -2.5t60 -7.5zM329 703l-164 90l44 82l131 -55l142 55l28 -82z" />
    <glyph glyph-name="scaron" unicode="&#x161;" horiz-adv-x="371" 
d="M339 368q-29 8 -55 8q-46 0 -46 -25q0 -14 15.5 -29t34 -36t34 -49.5t15.5 -67.5q0 -32 -14 -64t-44 -58t-76.5 -42.5t-111.5 -16.5q-51 0 -90 11l31 147q16 -8 35 -12t35 -4q45 0 45 24q0 18 -15 32t-32.5 32.5t-32.5 45t-15 69.5q0 37 14.5 69t43.5 56t74 37.5
t105 13.5q21 0 42.5 -1.5t40.5 -4.5zM239 544l-144 142l74 82l92 -77l121 77l54 -82z" />
    <glyph glyph-name="Ydieresis" unicode="&#x178;" horiz-adv-x="585" 
d="M387 233l-44 -233h-182l44 232l-123 443h192l35 -146q7 -29 11.5 -54.5t7.5 -48.5h2q14 27 32.5 56.5t38.5 61.5l81 131h199zM583 795q0 -40 -26.5 -65t-61.5 -25q-17 0 -32 6.5t-26 18t-17 26t-6 30.5q0 19 7 36t19 29t28 19t33 7q18 0 33 -7t26 -18.5t17 -26t6 -30.5z
M371 795q0 -40 -26.5 -65t-61.5 -25q-17 0 -32 6.5t-26 18t-17 26t-6 30.5q0 19 7 36t19 29t28 19t33 7q18 0 33 -7t26 -18.5t17 -26t6 -30.5z" />
    <glyph glyph-name="florin" unicode="&#x192;" 
d="M560 541q-20 7 -40 10.5t-37 3.5q-35 0 -55.5 -18t-32.5 -67l-18 -75h130l-21 -140h-143l-45 -183q-30 -123 -102 -178.5t-191 -55.5q-19 0 -44.5 2t-46.5 7l35 154q17 -5 40 -9t42 -4q30 0 51.5 18t33.5 67l46 182h-113l21 140h126l21 84q28 112 97 169t192 57
q20 0 45 -2.5t45 -6.5z" />
    <glyph glyph-name="circumflex" unicode="&#x2c6;" horiz-adv-x="408" 
d="M381 544l-92 77l-121 -77l-54 82l197 142l144 -142z" />
    <glyph glyph-name="caron" unicode="&#x2c7;" horiz-adv-x="408" 
d="M269 544l-144 142l74 82l92 -77l121 77l54 -82z" />
    <glyph glyph-name="breve" unicode="&#x2d8;" horiz-adv-x="326" 
d="M413 730q-4 -36 -16 -68.5t-33.5 -57t-52.5 -39.5t-72 -15q-42 0 -69 15t-42.5 40t-20.5 57.5t-1 67.5h117q-5 -48 30 -48q17 0 28.5 11t13.5 37h118v0z" />
    <glyph glyph-name="dotaccent" unicode="&#x2d9;" horiz-adv-x="286" 
d="M324 647q0 -25 -9.5 -46t-26 -36t-37.5 -23.5t-43 -8.5q-23 0 -41.5 8t-32 21.5t-21 31.5t-7.5 37q0 24 9.5 44.5t26 35.5t37 23.5t43.5 8.5q22 0 41 -8t32.5 -21.5t21 -31t7.5 -35.5z" />
    <glyph glyph-name="ring" unicode="&#x2da;" horiz-adv-x="333" 
d="M286 671q0 18 -12.5 32t-33.5 14q-23 0 -36.5 -15t-13.5 -35t13 -33t33 -13q22 0 36 14.5t14 35.5zM385 674q0 -32 -12.5 -58.5t-33.5 -45.5t-48.5 -29.5t-57.5 -10.5t-56 10t-45 28t-30 42.5t-11 52.5q0 33 12.5 59.5t33.5 45.5t48.5 29.5t57.5 10.5t56 -10.5t45 -28.5
t30 -42.5t11 -52.5z" />
    <glyph glyph-name="ogonek" unicode="&#x2db;" horiz-adv-x="349" 
d="M224 0q-53 -22 -72.5 -45.5t-19.5 -41.5q0 -10 8 -15.5t21 -5.5q14 0 29 7t29 21l56 -86q-37 -35 -81 -55t-98 -20q-38 0 -63.5 9t-41.5 24t-23 34t-7 40q0 39 24 74.5t57 59.5h182v0z" />
    <glyph glyph-name="tilde" unicode="&#x2dc;" horiz-adv-x="417" 
d="M491 664q-26 -52 -62.5 -79t-81.5 -27q-25 0 -41 7t-28 15.5t-22.5 15.5t-22.5 7q-31 0 -52 -43l-81 64q26 52 62.5 79t81.5 27q25 0 41 -7t28 -15.5t22.5 -15.5t22.5 -7q17 0 29.5 11t23.5 32l80 -64v0z" />
    <glyph glyph-name="hungarumlaut" unicode="&#x2dd;" horiz-adv-x="510" 
d="M108 544l-77 69l160 177l91 -83zM321 544l-73 70l176 164l84 -90z" />
    <glyph glyph-name="Omega" unicode="&#x3a9;" horiz-adv-x="690" 
d="M336 0l28 143q33 22 58 55t42 70.5t26 78t9 77.5q0 47 -21.5 71.5t-70.5 24.5q-45 0 -76 -24.5t-51 -62t-29 -81.5t-9 -83q0 -41 14 -70t46 -55l-28 -144h-286l28 146h99q-29 20 -45.5 54.5t-16.5 88.5q0 61 22.5 131t69.5 130t120 99.5t174 39.5q54 0 101 -12.5
t81.5 -40.5t54.5 -72t20 -108q0 -45 -9 -91t-27 -87.5t-45.5 -76t-63.5 -55.5h99l-28 -146h-286z" />
    <glyph glyph-name="Omega" unicode="&#x2126;" horiz-adv-x="690" 
d="M336 0l28 143q33 22 58 55t42 70.5t26 78t9 77.5q0 47 -21.5 71.5t-70.5 24.5q-45 0 -76 -24.5t-51 -62t-29 -81.5t-9 -83q0 -41 14 -70t46 -55l-28 -144h-286l28 146h99q-29 20 -45.5 54.5t-16.5 88.5q0 61 22.5 131t69.5 130t120 99.5t174 39.5q54 0 101 -12.5
t81.5 -40.5t54.5 -72t20 -108q0 -45 -9 -91t-27 -87.5t-45.5 -76t-63.5 -55.5h99l-28 -146h-286z" />
    <glyph glyph-name="pi" unicode="&#x3c0;" horiz-adv-x="641" 
d="M636 348h-78l-31 -157q-5 -26 -5.5 -41t3 -22.5t10.5 -10t17 -2.5q22 0 40 5l-13 -120q-26 -6 -59 -10t-68 -4q-66 0 -91 32t-13 94l46 236h-85l-68 -348h-163l67 348h-80l29 149h571z" />
    <glyph glyph-name="endash" unicode="&#x2013;" 
d="M552 218h-550l30 160h550z" />
    <glyph glyph-name="emdash" unicode="&#x2014;" horiz-adv-x="1000" 
d="M902 218h-800l30 160h800z" />
    <glyph glyph-name="quoteleft" unicode="&#x2018;" horiz-adv-x="294" 
d="M353 685q-33 -27 -52 -48.5t-26.5 -40.5t-4 -36.5t16.5 -35.5q16 -23 16.5 -52t-12.5 -54t-37.5 -42t-59.5 -17q-30 0 -55 15.5t-39 43.5t-14 66t20.5 82.5t64.5 93.5t118 99l64 -74v0z" />
    <glyph glyph-name="quoteright" unicode="&#x2019;" horiz-adv-x="294" 
d="M227 745q30 0 55 -15.5t39 -43.5t14 -66t-20.5 -82.5t-64.5 -93.5t-118 -99l-64 74q33 27 52 48.5t26.5 40.5t4 36.5t-16.5 35.5q-16 23 -16.5 52t12.5 54t37.5 42t59.5 17z" />
    <glyph glyph-name="quotesinglbase" unicode="&#x201a;" horiz-adv-x="294" 
d="M129 200q30 0 55 -15.5t39 -43.5t14 -66t-20.5 -82.5t-64.5 -93.5t-118 -99l-64 74q33 27 52 48.5t26.5 40.5t4 36.5t-16.5 35.5q-16 23 -16.5 52t12.5 54t37.5 42t59.5 17z" />
    <glyph glyph-name="quotedblleft" unicode="&#x201c;" horiz-adv-x="549" 
d="M353 689q-33 -27 -52 -48.5t-26.5 -40.5t-4 -36.5t16.5 -35.5q16 -23 16.5 -52t-12.5 -54t-37.5 -42t-59.5 -17q-30 0 -55 15.5t-39 43.5t-14 66t20.5 82.5t64.5 93.5t118 99l64 -74v0zM620 689q-33 -27 -52 -48.5t-26.5 -40.5t-4 -36.5t16.5 -35.5q16 -23 16.5 -52
t-12.5 -54t-37.5 -42t-59.5 -17q-30 0 -55 15.5t-39 43.5t-14 66t20.5 82.5t64.5 93.5t118 99l64 -74v0z" />
    <glyph glyph-name="quotedblright" unicode="&#x201d;" horiz-adv-x="549" 
d="M227 753q30 0 55 -15.5t39 -43.5t14 -66t-20.5 -82.5t-64.5 -93.5t-118 -99l-64 74q33 27 52 48.5t26.5 40.5t4 36.5t-16.5 35.5q-16 23 -16.5 52t12.5 54t37.5 42t59.5 17zM494 753q30 0 55 -15.5t39 -43.5t14 -66t-20.5 -82.5t-64.5 -93.5t-118 -99l-64 74
q33 27 52 48.5t26.5 40.5t4 36.5t-16.5 35.5q-16 23 -16.5 52t12.5 54t37.5 42t59.5 17z" />
    <glyph glyph-name="quotedblbase" unicode="&#x201e;" horiz-adv-x="549" 
d="M129 200q30 0 55 -15.5t39 -43.5t14 -66t-20.5 -82.5t-64.5 -93.5t-118 -99l-64 74q33 27 52 48.5t26.5 40.5t4 36.5t-16.5 35.5q-16 23 -16.5 52t12.5 54t37.5 42t59.5 17zM396 200q30 0 55 -15.5t39 -43.5t14 -66t-20.5 -82.5t-64.5 -93.5t-118 -99l-64 74
q33 27 52 48.5t26.5 40.5t4 36.5t-16.5 35.5q-16 23 -16.5 52t12.5 54t37.5 42t59.5 17z" />
    <glyph glyph-name="dagger" unicode="&#x2020;" horiz-adv-x="461" 
d="M485 499h-124l13 -74l-79 -261h-144l20 261l41 74h-125l27 140h124l-2 135h204l-53 -135h125z" />
    <glyph glyph-name="daggerdbl" unicode="&#x2021;" horiz-adv-x="461" 
d="M490 524h-122l14 -55l-36 -55h120l-26 -140h-121l7 -110h-207l48 110h-123l27 140h122l-15 55l37 55h-123l27 140h122l-5 110h204l-46 -110h122z" />
    <glyph glyph-name="bullet" unicode="&#x2022;" horiz-adv-x="426" 
d="M416 300q0 -39 -15 -73.5t-40.5 -60.5t-59.5 -41.5t-73 -15.5t-72.5 14.5t-58.5 39.5t-39 58.5t-14 72.5t14.5 73.5t40 60.5t60 41.5t73.5 15.5t72.5 -14.5t58 -39.5t39 -58.5t14.5 -72.5z" />
    <glyph glyph-name="ellipsis" unicode="&#x2026;" horiz-adv-x="792" 
d="M221 93q0 -23 -8.5 -42.5t-22.5 -33.5t-33 -22.5t-40 -8.5t-39.5 8t-32 22t-21 32.5t-7.5 38.5q0 22 8.5 42t22.5 34t33 22.5t40 8.5t39 -8t31.5 -22t21.5 -32.5t8 -38.5zM476 93q0 -23 -8.5 -42.5t-22.5 -33.5t-33 -22.5t-40 -8.5t-39.5 8t-32 22t-21 32.5t-7.5 38.5
q0 22 8.5 42t22.5 34t33 22.5t40 8.5t39 -8t31.5 -22t21.5 -32.5t8 -38.5zM731 93q0 -23 -8.5 -42.5t-22.5 -33.5t-33 -22.5t-40 -8.5t-39.5 8t-32 22t-21 32.5t-7.5 38.5q0 22 8.5 42t22.5 34t33 22.5t40 8.5t39 -8t31.5 -22t21.5 -32.5t8 -38.5z" />
    <glyph glyph-name="perthousand" unicode="&#x2030;" horiz-adv-x="1082" 
d="M587 177q0 17 -6 22.5t-14 5.5q-12 0 -21 -8t-15 -20.5t-9.5 -27t-3.5 -26.5q0 -19 7 -23.5t13 -4.5q12 0 21 7.5t15 19.5t9.5 26.5t3.5 28.5zM272 527q0 17 -6 22.5t-14 5.5q-12 0 -21 -8t-15 -20.5t-9.5 -27t-3.5 -26.5q0 -19 7 -23.5t13 -4.5q12 0 21 7.5t15 19.5
t9.5 26.5t3.5 28.5zM922 177q0 17 -6 22.5t-14 5.5q-12 0 -21 -8t-15 -20.5t-9.5 -27t-3.5 -26.5q0 -19 7 -23.5t13 -4.5q12 0 21 7.5t15 19.5t9.5 26.5t3.5 28.5zM710 188q0 -51 -17 -89t-43.5 -63t-59 -37.5t-62.5 -12.5q-66 0 -99.5 33t-33.5 95q0 49 17 86.5t43.5 63
t58.5 38t61 12.5q63 0 99 -31t36 -95zM131 -25l-89 86l615 612l88 -86zM395 538q0 -51 -17 -89t-43.5 -63t-59 -37.5t-62.5 -12.5q-66 0 -99.5 33t-33.5 95q0 49 17 86.5t43.5 63t58.5 38t61 12.5q63 0 99 -31t36 -95zM1045 188q0 -51 -17 -89t-43.5 -63t-59 -37.5
t-62.5 -12.5q-66 0 -99.5 33t-33.5 95q0 49 17 86.5t43.5 63t58.5 38t61 12.5q63 0 99 -31t36 -95z" />
    <glyph glyph-name="guilsinglleft" unicode="&#x2039;" horiz-adv-x="305" 
d="M207 291l51 -153l-150 -59l-70 220l143 206l132 -63z" />
    <glyph glyph-name="guilsinglright" unicode="&#x203a;" horiz-adv-x="305" 
d="M157 79l-132 63l106 151l-51 153l150 59l70 -220z" />
    <glyph glyph-name="fraction" unicode="&#x2044;" horiz-adv-x="451" 
d="M-10 -45l-110 103l627 648l111 -103z" />
    <glyph glyph-name="fraction" unicode="&#x2215;" horiz-adv-x="451" 
d="M-10 -45l-110 103l627 648l111 -103z" />
    <glyph glyph-name="Euro" unicode="&#x20ac;" 
d="M546 496q-20 11 -47.5 17.5t-55.5 6.5q-37 0 -65.5 -17t-48.5 -46h124l-20 -107h-150q-4 -11 -6 -25t-4 -25h150l-20 -107h-134q7 -37 31 -50t62 -13q30 0 57 6t56 18l22 -137q-38 -15 -84.5 -23t-94.5 -8q-56 0 -99.5 12t-74 37t-47 64t-17.5 94h-72l20 107h60
q2 11 4.5 25t5.5 25h-60l20 107h76q21 45 51.5 82.5t71.5 65.5t94 43.5t118 15.5q35 0 71 -7t67 -18z" />
    <glyph glyph-name="trademark" unicode="&#x2122;" horiz-adv-x="662" 
d="M308 566h-54l-33 -172h-120l32 172h-58l21 109h232zM686 394h-128l4 83l3 38l-12 -38l-30 -83h-106v86l2 35l-8 -35l-26 -86h-115l98 281h139l3 -78l-1 -34l11 34l30 78h140z" />
    <glyph glyph-name="partialdiff" unicode="&#x2202;" horiz-adv-x="617" 
d="M375 257q0 25 -15 39.5t-48 14.5q-21 0 -38 -9t-29 -23t-18.5 -33t-6.5 -38q0 -26 15 -41t45 -15q21 0 38.5 8.5t30 23t19.5 33.5t7 40zM613 445q0 -80 -26.5 -161t-75 -145.5t-117.5 -105t-154 -40.5q-47 0 -83.5 14t-61.5 39t-38 57.5t-13 70.5q0 63 23 116.5t63 92
t92 60.5t111 22q24 0 53 -4.5t46 -16.5q-1 9 -1.5 21t-3.5 21q-13 45 -56 72t-106 27l52 154q68 0 123 -21.5t93.5 -60.5t59 -93t20.5 -119z" />
    <glyph glyph-name="product" unicode="&#x220f;" horiz-adv-x="768" 
d="M804 577h-82l-154 -810h-164l154 810h-204l-154 -810h-166l154 810h-83l29 153h699z" />
    <glyph glyph-name="summation" unicode="&#x2211;" horiz-adv-x="592" 
d="M609 577h-282l181 -329l-304 -323h296l-30 -158h-518l27 143l325 349l-181 327l28 144h487z" />
    <glyph glyph-name="minus" unicode="&#x2212;" 
d="M517 218h-480l30 160h480z" />
    <glyph glyph-name="radical" unicode="&#x221a;" horiz-adv-x="615" 
d="M367 0h-210l-44 362h-78l26 135h224l17 -214q2 -17 2.5 -34.5t-1.5 -37.5h1q6 21 12.5 38.5t12.5 32.5l204 476h201z" />
    <glyph glyph-name="infinity" unicode="&#x221e;" horiz-adv-x="978" 
d="M359 301q-26 21 -48 34.5t-39 13.5q-29 0 -47.5 -16t-18.5 -41q0 -17 10 -29.5t34 -12.5q18 0 46 14t63 37zM808 310q0 14 -11 26.5t-35 12.5q-20 0 -48.5 -15.5t-63.5 -38.5q25 -20 46.5 -32.5t41.5 -12.5q31 0 50.5 16t19.5 44zM979 341q0 -53 -19 -98.5t-54 -79
t-85.5 -53t-114.5 -19.5q-54 0 -107.5 28.5t-104.5 68.5q-62 -39 -129.5 -68t-136.5 -29q-51 0 -87.5 12.5t-60 35t-34.5 53t-11 66.5q0 62 23 108.5t60.5 78t83.5 47t93 15.5q31 0 60.5 -8t57.5 -22t54.5 -32.5t52.5 -38.5q32 20 66 38.5t68 32.5t67.5 22t65.5 8
q51 0 87.5 -14t60 -37t34 -53t10.5 -62z" />
    <glyph glyph-name="integral" unicode="&#x222b;" horiz-adv-x="346" 
d="M389 578q-8 2 -17 4t-20 2q-10 0 -18.5 -3t-15 -12t-12 -24.5t-10.5 -39.5q-12 -60 -20 -116t-16 -113t-17 -116.5t-22 -125.5q-15 -79 -35.5 -132.5t-49 -86t-65.5 -46.5t-85 -14q-14 0 -29.5 2t-29.5 5l30 156q10 -3 18 -4t16 -1q11 0 20 3.5t16.5 13t13.5 27t11 44.5
q11 60 19 114.5t15.5 109t16.5 113t22 126.5q15 80 38 133t53.5 85t68.5 45.5t83 13.5q10 0 24.5 -2t26.5 -5z" />
    <glyph glyph-name="approxequal" unicode="&#x2248;" 
d="M519 145q-18 -16 -38.5 -29t-41.5 -22.5t-41.5 -14.5t-38.5 -5q-32 0 -56 8.5t-44.5 19t-40 19.5t-40.5 9q-47 0 -99 -43l-59 119q14 13 32 26.5t38 24t41.5 17.5t42.5 7q33 0 56.5 -9t44 -19.5t41.5 -19t51 -8.5q23 0 48 8.5t47 30.5l57 -119v0zM560 379
q-32 -33 -71.5 -54t-84.5 -21q-27 0 -49.5 8.5t-43 19t-42 19.5t-47.5 9q-24 0 -50 -10t-52 -32l-56 118q34 32 78.5 53.5t85.5 21.5q32 0 57 -9t46 -19.5t39.5 -19t36.5 -8.5q24 0 49.5 12.5t45.5 30.5l58 -119v0z" />
    <glyph glyph-name="notequal" unicode="&#x2260;" 
d="M536 334h-138l-44 -75h167l-27 -145h-223l-55 -95h-169l55 95h-82l27 145h139l44 75h-168l27 145h225l54 92h168l-54 -92h81z" />
    <glyph glyph-name="lessequal" unicode="&#x2264;" 
d="M435 0h-400l29 152h400zM323 440l155 -155l-133 -114l-251 279l329 260l106 -123z" />
    <glyph glyph-name="greaterequal" unicode="&#x2265;" 
d="M435 0h-400l29 152h400zM209 171l-106 123l206 147l-155 155l133 114l251 -279z" />
    <glyph glyph-name="lozenge" unicode="&#x25ca;" horiz-adv-x="623" 
d="M360 486l-131 -145l82 -156l136 148zM328 -10h-112l-185 347l317 348h112l184 -348z" />
    <glyph glyph-name="Circumflex" unicode="&#xe08f;" horiz-adv-x="408" 
d="M439 703l-131 55l-142 -55l-28 82l181 90l164 -90z" />
    <glyph glyph-name="Tilde" unicode="&#xe090;" horiz-adv-x="417" 
d="M525 812q-55 -95 -145 -95q-26 0 -43 6t-29 13.5t-22.5 14t-22.5 6.5q-18 0 -29 -9.5t-22 -29.5l-85 58q28 47 63.5 71t81.5 24q26 0 43 -6.5t29.5 -14t23 -13.5t22.5 -6q17 0 28.5 9.5t22.5 29.5l84 -58v0z" />
    <glyph glyph-name="apple" unicode="&#xf000;" horiz-adv-x="1047" 
d="M189 374q-2 -20 -2 -43q0 -22 2 -41l-183 -22q-9 63 0 128zM529 355q2 0 3.5 5t-0.5 5q2 -5 -3 -10zM527 357q5 0 2.5 2t0.5 2v1q-4 0 -2 -2t-1 -2v-1v0zM525 361q-3 -6 -2.5 -2t2.5 2zM524 357h1l1 5q-4 1 -4.5 -3.5t3.5 0.5zM520 355q-2 5 3 10q-2 0 -3.5 -5t0.5 -5z
M517 358q-2 -1 -1.5 1.5t2.5 1.5v1q-2 1 -3.5 -2.5t2.5 -2.5v1zM513 362l-1 -3q-1 -2 -1 0l1 3h-1l-1 -3q-1 -2 0 -2q2 0 3 2l1 3h-1zM509 358h-2l2 6h-1l-2 -6q0 -1 1 -1h2v1zM630 -42l-223 -58l20 -47h193l8 19l-2 5l-63 -16l-18 53l94 24zM630 45l-224 -58l9 -19l223 57z
M406 119v-36l12 -28l222 57v7h-234zM555 321q-9 1 -16 1h-15h-16q-7 0 -17 -1l14 -128h38l12 128v0zM439 193l-14 117q-15 -3 -24.5 -7t-16.5 -6q-9 -3 -14 9t-6 28t2 31t10 17q32 9 71 15.5t77 6.5q41 0 78.5 -6.5t70.5 -15.5q7 -2 9.5 -16.5t1.5 -30.5t-6.5 -28t-14.5 -9
q-7 2 -17.5 5.5t-24.5 6.5l-12 -117h36q28 25 45.5 60.5t17.5 78.5q0 38 -14.5 72t-39.5 59t-58.5 39.5t-71.5 14.5t-72 -14.5t-59 -39.5t-39.5 -59t-14.5 -72q0 -42 17.5 -78t46.5 -61h36zM802 332q0 -49 -17 -96t-47 -82v-84l-16 -4l33 -78l-33 -9l33 -76l-35 -9l9 -23
l-33 -78h-65q-5 -23 -34.5 -38t-72.5 -15q-45 0 -74 15.5t-33 37.5h-66l-60 144l32 9l-33 78l36 10l-18 43v80q-30 37 -46 81.5t-16 93.5q0 58 22 108.5t59.5 88t88 59.5t108.5 22q57 0 108 -22t88.5 -59.5t59.5 -88t22 -108.5zM1042 395q7 -62 1 -126l-179 22q2 18 2 40
q0 23 -2 43l178 21v0zM844 742q24 -20 46.5 -42t42.5 -48l-139 -109q-12 15 -29.5 32t-29.5 26zM566 670q-20 3 -41.5 2.5t-41.5 -2.5l-23 174q31 5 64 4.5t63 -4.5l-21 -174v0zM113 654q21 25 43 47.5t47 41.5l113 -143q-14 -11 -30.5 -28t-27.5 -31l-145 113v0z" />
    <glyph glyph-name="apple" unicode="&#xf8ff;" horiz-adv-x="1047" 
d="M189 374q-2 -20 -2 -43q0 -22 2 -41l-183 -22q-9 63 0 128zM529 355q2 0 3.5 5t-0.5 5q2 -5 -3 -10zM527 357q5 0 2.5 2t0.5 2v1q-4 0 -2 -2t-1 -2v-1v0zM525 361q-3 -6 -2.5 -2t2.5 2zM524 357h1l1 5q-4 1 -4.5 -3.5t3.5 0.5zM520 355q-2 5 3 10q-2 0 -3.5 -5t0.5 -5z
M517 358q-2 -1 -1.5 1.5t2.5 1.5v1q-2 1 -3.5 -2.5t2.5 -2.5v1zM513 362l-1 -3q-1 -2 -1 0l1 3h-1l-1 -3q-1 -2 0 -2q2 0 3 2l1 3h-1zM509 358h-2l2 6h-1l-2 -6q0 -1 1 -1h2v1zM630 -42l-223 -58l20 -47h193l8 19l-2 5l-63 -16l-18 53l94 24zM630 45l-224 -58l9 -19l223 57z
M406 119v-36l12 -28l222 57v7h-234zM555 321q-9 1 -16 1h-15h-16q-7 0 -17 -1l14 -128h38l12 128v0zM439 193l-14 117q-15 -3 -24.5 -7t-16.5 -6q-9 -3 -14 9t-6 28t2 31t10 17q32 9 71 15.5t77 6.5q41 0 78.5 -6.5t70.5 -15.5q7 -2 9.5 -16.5t1.5 -30.5t-6.5 -28t-14.5 -9
q-7 2 -17.5 5.5t-24.5 6.5l-12 -117h36q28 25 45.5 60.5t17.5 78.5q0 38 -14.5 72t-39.5 59t-58.5 39.5t-71.5 14.5t-72 -14.5t-59 -39.5t-39.5 -59t-14.5 -72q0 -42 17.5 -78t46.5 -61h36zM802 332q0 -49 -17 -96t-47 -82v-84l-16 -4l33 -78l-33 -9l33 -76l-35 -9l9 -23
l-33 -78h-65q-5 -23 -34.5 -38t-72.5 -15q-45 0 -74 15.5t-33 37.5h-66l-60 144l32 9l-33 78l36 10l-18 43v80q-30 37 -46 81.5t-16 93.5q0 58 22 108.5t59.5 88t88 59.5t108.5 22q57 0 108 -22t88.5 -59.5t59.5 -88t22 -108.5zM1042 395q7 -62 1 -126l-179 22q2 18 2 40
q0 23 -2 43l178 21v0zM844 742q24 -20 46.5 -42t42.5 -48l-139 -109q-12 15 -29.5 32t-29.5 26zM566 670q-20 3 -41.5 2.5t-41.5 -2.5l-23 174q31 5 64 4.5t63 -4.5l-21 -174v0zM113 654q21 25 43 47.5t47 41.5l113 -143q-14 -11 -30.5 -28t-27.5 -31l-145 113v0z" />
    <glyph glyph-name="Acute" unicode="&#xf6c9;" horiz-adv-x="392" 
d="M184 703l-15 96l245 76l19 -123z" />
    <glyph glyph-name="Caron" unicode="&#xf6ca;" horiz-adv-x="408" 
d="M303 703l-164 90l44 82l131 -55l142 55l28 -82z" />
    <glyph glyph-name="Dieresis" unicode="&#xf6cb;" horiz-adv-x="440" 
d="M556 795q0 -40 -26.5 -65t-61.5 -25q-17 0 -32 6.5t-26 18t-17 26t-6 30.5q0 19 7 36t19 29t28 19t33 7q18 0 33 -7t26 -18.5t17 -26t6 -30.5zM344 795q0 -40 -26.5 -65t-61.5 -25q-17 0 -32 6.5t-26 18t-17 26t-6 30.5q0 19 7 36t19 29t28 19t33 7q18 0 33 -7t26 -18.5
t17 -26t6 -30.5z" />
    <glyph glyph-name="Grave" unicode="&#xf6ce;" horiz-adv-x="372" 
d="M404 703l-236 49l51 123l224 -76z" />
    <glyph glyph-name="Delta" horiz-adv-x="612" 
d="M-16 0l28 143l266 532h226l72 -532l-27 -143h-565zM364 354q-4 33 -6 67t-2 73h-2q-15 -39 -31 -75.5t-31 -67.5l-86 -183h177z" />
    </font>
</defs>
</svg>
