<?xml version="1.0" standalone="no"?>
<!DOCTYPE svg PUBLIC "-//W3C//DTD SVG 1.1//EN" "http://www.w3.org/Graphics/SVG/1.1/DTD/svg11.dtd" >
<svg xmlns="http://www.w3.org/2000/svg" xmlns:xlink="http://www.w3.org/1999/xlink" version="1.1">
<metadata>
Created by FontForge 20161013 at Thu Jun  1 17:01:49 2006
 By ,,,
Copyright (c) 2000-2006, Luc[as] de Groot. All rights reserved. Published by LucasFonts.com
</metadata>
<defs>
<font id="JumboTheSansBlack-Black" horiz-adv-x="550" >
  <font-face 
    font-family="Jumbo TheSans Black"
    font-weight="900"
    font-stretch="normal"
    units-per-em="1000"
    panose-1="2 11 10 0 4 3 3 6 2 4"
    ascent="740"
    descent="-260"
    x-height="497"
    cap-height="675"
    bbox="-91 -260 1056 960"
    underline-thickness="148"
    underline-position="-316"
    unicode-range="U+000D-FB04"
  />
<missing-glyph 
d="M150 150v250h50v-200h100v-50h-150zM50 50v450h450v-450h-450zM250 350v50h150v-250h-50v100h-100v50h100v50h-100zM450 100v350h-350v-350h350z" />
    <glyph glyph-name="f_b" unicode="fb" horiz-adv-x="886" 
d="M861 277q0 -59 -17.5 -112t-52.5 -92.5t-87 -62.5t-121 -23q-68 0 -115 7t-94 21v574q-20 4 -46 4q-34 0 -53.5 -16t-19.5 -48v-32h73v-140h-73v-357h-182v357h-63v140h63v35q0 45 14 83.5t46 67t83.5 44.5t126.5 16q39 0 95 -5.5t118 -15.5v-166q0 -25 -2 -54t-5 -49h1
q17 25 50 40.5t79 15.5q91 0 136.5 -63.5t45.5 -168.5zM669 258q0 54 -12 76.5t-37 22.5t-44.5 -28.5t-19.5 -86.5v-105q6 -2 14 -3t21 -1q16 0 30 6t24.5 20.5t17 38.5t6.5 60z" />
    <glyph glyph-name="f_h" unicode="fh" horiz-adv-x="887" 
d="M662 0v314q0 19 -6 30t-22 11q-15 0 -29 -10t-25 -26t-17.5 -36.5t-6.5 -41.5v-241h-182v589q-20 4 -46 4q-34 0 -53.5 -16t-19.5 -48v-32h73v-140h-73v-357h-182v357h-63v140h63v35q0 45 14 83.5t46 67t83.5 44.5t126.5 16q39 0 95 -5.5t118 -15.5v-174q0 -20 -2 -49
t-7 -54h1q22 28 59.5 46t89.5 18q41 0 69 -12.5t45.5 -34t25 -50t7.5 -60.5v-352h-182z" />
    <glyph glyph-name="f_j" unicode="fj" horiz-adv-x="599" 
d="M556 -11q0 -51 -11.5 -93t-38 -72t-69.5 -46.5t-105 -16.5q-18 0 -37.5 2.5t-36.5 7.5l9 153q14 -5 29 -8t26 -3q28 0 40 14t12 41v389h-119v-357h-182v357h-63v140h63v12q0 118 63.5 176t201.5 58q51 0 90 -4.5t85 -14.5l-29 -151q-29 8 -61.5 13.5t-61.5 5.5
q-57 0 -81.5 -18.5t-24.5 -58.5v-18h301v-508v0z" />
    <glyph glyph-name="f_k" unicode="fk" horiz-adv-x="892" 
d="M374 589q-20 4 -46 4q-34 0 -53.5 -16t-19.5 -48v-32h73v-140h-73v-357h-182v357h-63v140h63v35q0 45 14 83.5t46 67t83.5 44.5t126.5 16q39 0 95 -5.5t118 -15.5v-416l102 191h224l-151 -228l161 -269h-225l-111 230v-230h-182v589v0z" />
    <glyph glyph-name="fi" unicode="fi" horiz-adv-x="603" 
d="M374 0v357h-119v-357h-182v357h-63v140h63v12q0 118 63.5 175t201.5 57q51 0 90 -4.5t85 -14.5l-29 -151q-29 8 -61.5 13.5t-61.5 5.5q-57 0 -81.5 -17.5t-24.5 -57.5v-18h301v-497h-182z" />
    <glyph glyph-name="fl" unicode="fl" horiz-adv-x="603" 
d="M374 0v587q-20 4 -46 4q-34 0 -53.5 -15t-19.5 -47v-32h73v-140h-73v-357h-182v357h-63v140h63v35q0 45 14 83t46 66t83.5 44t126.5 16q39 0 95 -5.5t118 -15.5v-720h-182z" />
    <glyph glyph-name="ff" unicode="ff" horiz-adv-x="662" 
d="M653 585q-11 5 -23.5 6.5t-22.5 1.5q-26 0 -38.5 -11t-12.5 -38v-47h85v-140h-85v-357h-182v357h-119v-357h-182v357h-63v140h63v22q0 109 64 161t191 52q34 0 67 -4t61 -12q20 11 52 18t76 7q20 0 40 -1.5t40 -6.5zM375 576q-14 5 -28.5 6t-24.5 1q-37 0 -52 -16
t-15 -44v-26h119v46v16q0 9 1 17z" />
    <glyph glyph-name="ffi" unicode="ffi" horiz-adv-x="900" 
d="M675 0v357h-119v-357h-182v357h-119v-357h-182v357h-63v140h63v22q0 111 65 162t192 51q37 0 77 -6.5t69 -14.5q61 32 169 32q51 0 91 -4.5t90 -14.5l-31 -151q-33 8 -66.5 13.5t-62.5 5.5q-57 0 -83.5 -18.5t-26.5 -58.5v-18h301v-497h-182zM380 575q-16 5 -30 6.5
t-28 1.5q-37 0 -52 -16t-15 -44v-26h119v12q0 36 6 66z" />
    <glyph glyph-name="ffl" unicode="ffl" horiz-adv-x="900" 
d="M675 0v589q-20 4 -46 4q-34 0 -53.5 -16t-19.5 -48v-32h73v-140h-73v-357h-182v357h-119v-357h-182v357h-63v140h63v22q0 111 65 162t192 51q37 0 78 -6.5t70 -14.5q30 15 71 23.5t95 8.5q39 0 95 -5.5t118 -15.5v-722h-182zM377 576q-15 5 -28.5 6t-26.5 1
q-37 0 -52 -16t-15 -44v-26h119v35q0 21 3 44z" />
    <glyph glyph-name=".notdef" 
d="M150 150v250h50v-200h100v-50h-150zM50 50v450h450v-450h-450zM250 350v50h150v-250h-50v100h-100v50h100v50h-100zM450 100v350h-350v-350h350z" />
    <glyph glyph-name=".null" horiz-adv-x="0" 
 />
    <glyph glyph-name=".null" horiz-adv-x="0" 
 />
    <glyph glyph-name="nonmarkingreturn" unicode="&#xd;" horiz-adv-x="500" 
 />
    <glyph glyph-name="space" unicode=" " horiz-adv-x="218" 
 />
    <glyph glyph-name="space" unicode="&#xa0;" horiz-adv-x="218" 
 />
    <glyph glyph-name="exclam" unicode="!" horiz-adv-x="324" 
d="M272 86q0 -21 -8 -39.5t-22 -32t-33 -21t-41 -7.5t-41 7.5t-33 21t-22 32t-8 39.5t8 39t22 31.5t33 21.5t41 8t41 -8t33 -21.5t22 -31.5t8 -39zM251 216h-160l-28 499h213z" />
    <glyph glyph-name="quotedbl" unicode="&#x22;" horiz-adv-x="461" 
d="M189 417h-137l-20 290h177zM409 417h-137l-20 290h177z" />
    <glyph glyph-name="numbersign" unicode="#" 
d="M231 371l-9 -90h97l9 90h-97zM457 371l-9 -90h60v-126h-73l-16 -155h-129l16 155h-97l-16 -155h-129l16 155h-60v126h73l9 90h-60v126h73l16 153h129l-16 -153h97l16 153h129l-16 -153h60v-126h-73z" />
    <glyph glyph-name="dollar" unicode="$" 
d="M492 220q0 -68 -43.5 -121t-118.5 -76v-108h-127v99q-31 1 -59 3.5t-57 6.5l12 159q33 -11 63 -15t59 -4q37 0 57 10.5t20 30.5q0 19 -18 29.5t-45 20t-58.5 21t-58.5 32.5t-45 54.5t-18 86.5q0 68 41.5 118.5t110.5 69.5v93h127v-83q22 -1 46.5 -3.5t51.5 -8.5l-13 -150
q-32 9 -59.5 12.5t-48.5 3.5q-34 0 -49.5 -9.5t-15.5 -26.5q0 -16 18 -26t45.5 -19.5t59.5 -22.5t59.5 -34.5t45.5 -56t18 -86.5z" />
    <glyph glyph-name="percent" unicode="%" horiz-adv-x="775" 
d="M226 501q0 35 -9 44.5t-22 9.5t-23.5 -13t-10.5 -42q0 -35 10.5 -45t21.5 -10q12 0 22.5 13.5t10.5 42.5zM615 151q0 35 -9 44.5t-22 9.5t-23.5 -13t-10.5 -42q0 -35 10.5 -45t21.5 -10q12 0 22.5 13.5t10.5 42.5zM356 507q0 -39 -14 -71t-37.5 -54t-53.5 -34t-62 -12
q-74 0 -116.5 43.5t-42.5 117.5q0 38 13.5 69t36.5 52.5t53 33.5t63 12t62 -9t51 -28.5t34.5 -49t12.5 -70.5zM188 -25l-112 82l507 616l112 -82zM745 157q0 -39 -14 -71t-37.5 -54t-53.5 -34t-62 -12q-74 0 -116.5 43.5t-42.5 117.5q0 38 13.5 69t36.5 52.5t53 33.5t63 12
t62 -9t51 -28.5t34.5 -49t12.5 -70.5z" />
    <glyph glyph-name="ampersand" unicode="&#x26;" horiz-adv-x="800" 
d="M389 163q-37 28 -74.5 59t-61.5 52q-14 -16 -21 -32.5t-7 -30.5q0 -24 19.5 -46.5t57.5 -22.5q23 0 45 5.5t42 15.5zM324 567q0 16 -9 27.5t-27 11.5q-17 0 -27.5 -11.5t-10.5 -28.5q0 -16 7.5 -35t25.5 -40q17 17 29 35.5t12 40.5zM656 -29q-15 10 -33 22.5l-36 25
t-34 24t-27 19.5q-46 -31 -110 -53.5t-142 -22.5q-65 0 -110.5 17.5t-74 46t-41.5 65t-13 75.5q0 60 29 107t79 87q-35 44 -54 84.5t-19 87.5q0 37 15 71t44 59t71.5 40t98.5 15q100 0 152.5 -43.5t52.5 -120.5q0 -54 -29 -99.5t-83 -89.5q26 -22 58 -46.5t67 -49.5v-1
q26 45 37 94t11 89h180q0 -72 -21.5 -145.5t-66.5 -136.5q26 -18 60.5 -42t59.5 -41z" />
    <glyph glyph-name="quotesingle" unicode="'" horiz-adv-x="241" 
d="M189 417h-137l-20 290h177z" />
    <glyph glyph-name="parenleft" unicode="(" horiz-adv-x="310" 
d="M176 -223q-77 121 -113.5 247.5t-36.5 261.5q0 132 36.5 260t114.5 249l136 -59q-51 -96 -79 -208.5t-28 -237.5t28.5 -239t82.5 -213z" />
    <glyph glyph-name="parenright" unicode=")" horiz-adv-x="310" 
d="M283 286q0 -132 -36.5 -260t-115.5 -249l-136 59q52 96 80 208.5t28 237.5t-28.5 239t-80.5 213l141 61q75 -121 111.5 -247.5t36.5 -261.5z" />
    <glyph glyph-name="asterisk" unicode="*" horiz-adv-x="400" 
d="M317 418l-77 71l23 -103h-126l23 103l-78 -70l-62 107l100 32l-100 32l63 108l77 -71l-23 103h125l-22 -103l77 71l63 -108l-100 -32l100 -32z" />
    <glyph glyph-name="plus" unicode="+" 
d="M362 222v-166h-174v166h-153v152h153v164h174v-164h153v-152h-153z" />
    <glyph glyph-name="comma" unicode="," horiz-adv-x="300" 
d="M150 200q31 0 56 -16t39 -44.5t15.5 -67t-14.5 -83t-50.5 -93t-92.5 -96.5l-73 65q28 30 43.5 53t19.5 42.5t-2.5 37t-22.5 35.5q-19 21 -22.5 50t7 55t35 44t62.5 18z" />
    <glyph glyph-name="hyphen" unicode="-" horiz-adv-x="340" 
d="M40 191v145h260v-145h-260z" />
    <glyph glyph-name="hyphen" unicode="&#xad;" horiz-adv-x="340" 
d="M40 191v145h260v-145h-260z" />
    <glyph glyph-name="period" unicode="." horiz-adv-x="300" 
d="M260 96q0 -23 -9 -43t-24 -35t-35 -23.5t-42 -8.5q-23 0 -43 8.5t-35 23.5t-23.5 35t-8.5 43q0 22 8.5 42t23.5 35t35 24t43 9q22 0 42 -9t35 -24t24 -35t9 -42z" />
    <glyph glyph-name="slash" unicode="/" horiz-adv-x="500" 
d="M153 -161h-184l351 918h183z" />
    <glyph glyph-name="zero" unicode="0" 
d="M335 326q0 63 -4 99t-11.5 55t-19 24t-26.5 5q-14 0 -25.5 -7t-19 -26.5t-11.5 -54.5t-4 -92q0 -66 4 -103t11.5 -55t19 -22.5t26.5 -4.5t26 6t18.5 25.5t11.5 55.5t4 95zM531 328q0 -86 -20.5 -150t-55.5 -107t-82.5 -64t-102.5 -21q-56 0 -102.5 14.5t-79.5 53
t-51.5 104.5t-18.5 169q0 85 19 148t53.5 105t82.5 63t107 21q130 0 190.5 -80.5t60.5 -255.5z" />
    <glyph glyph-name="one" unicode="1" 
d="M53 0v164h148v294l-124 -48l-28 174l205 66h136v-486h127v-164h-464z" />
    <glyph glyph-name="two" unicode="2" 
d="M40 0v150l32 30q68 64 108.5 106t62.5 70t28.5 45t6.5 31q0 27 -19 43.5t-59 16.5q-36 0 -68 -10t-58 -27l-29 166q39 19 91 30.5t109 11.5q64 0 109.5 -16.5t74 -44.5t41.5 -63.5t13 -72.5q0 -33 -7.5 -64t-26.5 -63.5t-51 -68.5t-81 -79l-17 -15v-2q40 2 79.5 2.5
t74.5 0.5h51v-177h-465z" />
    <glyph glyph-name="three" unicode="3" 
d="M500 218q0 -57 -23.5 -100t-65.5 -72.5t-99.5 -44.5t-125.5 -15q-42 0 -78 5t-59 11l15 153q31 -10 61.5 -14t67.5 -4q61 0 85 19.5t24 45.5q0 24 -24 40t-88 16q-29 0 -55 -1.5t-54 -5.5v138h39q36 0 67.5 4t54.5 12t36.5 21.5t13.5 32.5q0 24 -19 38.5t-67 14.5
q-42 0 -76 -8t-58 -20l-15 150q40 14 87.5 22t102.5 8q122 0 179.5 -46t57.5 -121q0 -54 -26.5 -88.5t-71.5 -50.5l-2 -3q54 -10 85 -48t31 -89z" />
    <glyph glyph-name="four" unicode="4" 
d="M290 467h-1l-97 -177q8 0 22 0.5t28 0.5h28h20v176zM465 128v-128h-179v128h-257l-18 155l206 367h248v-359h66v-163h-66z" />
    <glyph glyph-name="five" unicode="5" 
d="M508 223q0 -54 -22.5 -98t-63 -74.5t-97 -47t-124.5 -16.5q-38 0 -70.5 3.5t-61.5 10.5v161q32 -9 63.5 -14t78.5 -5q44 0 68.5 17t24.5 47q0 32 -30 48.5t-87 16.5q-34 0 -62.5 -2t-53.5 -6v386h406v-170h-231v-66h16q117 0 181.5 -51.5t64.5 -139.5z" />
    <glyph glyph-name="six" unicode="6" 
d="M346 203q0 70 -70 70q-32 0 -49 -19t-17 -45q0 -34 17.5 -54.5t55.5 -20.5q29 0 46 20t17 49zM531 228q0 -59 -18.5 -104t-52 -75.5t-80.5 -46.5t-103 -16q-58 0 -105 16.5t-80.5 52.5t-52 92.5t-18.5 137.5q0 88 24 157.5t69.5 118t111.5 74.5t149 26q24 0 50 -1t49 -4
v-157q-50 10 -103 10q-60 0 -97 -23.5t-57 -68.5q-3 -6 -5.5 -12t-4.5 -15h1q23 15 51 23t65 8q51 0 89.5 -15.5t64.5 -41.5t39.5 -61t13.5 -75z" />
    <glyph glyph-name="seven" unicode="7" 
d="M505 493q-29 -57 -55.5 -121.5t-49.5 -129t-42.5 -127t-33.5 -115.5h-208q16 62 38.5 130t47 132t48 119.5t42.5 92.5q-14 0 -34 -0.5t-42.5 -1t-46 -1t-44.5 -0.5h-83v179h463v-157v0z" />
    <glyph glyph-name="eight" unicode="8" 
d="M341 181q0 24 -23 40t-58 30q-23 -14 -37 -30t-14 -38t17 -37.5t53 -15.5q30 0 46 15t16 36zM333 479q0 15 -12 30t-48 15q-31 0 -43.5 -14t-12.5 -31q0 -21 19 -36t48 -29q22 14 35.5 29.5t13.5 35.5zM529 197q0 -54 -22 -93.5t-58 -66t-83.5 -39t-98.5 -12.5
q-118 0 -182 48.5t-64 134.5q0 52 26 88t64 63q-32 23 -54 57t-22 85q0 47 19 84.5t52.5 63.5t79 40t98.5 14q54 0 97 -13t73 -35.5t45.5 -54t15.5 -67.5q0 -50 -22.5 -85t-57.5 -61q39 -23 66.5 -59t27.5 -92z" />
    <glyph glyph-name="nine" unicode="9" 
d="M335 441q0 34 -17.5 54.5t-55.5 20.5q-29 0 -46 -20t-17 -49q0 -70 70 -70q32 0 49 19t17 45zM529 365q0 -88 -23.5 -157.5t-68.5 -118t-110.5 -74.5t-148.5 -26q-24 0 -53 1.5t-55 6.5v157q29 -8 57.5 -10.5t54.5 -2.5q60 0 95.5 23.5t55.5 68.5q3 6 5.5 12t4.5 15h-1
q-23 -15 -51 -23t-65 -8q-51 0 -89.5 15t-65 41.5t-40 61.5t-13.5 75q0 58 19 103t53 76t80.5 47t102.5 16q118 0 187 -74t69 -225z" />
    <glyph glyph-name="colon" unicode=":" horiz-adv-x="315" 
d="M275 96q0 -23 -9 -43t-24 -35t-35 -23.5t-42 -8.5q-23 0 -43 8.5t-35 23.5t-23.5 35t-8.5 43q0 22 8.5 42t23.5 35t35 24t43 9q22 0 42 -9t35 -24t24 -35t9 -42zM275 365q0 -23 -9 -43t-24 -35t-35 -23.5t-42 -8.5q-23 0 -43 8.5t-35 23.5t-23.5 35t-8.5 43q0 22 8.5 42
t23.5 35t35 24t43 9q22 0 42 -9t35 -24t24 -35t9 -42z" />
    <glyph glyph-name="semicolon" unicode=";" horiz-adv-x="315" 
d="M165 200q31 0 56 -16t39 -44.5t15.5 -67t-14.5 -83t-50.5 -93t-92.5 -96.5l-73 65q28 30 43.5 53t19.5 42.5t-2.5 37t-22.5 35.5q-19 21 -22.5 50t7 55t35 44t62.5 18zM275 365q0 -23 -9 -43t-24 -35t-35 -23.5t-42 -8.5q-23 0 -43 8.5t-35 23.5t-23.5 35t-8.5 43
q0 22 8.5 42t23.5 35t35 24t43 9q22 0 42 -9t35 -24t24 -35t9 -42z" />
    <glyph glyph-name="semicolon" unicode="&#x37e;" horiz-adv-x="315" 
d="M165 200q31 0 56 -16t39 -44.5t15.5 -67t-14.5 -83t-50.5 -93t-92.5 -96.5l-73 65q28 30 43.5 53t19.5 42.5t-2.5 37t-22.5 35.5q-19 21 -22.5 50t7 55t35 44t62.5 18zM275 365q0 -23 -9 -43t-24 -35t-35 -23.5t-42 -8.5q-23 0 -43 8.5t-35 23.5t-23.5 35t-8.5 43
q0 22 8.5 42t23.5 35t35 24t43 9q22 0 42 -9t35 -24t24 -35t9 -42z" />
    <glyph glyph-name="less" unicode="&#x3c;" 
d="M374 -13l-323 311l321 310l121 -121l-207 -188l208 -189z" />
    <glyph glyph-name="equal" unicode="=" 
d="M50 114v145h450v-145h-450zM50 334v145h450v-145h-450z" />
    <glyph glyph-name="greater" unicode="&#x3e;" 
d="M178 -13l-121 121l207 188l-208 189l120 123l323 -311z" />
    <glyph glyph-name="question" unicode="?" horiz-adv-x="459" 
d="M299 86q0 -21 -8 -39.5t-22 -32t-33 -21t-41 -7.5t-41 7.5t-33 21t-22 32t-8 39.5t8 39t22 31.5t33 21.5t41 8t41 -8t33 -21.5t22 -31.5t8 -39zM431 507q0 -42 -14 -71.5t-33.5 -51.5t-41.5 -39.5t-39 -35.5t-24.5 -40t2.5 -53h-178q-16 44 -13 76t17.5 56t35.5 42
t41 33.5t34 30.5t14 34q0 38 -48.5 55t-140.5 19l22 165q101 -2 170.5 -21t113 -49.5t63 -69.5t19.5 -80z" />
    <glyph glyph-name="at" unicode="@" horiz-adv-x="959" 
d="M497 429q-10 5 -23 5q-15 0 -27 -11.5t-21 -29t-14 -39t-5 -41.5q0 -26 3.5 -36t12.5 -10q16 0 35 29t33 102l6 31v0zM877 424q0 -74 -19.5 -129t-54 -92t-82.5 -55t-106 -18q-45 0 -72 20t-30 58h-4q-21 -33 -53 -55.5t-75 -22.5q-46 0 -76.5 37.5t-30.5 119.5
q0 55 14 103.5t44 84t76.5 56t110.5 20.5q36 0 69.5 -8t53.5 -19l-30 -177q-8 -45 -4 -61t25 -16q16 0 31.5 7t26.5 23.5t18 44.5t7 70q0 36 -10.5 68.5t-34.5 57t-63.5 39t-96.5 14.5t-107.5 -21t-88 -60t-59 -94.5t-21.5 -124.5q0 -53 13 -94.5t42.5 -70t77 -43
t116.5 -14.5q43 0 90.5 9t92.5 24l28 -138q-56 -20 -120 -31t-114 -11q-99 0 -172 25t-121 71t-72 111.5t-24 146.5q0 100 34 185t94 146.5t142 96t178 34.5q87 0 154 -23.5t112 -66t68 -100.5t23 -127z" />
    <glyph glyph-name="A" unicode="A" horiz-adv-x="641" 
d="M334 380q-7 23 -13 47t-11 48h-2q-9 -46 -23 -96l-36 -123h122zM450 0l-34 110h-210l-33 -110h-184l215 675h223l226 -675h-203z" />
    <glyph glyph-name="B" unicode="B" horiz-adv-x="594" 
d="M368 214q0 26 -21 44t-65 18h-9h-14q-7 0 -14 -0.5t-11 -0.5v-125q9 -1 23.5 -1.5t26.5 -0.5q37 0 60.5 17.5t23.5 48.5zM353 477q0 26 -19.5 40.5t-52.5 14.5q-16 0 -25.5 -0.5t-21.5 -1.5v-116q8 -1 18 -1h22q44 0 61.5 17.5t17.5 46.5zM569 216q0 -46 -17.5 -85.5
t-53 -69t-89.5 -46.5t-126 -17q-31 0 -90 1t-145 1v674q25 1 57.5 2.5t68 2t70.5 1t67 0.5q55 0 99 -10.5t75.5 -32t48.5 -54.5t17 -77q0 -45 -21 -83t-60 -58v-3q44 -15 71.5 -56t27.5 -90z" />
    <glyph glyph-name="C" unicode="C" horiz-adv-x="541" 
d="M507 16q-35 -13 -77 -19t-83 -6q-99 0 -161.5 30.5t-98 78t-48 103.5t-12.5 107q0 84 23.5 152.5t68 117t109 74.5t147.5 26q33 0 67 -4.5t63 -13.5l-23 -170q-48 19 -107 19q-66 0 -104.5 -44t-38.5 -126q0 -88 35.5 -134t114.5 -46q22 0 50.5 5t49.5 16l25 -166v0z" />
    <glyph glyph-name="D" unicode="D" horiz-adv-x="651" 
d="M425 339q0 39 -5 72t-20 58t-44 39t-78 14h-15t-29 -2v-361q12 -3 43 -3t58 11t47 33.5t31.5 57t11.5 81.5zM626 354q0 -87 -26 -153.5t-74 -112.5t-115 -69.5t-149 -23.5q-112 0 -214 6v672q40 2 104.5 4t138.5 2t135.5 -16.5t106 -54.5t69 -100.5t24.5 -153.5z" />
    <glyph glyph-name="E" unicode="E" horiz-adv-x="480" 
d="M48 0v675h395v-158h-209v-95h198v-152h-198v-109h209v-161h-395z" />
    <glyph glyph-name="F" unicode="F" horiz-adv-x="460" 
d="M234 515v-109h188v-153h-188v-253h-186v675h385v-160h-199z" />
    <glyph glyph-name="G" unicode="G" horiz-adv-x="664" 
d="M617 35q-49 -22 -111.5 -34.5t-131.5 -12.5q-85 0 -150 23.5t-109 66.5t-66.5 104t-22.5 137q0 82 27.5 149.5t78.5 116t123.5 75t162.5 26.5q57 0 109 -8.5t89 -19.5l-36 -170q-35 14 -76.5 22t-92.5 8q-46 0 -80.5 -13.5t-57 -38.5t-34 -59t-11.5 -75
q0 -79 39.5 -126.5t125.5 -47.5q21 0 38 5v205h186v-333v0z" />
    <glyph glyph-name="H" unicode="H" horiz-adv-x="670" 
d="M436 0v266h-202v-266h-186v675h186v-246h202v246h186v-675h-186z" />
    <glyph glyph-name="I" unicode="I" horiz-adv-x="282" 
d="M48 0v675h186v-675h-186z" />
    <glyph glyph-name="J" unicode="J" horiz-adv-x="343" 
d="M297 207q0 -41 -9.5 -80t-32.5 -70t-62 -49.5t-98 -18.5q-35 0 -55 2t-40 6v156q8 -3 20.5 -5.5t30.5 -2.5q29 0 44.5 15t15.5 51v464h186v-468v0z" />
    <glyph glyph-name="K" unicode="K" horiz-adv-x="615" 
d="M377 0l-143 308v-308h-186v675h186v-289l146 289h225l-193 -325l204 -350h-239z" />
    <glyph glyph-name="L" unicode="L" horiz-adv-x="432" 
d="M48 0v675h186v-509h186v-166h-372z" />
    <glyph glyph-name="M" unicode="M" horiz-adv-x="870" 
d="M671 0l-37 232q-7 48 -11 85.5t-9 81.5h-2q-14 -83 -43 -194l-57 -205h-168l-56 187q-18 64 -28 111.5t-18 100.5h-2q-5 -51 -8.5 -89.5t-10.5 -93.5l-28 -216h-186l112 675h211l71 -238q11 -38 19 -71.5t17 -81.5h2q8 43 17 79.5t21 76.5l71 235h205l111 -675h-193z" />
    <glyph glyph-name="N" unicode="N" horiz-adv-x="686" 
d="M395 0l-131 284q-21 49 -29 73t-17 56q3 -30 4 -52t3 -185v-176h-177v675h179h65l126 -272q18 -42 27.5 -66t22.5 -68q-4 50 -5 98.5t-2 139.5v168h177v-675h-179h-64z" />
    <glyph glyph-name="O" unicode="O" horiz-adv-x="701" 
d="M482 340q0 179 -132 179q-24 0 -47.5 -10t-42 -31t-30 -54.5t-11.5 -81.5q0 -87 29.5 -136t97.5 -49q22 0 46 8.5t44 29.5t33 56t13 89zM680 349q0 -83 -26.5 -150t-73 -114t-109 -73t-134.5 -26q-80 0 -139 23.5t-98.5 67.5t-59 107.5t-19.5 143.5q0 82 27 148.5
t73.5 113.5t109 73t133.5 26q66 0 123.5 -18.5t100.5 -59.5t67.5 -105.5t24.5 -156.5z" />
    <glyph glyph-name="P" unicode="P" horiz-adv-x="542" 
d="M339 448q0 38 -22 59.5t-65 21.5h-7t-11 -1v-165q7 -1 9.5 -1h4.5q39 0 65 23.5t26 62.5zM531 454q0 -49 -16.5 -94t-50 -79t-84 -54t-120.5 -20h-7t-19 1v-208h-186v675q47 2 97.5 3.5t106.5 1.5q136 0 207.5 -57t71.5 -169z" />
    <glyph glyph-name="Q" unicode="Q" horiz-adv-x="701" 
d="M482 340q0 179 -132 179q-24 0 -47.5 -10t-42 -31t-30 -54.5t-11.5 -81.5q0 -87 29.5 -136t97.5 -49q22 0 46 8.5t44 29.5t33 56t13 89zM698 -229q-50 -9 -89 -9.5t-72 3.5t-62 10t-59.5 11t-64 7t-75.5 -3v162q49 5 86.5 4t69 -5.5t60 -10.5t59 -10t65.5 -4q36 0 82 7
v-162v0zM680 349q0 -83 -26.5 -150t-73 -114t-109 -73t-134.5 -26q-80 0 -139 23.5t-98.5 67.5t-59 107.5t-19.5 143.5q0 82 27 148.5t73.5 113.5t109 73t133.5 26q66 0 123.5 -18.5t100.5 -59.5t67.5 -105.5t24.5 -156.5z" />
    <glyph glyph-name="R" unicode="R" horiz-adv-x="586" 
d="M351 455q0 34 -20.5 53t-61.5 19q-9 0 -18 -0.5t-17 -1.5v-145q5 -1 14 -1.5t17 -0.5q40 0 63 20.5t23 56.5zM368 0l-125 246h-9v-246h-186v675q48 3 107.5 4t123.5 1q132 0 200 -50.5t68 -160.5q0 -30 -8 -58.5t-24 -53.5t-38.5 -44t-50.5 -29q15 -22 25 -38t24 -40
l119 -206h-226z" />
    <glyph glyph-name="S" unicode="S" horiz-adv-x="502" 
d="M485 221q0 -50 -20.5 -92.5t-56.5 -74t-87.5 -49.5t-112.5 -18q-51 0 -90.5 4t-76.5 13l16 177q34 -14 72 -23t83 -9q27 0 46 12t19 36q0 23 -18.5 37.5t-47 25t-60.5 23t-61 34.5t-47 60t-18 91q0 102 75.5 161t205.5 59q26 0 58.5 -3t65.5 -10l-16 -161q-28 10 -56 15
t-59 5q-38 0 -56 -12.5t-18 -32.5q0 -19 18.5 -33.5t48 -26t63.5 -26t63.5 -37t48 -59t18.5 -86.5z" />
    <glyph glyph-name="T" unicode="T" horiz-adv-x="502" 
d="M344 515v-515h-186v515h-146v160h478v-160h-146z" />
    <glyph glyph-name="U" unicode="U" horiz-adv-x="664" 
d="M616 268q0 -74 -20.5 -127t-58.5 -87.5t-92.5 -51t-122.5 -16.5q-81 0 -134 20t-84 55t-43.5 82t-12.5 101v431h186v-422q0 -54 20.5 -82.5t78.5 -28.5q56 0 77.5 26.5t21.5 89.5v417h184v-407v0z" />
    <glyph glyph-name="V" unicode="V" horiz-adv-x="644" 
d="M433 0h-219l-222 675h200l103 -338q8 -27 17 -59.5t14 -60.5h2q14 65 34 130l100 328h190z" />
    <glyph glyph-name="W" unicode="W" horiz-adv-x="950" 
d="M776 0h-226l-56 253q-8 37 -14.5 80.5t-11.5 91.5h-1q-3 -45 -9.5 -85t-15.5 -80l-59 -260h-211l-162 675h197l62 -276q8 -32 13 -70.5t8 -76.5h1q5 37 10.5 72.5t14.5 71.5l71 279h187l68 -269q8 -29 15 -67.5t12 -80.5h1q12 86 27 157l56 260h187z" />
    <glyph glyph-name="X" unicode="X" horiz-adv-x="671" 
d="M436 0l-107 204l-107 -204h-222l206 342l-194 333h215l106 -200l103 200h212l-191 -336l214 -339h-235z" />
    <glyph glyph-name="Y" unicode="Y" horiz-adv-x="597" 
d="M390 233v-233h-186v232l-211 443h202l63 -146q13 -29 22.5 -54.5t17.5 -48.5h2q9 27 22 56.5t27 61.5l58 131h197z" />
    <glyph glyph-name="Z" unicode="Z" horiz-adv-x="534" 
d="M43 0v147l186 324q6 10 11 17.5t15 20.5q-15 -1 -28.5 -1h-27.5h-150v167h437v-154l-196 -322q-5 -8 -9 -14t-10 -14q21 1 38 1h182v-172h-448z" />
    <glyph glyph-name="bracketleft" unicode="[" horiz-adv-x="336" 
d="M50 -213v998h253v-147h-81v-703h81v-148h-253z" />
    <glyph glyph-name="backslash" unicode="\" horiz-adv-x="534" 
d="M350 -161l-350 918h183l351 -918h-184z" />
    <glyph glyph-name="bracketright" unicode="]" horiz-adv-x="336" 
d="M33 -213v148h81v703h-81v147h253v-998h-253z" />
    <glyph glyph-name="asciicircum" unicode="^" 
d="M380 328l-112 221l-107 -221l-119 62l161 285h136l169 -283z" />
    <glyph glyph-name="underscore" unicode="_" 
d="M0 -242v148h550v-148h-550z" />
    <glyph glyph-name="grave" unicode="`" horiz-adv-x="380" 
d="M273 544l-226 101l74 123l212 -123z" />
    <glyph glyph-name="a" unicode="a" horiz-adv-x="529" 
d="M296 207q-60 0 -80 -12.5t-20 -35.5q0 -14 9.5 -24t27.5 -10q28 0 45.5 19.5t17.5 45.5v17zM314 0q0 14 0.5 30t3.5 33h-1q-18 -35 -57 -55t-87 -20q-38 0 -65.5 12.5t-46 33.5t-27.5 48.5t-9 58.5q0 50 21 84.5t58 55.5t86.5 30t105.5 9v13q0 21 -17.5 30t-61.5 9
q-32 0 -68 -8.5t-66 -22.5l-29 141q40 13 92.5 21t102.5 8q67 0 111.5 -11.5t71 -34t37.5 -55.5t11 -76v-228q0 -23 0.5 -50.5t3.5 -55.5h-170z" />
    <glyph glyph-name="b" unicode="b" horiz-adv-x="559" 
d="M342 258q0 54 -12 76.5t-37 22.5t-44.5 -28.5t-19.5 -86.5v-105q6 -2 14 -3t21 -1q16 0 30 6t24.5 20.5t17 38.5t6.5 60zM534 277q0 -59 -18 -112t-53 -92.5t-88 -62.5t-123 -23q-58 0 -108 7t-97 21v715h182v-174q0 -25 -2 -54t-5 -49h1q17 25 50 40.5t79 15.5
q91 0 136.5 -63.5t45.5 -168.5z" />
    <glyph glyph-name="c" unicode="c" horiz-adv-x="409" 
d="M384 7q-26 -10 -60 -14.5t-66 -4.5q-62 0 -106.5 17.5t-73 49.5t-41.5 77t-13 101q0 55 15.5 105t48.5 88t84 60.5t122 22.5q21 0 44.5 -3t45.5 -10l-25 -158q-34 14 -64 14q-42 0 -61 -28t-19 -79q0 -50 21.5 -74t58.5 -24q17 0 35 3t34 11l20 -154v0z" />
    <glyph glyph-name="d" unicode="d" horiz-adv-x="559" 
d="M330 360q-15 4 -35 4q-16 0 -30 -6t-24.5 -20.5t-17 -38.5t-6.5 -60q0 -54 12 -77t37 -23t44.5 29.5t19.5 89.5v102zM347 0q0 13 0.5 26t2.5 30h-2q-20 -29 -54.5 -49t-88.5 -20q-89 0 -134.5 63.5t-45.5 168.5q0 59 17.5 112t52 92.5t85.5 62.5t117 23q9 0 17.5 -0.5
t15.5 -1.5v223h182v-730h-165z" />
    <glyph glyph-name="e" unicode="e" horiz-adv-x="524" 
d="M319 308q2 36 -12.5 52.5t-38.5 16.5q-26 0 -42.5 -19t-18.5 -50h112v0zM496 288q-1 -57 -7 -98h-281q1 -27 26 -44.5t81 -18.5q39 1 74 8t73 22l16 -134q-50 -18 -98 -26.5t-94 -8.5q-127 0 -194 61t-68 193q0 58 18 107t51.5 85t82 56t100.5 19q55 1 101 -17.5
t72.5 -51.5t37.5 -76t9 -76z" />
    <glyph glyph-name="f" unicode="f" horiz-adv-x="361" 
d="M352 585q-11 5 -23.5 6.5t-22.5 1.5q-26 0 -38.5 -11t-12.5 -38v-47h85v-140h-85v-357h-182v357h-63v140h63v46q0 49 11 86t36 62t65 37.5t98 12.5q20 0 40 -1.5t40 -6.5z" />
    <glyph glyph-name="g" unicode="g" horiz-adv-x="552" 
d="M353 -57q0 14 -9.5 25.5t-35.5 12.5l-70 2h-15q-10 -10 -15 -21.5t-5 -22.5q0 -20 16 -33.5t51 -13.5q42 0 62.5 15t20.5 36zM316 327q0 23 -14 38t-43 15q-26 0 -40 -14t-14 -37t14 -38t43 -15q26 0 40 14t14 37zM531 -33q0 -41 -19.5 -79.5t-56.5 -68t-90.5 -47
t-120.5 -17.5q-105 0 -162 36.5t-57 111.5q0 16 5.5 32.5t15 31t21.5 26.5t25 18q-22 11 -34.5 31.5t-12.5 47.5q0 32 18.5 59t44.5 37q-34 17 -54.5 51t-20.5 82q0 38 14 72.5t42.5 61t72.5 42t103 15.5q29 0 51 -3.5t45 -9.5h169v-143h-46q2 -5 2 -10v-11
q0 -84 -54.5 -130.5t-163.5 -46.5h-18q-6 -3 -9 -8t-3 -9q0 -6 2.5 -10t9.5 -6t19.5 -2.5t33.5 -1.5l56 -2q81 -3 126.5 -37t45.5 -113z" />
    <glyph glyph-name="h" unicode="h" horiz-adv-x="564" 
d="M335 0v314q0 19 -6 30t-22 11q-15 0 -29 -10t-25 -26t-17.5 -36.5t-6.5 -41.5v-241h-182v730h182v-182q0 -20 -2 -49t-7 -54h1q22 28 59.5 46t89.5 18q41 0 69 -12.5t45.5 -34t25 -50t7.5 -60.5v-352h-182z" />
    <glyph glyph-name="i" unicode="i" horiz-adv-x="276" 
d="M47 0v497h182v-497h-182zM247 640q0 -22 -8.5 -41t-23.5 -33.5t-35 -22.5t-42 -8q-23 0 -42.5 8t-34.5 22.5t-23.5 33.5t-8.5 41t8.5 41t23.5 33t34.5 22.5t42.5 8.5q22 0 42 -8.5t35 -22.5t23.5 -33t8.5 -41z" />
    <glyph glyph-name="j" unicode="j" horiz-adv-x="277" 
d="M230 -11q0 -51 -11.5 -93t-38 -72t-69.5 -46.5t-105 -16.5q-18 0 -37.5 2.5t-36.5 7.5l9 153q14 -5 29 -8t26 -3q28 0 40 14t12 41v529h182v-508v0zM247 640q0 -22 -8.5 -41t-23.5 -33.5t-35 -22.5t-42 -8q-23 0 -42.5 8t-34.5 22.5t-23.5 33.5t-8.5 41t8.5 41t23.5 33
t34.5 22.5t42.5 8.5q22 0 42 -8.5t35 -22.5t23.5 -33t8.5 -41z" />
    <glyph glyph-name="k" unicode="k" horiz-adv-x="565" 
d="M340 0l-111 230v-230h-182v730h182v-424l102 191h224l-151 -228l161 -269h-225z" />
    <glyph glyph-name="l" unicode="l" horiz-adv-x="276" 
d="M47 0v730h182v-730h-182z" />
    <glyph glyph-name="m" unicode="m" horiz-adv-x="848" 
d="M619 0v308q0 23 -6 35t-22 12q-13 0 -26.5 -9t-25 -25t-18.5 -36.5t-7 -44.5v-240h-180v308q0 23 -6 35t-22 12q-13 0 -26.5 -9t-25 -25t-18.5 -36.5t-7 -44.5v-240h-182v497h169q0 -10 -1 -28.5t-4 -38.5h1q23 37 63 58t90 21q46 0 82 -17.5t53 -61.5q21 37 60.5 58
t89.5 21q151 0 151 -170v-339h-182z" />
    <glyph glyph-name="n" unicode="n" horiz-adv-x="564" 
d="M335 0v314q0 19 -6 30t-22 11q-15 0 -29 -10t-25 -26t-17.5 -36t-6.5 -41v-242h-182v497h168q0 -10 -1 -29.5t-4 -36.5h1q23 33 62.5 55.5t96.5 22.5q41 0 69 -12.5t45.5 -34t25 -50t7.5 -60.5v-352h-182z" />
    <glyph glyph-name="o" unicode="o" horiz-adv-x="564" 
d="M352 249q0 54 -15 79t-53 25q-27 0 -49.5 -23t-22.5 -76q0 -58 15.5 -83t52.5 -25q35 0 53.5 28t18.5 75zM541 260q0 -62 -21.5 -112.5t-58 -86t-86 -54.5t-105.5 -19t-101.5 13.5t-78 42.5t-50 76t-17.5 114q0 63 21 114t57.5 87t86.5 55t107 19q123 0 184.5 -65
t61.5 -184z" />
    <glyph glyph-name="p" unicode="p" horiz-adv-x="559" 
d="M342 258q0 54 -12 77t-37 23t-44.5 -29.5t-19.5 -89.5v-102q8 -2 16 -3t19 -1q16 0 30 6t24.5 20.5t17 38.5t6.5 60zM534 278q0 -63 -16 -115.5t-49 -90.5t-84 -59.5t-121 -21.5q-22 0 -35 3v-227h-182v730h165v-26t-2 -30h2q21 33 54.5 50.5t87.5 17.5q89 0 134.5 -63
t45.5 -168z" />
    <glyph glyph-name="q" unicode="q" horiz-adv-x="559" 
d="M330 361q-6 1 -14 2t-21 1q-16 0 -30 -6t-24.5 -20.5t-17 -38.5t-6.5 -60q0 -54 12 -77t36 -23q26 0 45.5 30t19.5 93v99zM330 -233v177q0 26 1.5 54t5.5 54h-2q-18 -31 -50.5 -48t-74.5 -17q-91 0 -138 59t-47 172q0 59 17.5 112t53 92.5t88.5 63t125 23.5
q64 0 111.5 -4.5t91.5 -12.5v-725h-182z" />
    <glyph glyph-name="r" unicode="r" horiz-adv-x="356" 
d="M342 330q-55 14 -84 -13.5t-29 -108.5v-208h-182v497h168q0 -13 -1.5 -33.5t-3.5 -40.5h1q22 41 56 65t84 22z" />
    <glyph glyph-name="s" unicode="s" horiz-adv-x="405" 
d="M381 163q0 -42 -17 -74.5t-47.5 -55t-73.5 -34t-94 -11.5q-59 0 -110 14l8 146q22 -11 47.5 -16t52.5 -5q40 0 40 22q0 13 -12 21t-29.5 15.5t-38.5 17t-38.5 26t-29.5 42.5t-12 66q0 35 13.5 66.5t41.5 55t71.5 37.5t103.5 14q40 0 83 -8l-4 -140q-18 6 -39.5 9t-42.5 3
q-37 0 -37 -23q0 -11 12 -18.5t30.5 -16t39.5 -19t39.5 -27.5t30.5 -43t12 -64z" />
    <glyph glyph-name="t" unicode="t" horiz-adv-x="380" 
d="M353 4q-27 -7 -59 -11.5t-61 -4.5q-45 0 -76 7.5t-49.5 26.5t-26.5 51t-8 80v204h-63v140h63v140l182 49v-189h93v-140h-93v-167q0 -28 9.5 -39.5t32.5 -11.5t46 6l10 -141v0z" />
    <glyph glyph-name="u" unicode="u" horiz-adv-x="562" 
d="M348 0q0 10 1 29.5t4 36.5h-1q-23 -33 -62.5 -55.5t-96.5 -22.5q-41 0 -69.5 12.5t-45.5 34t-24.5 50t-7.5 60.5v352h182v-314q0 -19 6 -30t22 -11q15 0 29 10t25 26t17.5 36t6.5 41v242h182v-497h-168z" />
    <glyph glyph-name="v" unicode="v" horiz-adv-x="535" 
d="M360 0h-184l-181 497h198l40 -119q10 -30 20.5 -66t18.5 -67h2q7 30 15.5 63.5t18.5 64.5l39 124h193z" />
    <glyph glyph-name="w" unicode="w" horiz-adv-x="800" 
d="M649 0h-192l-33 116q-8 29 -15 59.5t-15 68.5h-1q-7 -36 -14.5 -65t-16.5 -60l-34 -119h-178l-150 497h197l20 -77q11 -40 22 -83t22 -95h2q8 53 17.5 92t20.5 76l24 87h163l23 -77q11 -39 23 -83t22 -95h2q8 49 17 90.5t18 77.5l22 87h185z" />
    <glyph glyph-name="x" unicode="x" horiz-adv-x="542" 
d="M320 0l-54 133l-54 -133h-215l155 253l-144 244h214l58 -131l57 131h199l-132 -245l141 -252h-225z" />
    <glyph glyph-name="y" unicode="y" horiz-adv-x="534" 
d="M350 -8q-27 -71 -56 -116t-62 -71t-71 -36t-83 -10q-19 0 -44 2.5t-42 5.5l21 154q35 -11 69 -11q10 0 22.5 2.5t25 9.5t23 19t15.5 30l8 29l-176 497h200l29 -91q10 -31 21 -73.5t19 -82.5h2q5 22 11 45.5t12 45.5t11.5 41t10.5 32l28 83h195z" />
    <glyph glyph-name="z" unicode="z" horiz-adv-x="455" 
d="M42 0v130l144 205q-5 -1 -22.5 -1.5t-47.5 -0.5h-68v164h362v-131l-138 -200q4 0 13.5 0.5t20.5 0.5h24h22h61v-167h-371z" />
    <glyph glyph-name="braceleft" unicode="{" horiz-adv-x="392" 
d="M335 -213q-57 0 -98.5 14t-68.5 45.5t-39.5 81.5t-12.5 122v77q0 34 -7 55.5t-19.5 34.5t-29.5 18t-36 6v134q19 1 36 5t29.5 16t19.5 32.5t7 54.5v42q0 72 12.5 121.5t39.5 80t68.5 44.5t98.5 14h26v-147q-22 0 -36.5 -3.5t-23 -15t-12 -34t-3.5 -60.5v-42
q0 -49 -7.5 -81t-20 -52t-29 -29t-34.5 -12v-2q18 -3 34.5 -13t29 -31t20 -54t7.5 -82v-76q0 -38 3.5 -61t12 -35t23 -16t36.5 -4v-148h-26z" />
    <glyph glyph-name="bar" unicode="|" horiz-adv-x="292" 
d="M70 -233v1000h145v-1000h-145z" />
    <glyph glyph-name="braceright" unicode="}" horiz-adv-x="392" 
d="M368 241q-20 -1 -36.5 -6t-29 -18t-19.5 -34.5t-7 -55.5v-77q0 -72 -12.5 -122t-39.5 -81.5t-68.5 -45.5t-98.5 -14h-26v148q22 0 36.5 4t23 16t12 35t3.5 61v76q0 49 7.5 82t20 54t29 31t34.5 13v2q-18 3 -34.5 12t-29 29t-20 52t-7.5 81v42q0 38 -3.5 60.5t-12 34
t-23 15t-36.5 3.5v147h26q57 0 98.5 -14t68.5 -44.5t39.5 -80t12.5 -121.5v-42q0 -34 7 -54.5t19.5 -32.5t29 -16t36.5 -5v-134v0z" />
    <glyph glyph-name="asciitilde" unicode="~" 
d="M525 568q0 -82 -47 -130.5t-128 -48.5q-44 0 -69.5 15t-41.5 33t-26.5 33t-24.5 15q-15 0 -21.5 -15t-6.5 -54h-135v30q0 82 47 130.5t128 48.5q44 0 69.5 -15t41.5 -33t26.5 -33t24.5 -15q15 0 21.5 15t6.5 54h135v-30v0z" />
    <glyph glyph-name="Zcaron" horiz-adv-x="534" 
d="M43 0v147l186 324q6 10 11 17.5t15 20.5q-15 -1 -28.5 -1h-27.5h-150v167h437v-154l-196 -322q-5 -8 -9 -14t-10 -14q21 1 38 1h182v-172h-448zM268 703l-176 83l38 90l142 -48l137 47l35 -85z" />
    <glyph glyph-name="Zcaron" unicode="&#x17d;" horiz-adv-x="534" 
d="M43 0v147l186 324q6 10 11 17.5t15 20.5q-15 -1 -28.5 -1h-27.5h-150v167h437v-154l-196 -322q-5 -8 -9 -14t-10 -14q21 1 38 1h182v-172h-448zM268 703l-176 83l38 90l142 -48l137 47l35 -85z" />
    <glyph glyph-name="zcaron" horiz-adv-x="455" 
d="M42 0v130l144 205q-5 -1 -22.5 -1.5t-47.5 -0.5h-68v164h362v-131l-138 -200q4 0 13.5 0.5t20.5 0.5h24h22h61v-167h-371zM231 544l-174 142l65 82l109 -77l109 77l65 -82z" />
    <glyph glyph-name="zcaron" unicode="&#x17e;" horiz-adv-x="455" 
d="M42 0v130l144 205q-5 -1 -22.5 -1.5t-47.5 -0.5h-68v164h362v-131l-138 -200q4 0 13.5 0.5t20.5 0.5h24h22h61v-167h-371zM231 544l-174 142l65 82l109 -77l109 77l65 -82z" />
    <glyph glyph-name="exclamdown" unicode="&#xa1;" horiz-adv-x="324" 
d="M48 -218l25 499h160l28 -499h-213zM260 411q0 -21 -8 -39.5t-22 -32t-33 -21t-41 -7.5t-41 7.5t-33 21t-22 32t-8 39.5t8 39t22 31.5t33 21.5t41 8t41 -8t33 -21.5t22 -31.5t8 -39z" />
    <glyph glyph-name="cent" unicode="&#xa2;" 
d="M481 117q-19 -9 -46 -16t-48 -9v-92h-134v92q-49 7 -84.5 27.5t-58.5 51t-34 69.5t-11 83q0 91 47 155t141 90v82h134v-77q20 -2 44.5 -7t42.5 -10l-38 -144q-17 8 -38.5 12t-44.5 4q-43 0 -70 -25.5t-27 -71.5q0 -23 8.5 -39.5t22 -28t31.5 -17t37 -5.5q46 0 83 20
l43 -144v0z" />
    <glyph glyph-name="sterling" unicode="&#xa3;" 
d="M61 0v123q32 22 45.5 51t13.5 60v10q0 6 -1 11h-80v140h63q-2 14 -3 26.5t-1 23.5q0 61 18 103t51.5 67.5t80.5 37t105 11.5q26 0 61 -4t68 -11l-37 -152q-19 6 -44.5 11.5t-54.5 5.5q-63 0 -63 -57q0 -14 1 -30t3 -32h138v-140h-122q1 -4 1 -9v-10q0 -29 -7.5 -48
t-23.5 -35q16 1 32 1.5t31 0.5h168v-155h-443z" />
    <glyph glyph-name="currency" unicode="&#xa4;" 
d="M340 334q0 42 -16 59.5t-48 17.5q-12 0 -23.5 -4.5t-21 -14.5t-15.5 -25t-6 -37q0 -36 16 -58t47 -22q12 0 24 3.5t21.5 13t15.5 26t6 41.5zM390 29l-71 96q-28 -5 -55 -5q-9 0 -18 0.5t-18 1.5l-65 -91l-145 100l62 79q-26 44 -26 113q0 68 31 118l-66 87l143 99l67 -91
q14 2 28.5 3.5t29.5 1.5q11 0 21 -0.5t20 -1.5l63 90l143 -103l-60 -78q11 -22 16.5 -48.5t5.5 -61.5q0 -34 -8.5 -63t-23.5 -54l70 -90z" />
    <glyph glyph-name="yen" unicode="&#xa5;" 
d="M411 354h97v-111h-141v-43h141v-111h-141v-89h-184v89h-141v111h141v43h-141v111h98l-140 296h201l46 -117q8 -22 16 -45.5t12 -36.5h2q5 14 13.5 37.5t16.5 42.5l47 119h196z" />
    <glyph glyph-name="brokenbar" unicode="&#xa6;" horiz-adv-x="292" 
d="M70 -233v378h145v-378h-145zM70 399v368h145v-368h-145z" />
    <glyph glyph-name="section" unicode="&#xa7;" horiz-adv-x="544" 
d="M332 240q0 19 -7.5 32.5t-21.5 27.5t-35.5 30t-48.5 39q-7 -7 -11.5 -17.5t-4.5 -22.5q0 -14 3.5 -25.5t15.5 -25t34.5 -32t59.5 -45.5q16 14 16 39zM493 264q0 -47 -22 -86.5t-53 -62.5q16 -18 26 -44t10 -61q0 -32 -14 -64t-46.5 -58t-85.5 -42.5t-132 -16.5
q-19 0 -44.5 2.5t-44.5 6.5l10 152q17 -5 38 -8t41 -3q45 0 62.5 12t17.5 26q0 17 -16 32t-40 30.5t-51.5 34.5t-51.5 45.5t-40 62t-16 84.5q0 48 21 87t53 62q-18 21 -26.5 44.5t-8.5 58.5q0 36 13 69t43 58.5t78.5 40.5t119.5 15q23 0 47 -1.5t44 -5.5l-8 -151
q-17 5 -35.5 7.5t-37.5 2.5q-37 0 -52 -8t-15 -25q0 -16 16 -30.5t40 -31.5t52 -37.5t52 -48t40 -64t16 -84.5z" />
    <glyph glyph-name="dieresis" unicode="&#xa8;" horiz-adv-x="546" 
d="M246 640q0 -38 -26.5 -64.5t-64.5 -26.5t-64.5 26.5t-26.5 64.5t26.5 64.5t64.5 26.5t64.5 -26.5t26.5 -64.5zM463 640q0 -38 -26.5 -64.5t-64.5 -26.5t-64.5 26.5t-26.5 64.5t26.5 64.5t64.5 26.5t64.5 -26.5t26.5 -64.5z" />
    <glyph glyph-name="copyright" unicode="&#xa9;" horiz-adv-x="770" 
d="M487 179q-23 -12 -48.5 -18t-57.5 -6q-34 0 -64 11.5t-52 34t-35 55t-13 74.5q0 37 11 70t33 58t55.5 39t77.5 14q28 0 49 -5t38 -13l-22 -115q-7 8 -20.5 12.5t-29.5 4.5q-22 0 -34.5 -15t-12.5 -49q0 -29 12 -41t29 -12q15 0 29.5 3t27.5 11l27 -113v0zM603 332
q0 45 -17 84.5t-47 69.5t-69.5 47t-84.5 17t-84.5 -17t-69.5 -47t-47 -69.5t-17 -84.5t17 -84.5t47 -69.5t69.5 -47t84.5 -17t84.5 17t69.5 47t47 69.5t17 84.5zM736 332q0 -73 -27.5 -137t-75 -111.5t-111.5 -75t-137 -27.5t-137 27.5t-111.5 75t-75 111.5t-27.5 137
t27.5 137t75 111.5t111.5 75t137 27.5t137 -27.5t111.5 -75t75 -111.5t27.5 -137z" />
    <glyph glyph-name="ordfeminine" unicode="&#xaa;" horiz-adv-x="425" 
d="M231 453q-35 0 -54.5 -6t-19.5 -29q0 -10 7 -17t20 -7q21 0 34 14.5t13 33.5v11zM39 124v140h345v-140h-345zM242 299q0 9 0.5 20.5t2.5 22.5h-1q-13 -26 -41 -40.5t-60 -14.5q-61 0 -88.5 32t-27.5 80q0 40 18 67.5t46.5 43.5t65 22.5t74.5 6.5v11q0 11 -8.5 19t-40.5 8
t-60 -7t-56 -20l-14 114q31 11 69 17.5t84 6.5q48 0 80 -10t50.5 -27.5t26.5 -40t8 -46.5v-183v-34q0 -22 2 -48h-130z" />
    <glyph glyph-name="guillemotleft" unicode="&#xab;" horiz-adv-x="570" 
d="M124 76l-100 215l103 217l144 -59l-75 -158l78 -155zM390 84l-112 207l115 209l139 -61l-82 -148l85 -145z" />
    <glyph glyph-name="logicalnot" unicode="&#xac;" 
d="M337 84v138h-302v152h465v-290h-163z" />
    <glyph glyph-name="registered" unicode="&#xae;" horiz-adv-x="566" 
d="M296 567q0 17 -21 17h-8v-35h7q9 0 15.5 4.5t6.5 13.5zM294 426l-16 70h-11v-70h-77v215h112q42 0 61.5 -18t19.5 -47q0 -23 -8.5 -37t-22.5 -22q6 -6 11 -22l21 -69h-90zM434 533q0 31 -12 58.5t-32.5 48t-48 32.5t-58.5 12t-58.5 -12t-48 -32.5t-32.5 -48t-12 -58.5
t12 -58.5t32.5 -48t48 -32.5t58.5 -12t58.5 12t48 32.5t32.5 48t12 58.5zM537 533q0 -53 -20 -98t-54.5 -78.5t-81 -52.5t-98.5 -19q-53 0 -99 19t-80.5 52.5t-54.5 78.5t-20 98q0 52 20 97.5t54.5 79t80.5 52.5t99 19q52 0 98.5 -19t81 -52.5t54.5 -79t20 -97.5z" />
    <glyph glyph-name="macron" unicode="&#xaf;" horiz-adv-x="395" 
d="M50 575v130h295v-130h-295z" />
    <glyph glyph-name="macron" unicode="&#x2c9;" horiz-adv-x="395" 
d="M50 575v130h295v-130h-295z" />
    <glyph glyph-name="degree" unicode="&#xb0;" horiz-adv-x="405" 
d="M240 594q0 17 -11 30.5t-28 13.5q-20 0 -32.5 -13t-12.5 -34q0 -23 11.5 -35t31.5 -12t30.5 14.5t10.5 35.5zM370 593q0 -41 -15 -71t-40 -50t-57 -30t-66 -10q-78 0 -122 41.5t-44 116.5q0 38 15.5 67.5t40.5 49.5t56 30.5t63 10.5q46 0 78 -12.5t52.5 -33.5t29.5 -49.5
t9 -59.5z" />
    <glyph glyph-name="plusminus" unicode="&#xb1;" 
d="M41 0v152h468v-152h-468zM362 362v-164h-174v164h-153v150h153v163h174v-163h153v-150h-153z" />
    <glyph glyph-name="twosuperior" unicode="&#xb2;" horiz-adv-x="330" 
d="M37 350v98l35 25q33 24 45 39t12 24q0 17 -21 17q-25 0 -54 -13l-15 104q24 7 54.5 12.5t59.5 5.5q38 0 64 -8t41.5 -21.5t22.5 -31t7 -37.5q0 -24 -15.5 -47.5t-53.5 -52.5l-12 -9h86v-105h-256z" />
    <glyph glyph-name="threesuperior" unicode="&#xb3;" horiz-adv-x="320" 
d="M290 442q0 -48 -40.5 -76t-128.5 -28q-22 0 -49 3.5t-38 5.5l11 82q8 -3 21.5 -5t27.5 -2q22 0 31 6t9 15q0 5 -3 10t-12 8.5t-25 3.5t-43 -4v74h4q46 0 60 7.5t14 19.5q0 8 -5.5 12t-20.5 4q-13 0 -28.5 -3t-26.5 -10l-12 81q17 5 47 10.5t62 5.5q38 0 63.5 -7t41 -19
t22 -27t6.5 -31q0 -24 -10 -43.5t-35 -30.5q26 -2 41.5 -22t15.5 -40z" />
    <glyph glyph-name="acute" unicode="&#xb4;" horiz-adv-x="400" 
d="M157 544l-60 100l212 124l74 -123z" />
    <glyph glyph-name="mu" unicode="&#xb5;" horiz-adv-x="577" 
d="M565 -3q-17 -4 -35 -6.5t-35 -2.5q-38 0 -62.5 7t-39 17.5t-21.5 23.5t-10 26h-1q-16 -31 -43.5 -50t-69.5 -19q-20 0 -36 8l21 -234h-186v730h182v-314q0 -41 28 -41q34 0 56 31.5t22 85.5v238h182v-307q0 -30 9 -40.5t39 -10.5v-142v0z" />
    <glyph glyph-name="paragraph" unicode="&#xb6;" horiz-adv-x="622" 
d="M298 206q-69 0 -118.5 19t-81 51t-46 74.5t-14.5 89.5q0 57 19.5 100.5t54 73.5t82 45.5t104.5 15.5v-469v0zM528 527v-623h-214v148h65v623h206v-148h-57z" />
    <glyph glyph-name="periodcentered" unicode="&#xb7;" horiz-adv-x="320" 
d="M270 298q0 -23 -9 -43t-24 -35t-35 -23.5t-42 -8.5q-23 0 -43 8.5t-35 23.5t-23.5 35t-8.5 43q0 22 8.5 42t23.5 35t35 24t43 9q22 0 42 -9t35 -24t24 -35t9 -42z" />
    <glyph glyph-name="periodcentered" unicode="&#x2219;" horiz-adv-x="320" 
d="M270 298q0 -23 -9 -43t-24 -35t-35 -23.5t-42 -8.5q-23 0 -43 8.5t-35 23.5t-23.5 35t-8.5 43q0 22 8.5 42t23.5 35t35 24t43 9q22 0 42 -9t35 -24t24 -35t9 -42z" />
    <glyph glyph-name="cedilla" unicode="&#xb8;" horiz-adv-x="400" 
d="M252 -39q40 -58 32 -108t-50 -86h-130q32 36 35 72t-33 84l146 38v0z" />
    <glyph glyph-name="onesuperior" unicode="&#xb9;" horiz-adv-x="330" 
d="M114 350v193l-59 -22l-22 99l90 30h135v-300h-144z" />
    <glyph glyph-name="ordmasculine" unicode="&#xba;" horiz-adv-x="435" 
d="M270 488q0 41 -12 59.5t-41 18.5q-20 0 -36.5 -17t-16.5 -61q0 -35 12.5 -56.5t38.5 -21.5q10 0 20 3.5t17.5 12.5t12.5 24t5 38zM39 124v140h357v-140h-357zM410 492q0 -47 -15.5 -84.5t-43 -64t-64.5 -41t-80 -14.5q-36 0 -69 10t-58 33.5t-40 60.5t-15 91
q0 50 16 88.5t44 64.5t64 39.5t77 13.5q91 0 137.5 -48.5t46.5 -148.5z" />
    <glyph glyph-name="guillemotright" unicode="&#xbb;" horiz-adv-x="570" 
d="M177 84l-139 61l82 148l-85 145l145 62l112 -207zM443 76l-144 59l75 158l-78 155l150 60l100 -215z" />
    <glyph glyph-name="onequarter" unicode="&#xbc;" horiz-adv-x="750" 
d="M114 350v193l-59 -22l-22 99l90 30h135v-300h-144zM165 -25l-112 82l507 616l112 -82zM675 39v-39h-123v39h-137l-9 88l88 173h181v-167h37v-94h-37zM553 224l-47 -92h47v92z" />
    <glyph glyph-name="onehalf" unicode="&#xbd;" horiz-adv-x="750" 
d="M113 350v193l-59 -22l-22 99l90 30h135v-300h-144zM164 -25l-112 82l507 616l112 -82zM453 0v98l35 25q33 24 45 39t12 24q0 17 -21 17q-25 0 -54 -13l-15 104q24 7 54.5 12.5t59.5 5.5q38 0 64 -8t41.5 -21.5t22.5 -31t7 -37.5q0 -24 -15.5 -47.5t-53.5 -52.5l-12 -9h86
v-105h-256z" />
    <glyph glyph-name="threequarters" unicode="&#xbe;" horiz-adv-x="760" 
d="M298 442q0 -48 -40.5 -76t-128.5 -28q-22 0 -49 3.5t-38 5.5l11 82q8 -3 21.5 -5t27.5 -2q22 0 31 6t9 15q0 5 -3 10t-12 8.5t-25 3.5t-43 -4v74h4q46 0 60 7.5t14 19.5q0 8 -5.5 12t-20.5 4q-13 0 -28.5 -3t-26.5 -10l-12 81q17 5 47 10.5t62 5.5q38 0 63.5 -7t41 -19
t22 -27t6.5 -31q0 -24 -10 -43.5t-35 -30.5q26 -2 41.5 -22t15.5 -40zM175 -25l-112 82l507 616l112 -82zM685 39v-39h-123v39h-137l-9 88l88 173h181v-167h37v-94h-37zM563 224l-47 -92h47v92z" />
    <glyph glyph-name="questiondown" unicode="&#xbf;" horiz-adv-x="459" 
d="M394 -230q-101 1 -170.5 20.5t-113 50t-63 69.5t-19.5 80q0 43 13.5 72t33.5 51t42 39.5t39 35.5t24 40t-2 53h178q16 -44 13 -76t-17.5 -56t-35.5 -42t-41 -33.5t-34 -31t-14 -33.5q0 -38 48.5 -55t140.5 -19zM368 411q0 -21 -8 -39.5t-22 -32t-33 -21t-41 -7.5t-41 7.5
t-33 21t-22 32t-8 39.5t8 39t22 31.5t33 21.5t41 8t41 -8t33 -21.5t22 -31.5t8 -39z" />
    <glyph glyph-name="Agrave" unicode="&#xc0;" horiz-adv-x="641" 
d="M334 380q-7 23 -13 47t-11 48h-2q-9 -46 -23 -96l-36 -123h122zM450 0l-34 110h-210l-33 -110h-184l215 675h223l226 -675h-203zM389 703l-253 49l35 123l244 -76z" />
    <glyph glyph-name="Aacute" unicode="&#xc1;" horiz-adv-x="641" 
d="M334 380q-7 23 -13 47t-11 48h-2q-9 -46 -23 -96l-36 -123h122zM450 0l-34 110h-210l-33 -110h-184l215 675h223l226 -675h-203zM240 703l-26 96l244 76l35 -123z" />
    <glyph glyph-name="Acircumflex" unicode="&#xc2;" horiz-adv-x="641" 
d="M334 380q-7 23 -13 47t-11 48h-2q-9 -46 -23 -96l-36 -123h122zM450 0l-34 110h-210l-33 -110h-184l215 675h223l226 -675h-203zM453 703l-142 48l-137 -47l-35 85l176 87l176 -83z" />
    <glyph glyph-name="Atilde" unicode="&#xc3;" horiz-adv-x="641" 
d="M334 380q-7 23 -13 47t-11 48h-2q-9 -46 -23 -96l-36 -123h122zM450 0l-34 110h-210l-33 -110h-184l215 675h223l226 -675h-203zM520 812q-54 -95 -145 -95q-26 0 -43.5 6t-30.5 13.5t-23.5 14t-23.5 6.5q-18 0 -29 -9.5t-22 -29.5l-88 58q54 95 145 95q26 0 43.5 -6.5
t30.5 -14t23.5 -13.5t23.5 -6q18 0 29 9.5t22 29.5l88 -58v0z" />
    <glyph glyph-name="Adieresis" unicode="&#xc4;" horiz-adv-x="641" 
d="M334 380q-7 23 -13 47t-11 48h-2q-9 -46 -23 -96l-36 -123h122zM450 0l-34 110h-210l-33 -110h-184l215 675h223l226 -675h-203zM293 791q0 -36 -25.5 -61t-61.5 -25t-61.5 25t-25.5 61t25.5 61.5t61.5 25.5t61.5 -25.5t25.5 -61.5zM511 791q0 -36 -25.5 -61t-61.5 -25
t-61.5 25t-25.5 61t25.5 61.5t61.5 25.5t61.5 -25.5t25.5 -61.5z" />
    <glyph glyph-name="Aring" unicode="&#xc5;" horiz-adv-x="641" 
d="M364 835q0 17 -13.5 30t-30.5 13t-30 -13t-13 -30t13 -30t30 -13t30.5 13t13.5 30zM453 835q0 -27 -10.5 -50t-28.5 -39.5t-42.5 -26t-51.5 -9.5t-51 9.5t-42 26t-28.5 39.5t-10.5 50t10.5 50t28.5 39.5t42 26t51 9.5t51.5 -9.5t42.5 -26t28.5 -39.5t10.5 -50zM334 380
q-7 23 -13 47t-11 48h-2q-9 -46 -23 -96l-36 -123h122zM450 0l-34 110h-210l-33 -110h-184l215 675h223l226 -675h-203z" />
    <glyph glyph-name="AE" unicode="&#xc6;" horiz-adv-x="792" 
d="M366 519h-1q-16 -43 -29.5 -78.5t-27.5 -68.5l-41 -99h99v246zM366 0v129h-158l-52 -129h-188l299 675h484v-158h-207v-95h200v-152h-200v-109h211v-161h-389z" />
    <glyph glyph-name="Ccedilla" unicode="&#xc7;" horiz-adv-x="541" 
d="M370 -39q40 -58 32 -108t-50 -86h-130q32 36 35 72t-33 84l146 38v0zM507 16q-35 -13 -77 -19t-83 -6q-99 0 -161.5 30.5t-98 78t-48 103.5t-12.5 107q0 84 23.5 152.5t68 117t109 74.5t147.5 26q33 0 67 -4.5t63 -13.5l-23 -170q-48 19 -107 19q-66 0 -104.5 -44
t-38.5 -126q0 -88 35.5 -134t114.5 -46q22 0 50.5 5t49.5 16l25 -166v0z" />
    <glyph glyph-name="Egrave" unicode="&#xc8;" horiz-adv-x="480" 
d="M48 0v675h395v-158h-209v-95h198v-152h-198v-109h209v-161h-395zM315 703l-253 49l35 123l244 -76z" />
    <glyph glyph-name="Eacute" unicode="&#xc9;" horiz-adv-x="480" 
d="M48 0v675h395v-158h-209v-95h198v-152h-198v-109h209v-161h-395zM168 703l-26 96l244 76l35 -123z" />
    <glyph glyph-name="Ecircumflex" unicode="&#xca;" horiz-adv-x="480" 
d="M48 0v675h395v-158h-209v-95h198v-152h-198v-109h209v-161h-395zM383 703l-142 48l-137 -47l-35 85l176 87l176 -83z" />
    <glyph glyph-name="Edieresis" unicode="&#xcb;" horiz-adv-x="480" 
d="M48 0v675h395v-158h-209v-95h198v-152h-198v-109h209v-161h-395zM223 791q0 -36 -25.5 -61t-61.5 -25t-61.5 25t-25.5 61t25.5 61.5t61.5 25.5t61.5 -25.5t25.5 -61.5zM441 791q0 -36 -25.5 -61t-61.5 -25t-61.5 25t-25.5 61t25.5 61.5t61.5 25.5t61.5 -25.5t25.5 -61.5z
" />
    <glyph glyph-name="Igrave" unicode="&#xcc;" horiz-adv-x="282" 
d="M48 0v675h186v-675h-186zM216 703l-253 49l35 123l244 -76z" />
    <glyph glyph-name="Iacute" unicode="&#xcd;" horiz-adv-x="282" 
d="M48 0v675h186v-675h-186zM68 703l-26 96l244 76l35 -123z" />
    <glyph glyph-name="Icircumflex" unicode="&#xce;" horiz-adv-x="282" 
d="M48 0v675h186v-675h-186zM281 703l-142 48l-137 -47l-35 85l176 87l176 -83z" />
    <glyph glyph-name="Idieresis" unicode="&#xcf;" horiz-adv-x="282" 
d="M48 0v675h186v-675h-186zM118 791q0 -36 -25.5 -61t-61.5 -25t-61.5 25t-25.5 61t25.5 61.5t61.5 25.5t61.5 -25.5t25.5 -61.5zM336 791q0 -36 -25.5 -61t-61.5 -25t-61.5 25t-25.5 61t25.5 61.5t61.5 25.5t61.5 -25.5t25.5 -61.5z" />
    <glyph glyph-name="Eth" unicode="&#xd0;" horiz-adv-x="661" 
d="M636 354q0 -83 -24.5 -149t-71 -112.5t-114.5 -72t-154 -25.5q-54 0 -108.5 1.5t-105.5 4.5v267h-52v140h52v265q40 2 104.5 4t138.5 2t135.5 -16.5t106 -54.5t69 -100t24.5 -154zM435 339q0 40 -5 73.5t-20.5 58t-44.5 38t-76 13.5h-27t-21 -2v-112h91v-140h-91v-109
q7 -2 17 -2.5t27 -0.5q32 0 59.5 11t47.5 33.5t31.5 57t11.5 81.5z" />
    <glyph glyph-name="Ntilde" unicode="&#xd1;" horiz-adv-x="686" 
d="M395 0l-131 284q-21 49 -29 73t-17 56q3 -30 4 -52t3 -185v-176h-177v675h179h65l126 -272q18 -42 27.5 -66t22.5 -68q-4 50 -5 98.5t-2 139.5v168h177v-675h-179h-64zM548 812q-54 -95 -145 -95q-26 0 -43.5 6t-30.5 13.5t-23.5 14t-23.5 6.5q-18 0 -29 -9.5t-22 -29.5
l-88 58q54 95 145 95q26 0 43.5 -6.5t30.5 -14t23.5 -13.5t23.5 -6q18 0 29 9.5t22 29.5l88 -58v0z" />
    <glyph glyph-name="Ograve" unicode="&#xd2;" horiz-adv-x="701" 
d="M482 340q0 179 -132 179q-24 0 -47.5 -10t-42 -31t-30 -54.5t-11.5 -81.5q0 -87 29.5 -136t97.5 -49q22 0 46 8.5t44 29.5t33 56t13 89zM680 349q0 -83 -26.5 -150t-73 -114t-109 -73t-134.5 -26q-80 0 -139 23.5t-98.5 67.5t-59 107.5t-19.5 143.5q0 82 27 148.5
t73.5 113.5t109 73t133.5 26q66 0 123.5 -18.5t100.5 -59.5t67.5 -105.5t24.5 -156.5zM429 703l-253 49l35 123l244 -76z" />
    <glyph glyph-name="Oacute" unicode="&#xd3;" horiz-adv-x="701" 
d="M482 340q0 179 -132 179q-24 0 -47.5 -10t-42 -31t-30 -54.5t-11.5 -81.5q0 -87 29.5 -136t97.5 -49q22 0 46 8.5t44 29.5t33 56t13 89zM680 349q0 -83 -26.5 -150t-73 -114t-109 -73t-134.5 -26q-80 0 -139 23.5t-98.5 67.5t-59 107.5t-19.5 143.5q0 82 27 148.5
t73.5 113.5t109 73t133.5 26q66 0 123.5 -18.5t100.5 -59.5t67.5 -105.5t24.5 -156.5zM286 703l-26 96l244 76l35 -123z" />
    <glyph glyph-name="Ocircumflex" unicode="&#xd4;" horiz-adv-x="701" 
d="M482 340q0 179 -132 179q-24 0 -47.5 -10t-42 -31t-30 -54.5t-11.5 -81.5q0 -87 29.5 -136t97.5 -49q22 0 46 8.5t44 29.5t33 56t13 89zM680 349q0 -83 -26.5 -150t-73 -114t-109 -73t-134.5 -26q-80 0 -139 23.5t-98.5 67.5t-59 107.5t-19.5 143.5q0 82 27 148.5
t73.5 113.5t109 73t133.5 26q66 0 123.5 -18.5t100.5 -59.5t67.5 -105.5t24.5 -156.5zM499 703l-142 48l-137 -47l-35 85l176 87l176 -83z" />
    <glyph glyph-name="Otilde" unicode="&#xd5;" horiz-adv-x="701" 
d="M482 340q0 179 -132 179q-24 0 -47.5 -10t-42 -31t-30 -54.5t-11.5 -81.5q0 -87 29.5 -136t97.5 -49q22 0 46 8.5t44 29.5t33 56t13 89zM680 349q0 -83 -26.5 -150t-73 -114t-109 -73t-134.5 -26q-80 0 -139 23.5t-98.5 67.5t-59 107.5t-19.5 143.5q0 82 27 148.5
t73.5 113.5t109 73t133.5 26q66 0 123.5 -18.5t100.5 -59.5t67.5 -105.5t24.5 -156.5zM557 812q-54 -95 -145 -95q-26 0 -43.5 6t-30.5 13.5t-23.5 14t-23.5 6.5q-18 0 -29 -9.5t-22 -29.5l-88 58q54 95 145 95q26 0 43.5 -6.5t30.5 -14t23.5 -13.5t23.5 -6q18 0 29 9.5
t22 29.5l88 -58v0z" />
    <glyph glyph-name="Odieresis" unicode="&#xd6;" horiz-adv-x="701" 
d="M482 340q0 179 -132 179q-24 0 -47.5 -10t-42 -31t-30 -54.5t-11.5 -81.5q0 -87 29.5 -136t97.5 -49q22 0 46 8.5t44 29.5t33 56t13 89zM680 349q0 -83 -26.5 -150t-73 -114t-109 -73t-134.5 -26q-80 0 -139 23.5t-98.5 67.5t-59 107.5t-19.5 143.5q0 82 27 148.5
t73.5 113.5t109 73t133.5 26q66 0 123.5 -18.5t100.5 -59.5t67.5 -105.5t24.5 -156.5zM336 791q0 -36 -25.5 -61t-61.5 -25t-61.5 25t-25.5 61t25.5 61.5t61.5 25.5t61.5 -25.5t25.5 -61.5zM554 791q0 -36 -25.5 -61t-61.5 -25t-61.5 25t-25.5 61t25.5 61.5t61.5 25.5
t61.5 -25.5t25.5 -61.5z" />
    <glyph glyph-name="multiply" unicode="&#xd7;" 
d="M403 57l-135 135l-134 -135l-99 99l134 135l-134 134l112 112l134 -134l135 134l99 -99l-135 -134l135 -135z" />
    <glyph glyph-name="Oslash" unicode="&#xd8;" horiz-adv-x="701" 
d="M364 525q-3 0 -6 0.5t-7 0.5q-25 0 -50.5 -10t-45.5 -32.5t-31.5 -57t-12.5 -84.5q2 -56 14 -97l139 280v0zM490 340q-1 61 -17 102l-143 -291q4 0 7.5 -0.5t8.5 -0.5q23 0 48 8.5t47 30.5t35 59t14 92zM680 349q-1 -82 -26 -149.5t-71.5 -114.5t-109 -73t-134.5 -26
q-23 0 -44 2t-43 6l-48 -97l-126 58l48 96q-52 44 -78.5 113.5t-26.5 163.5q0 82 27.5 148.5t74.5 114t109.5 73t131.5 25.5q22 0 41 -2t35 -5l50 100l127 -57l-48 -97q54 -40 81.5 -108t29.5 -171z" />
    <glyph glyph-name="Ugrave" unicode="&#xd9;" horiz-adv-x="664" 
d="M616 268q0 -74 -20.5 -127t-58.5 -87.5t-92.5 -51t-122.5 -16.5q-81 0 -134 20t-84 55t-43.5 82t-12.5 101v431h186v-422q0 -54 20.5 -82.5t78.5 -28.5q56 0 77.5 26.5t21.5 89.5v417h184v-407v0zM375 703l-253 49l35 123l244 -76z" />
    <glyph glyph-name="Uacute" unicode="&#xda;" horiz-adv-x="664" 
d="M616 268q0 -74 -20.5 -127t-58.5 -87.5t-92.5 -51t-122.5 -16.5q-81 0 -134 20t-84 55t-43.5 82t-12.5 101v431h186v-422q0 -54 20.5 -82.5t78.5 -28.5q56 0 77.5 26.5t21.5 89.5v417h184v-407v0zM311 703l-26 96l244 76l35 -123z" />
    <glyph glyph-name="Ucircumflex" unicode="&#xdb;" horiz-adv-x="664" 
d="M616 268q0 -74 -20.5 -127t-58.5 -87.5t-92.5 -51t-122.5 -16.5q-81 0 -134 20t-84 55t-43.5 82t-12.5 101v431h186v-422q0 -54 20.5 -82.5t78.5 -28.5q56 0 77.5 26.5t21.5 89.5v417h184v-407v0zM472 703l-142 48l-137 -47l-35 85l176 87l176 -83z" />
    <glyph glyph-name="Udieresis" unicode="&#xdc;" horiz-adv-x="664" 
d="M616 268q0 -74 -20.5 -127t-58.5 -87.5t-92.5 -51t-122.5 -16.5q-81 0 -134 20t-84 55t-43.5 82t-12.5 101v431h186v-422q0 -54 20.5 -82.5t78.5 -28.5q56 0 77.5 26.5t21.5 89.5v417h184v-407v0zM310 791q0 -36 -25.5 -61t-61.5 -25t-61.5 25t-25.5 61t25.5 61.5
t61.5 25.5t61.5 -25.5t25.5 -61.5zM528 791q0 -36 -25.5 -61t-61.5 -25t-61.5 25t-25.5 61t25.5 61.5t61.5 25.5t61.5 -25.5t25.5 -61.5z" />
    <glyph glyph-name="Yacute" unicode="&#xdd;" horiz-adv-x="597" 
d="M390 233v-233h-186v232l-211 443h202l63 -146q13 -29 22.5 -54.5t17.5 -48.5h2q9 27 22 56.5t27 61.5l58 131h197zM265 703l-26 96l244 76l35 -123z" />
    <glyph glyph-name="Thorn" unicode="&#xde;" horiz-adv-x="564" 
d="M361 353q0 36 -21 63t-70 27q-10 0 -18 -0.5t-18 -1.5v-179q19 -3 41 -3q16 0 31.5 5.5t27.5 17t19.5 29t7.5 42.5zM553 362q0 -52 -19 -98t-55 -80.5t-89 -55t-121 -20.5h-19q-8 0 -16 1v-109h-186v675h186v-83q11 1 24.5 1.5t33.5 0.5q120 0 190.5 -57.5t70.5 -174.5z
" />
    <glyph glyph-name="germandbls" unicode="&#xdf;" horiz-adv-x="629" 
d="M611 168q0 -43 -17 -76.5t-46 -57t-69 -36t-86 -12.5q-38 0 -68 5.5t-49 13.5l8 144q20 -11 43.5 -18t47.5 -7q27 0 36.5 8.5t9.5 19.5q0 15 -11 25.5t-28 21t-36.5 23t-36.5 31t-28 44t-11 63.5q0 43 13 69.5t28 47t28 39.5t13 46q0 37 -47 37q-35 0 -55.5 -27
t-20.5 -79v-493h-182v486q0 68 21.5 116t57.5 78.5t83.5 44.5t99.5 14q50 0 93 -10.5t74.5 -31.5t49.5 -52t18 -73q0 -45 -14 -71t-30.5 -44t-30 -33.5t-13.5 -39.5q0 -15 11.5 -26t28.5 -22.5t37.5 -25t37.5 -33t28.5 -46t11.5 -63.5z" />
    <glyph glyph-name="agrave" unicode="&#xe0;" horiz-adv-x="529" 
d="M296 207q-60 0 -80 -12.5t-20 -35.5q0 -14 9.5 -24t27.5 -10q28 0 45.5 19.5t17.5 45.5v17zM314 0q0 14 0.5 30t3.5 33h-1q-18 -35 -57 -55t-87 -20q-38 0 -65.5 12.5t-46 33.5t-27.5 48.5t-9 58.5q0 50 21 84.5t58 55.5t86.5 30t105.5 9v13q0 21 -17.5 30t-61.5 9
q-32 0 -68 -8.5t-66 -22.5l-29 141q40 13 92.5 21t102.5 8q67 0 111.5 -11.5t71 -34t37.5 -55.5t11 -76v-228q0 -23 0.5 -50.5t3.5 -55.5h-170zM299 544l-226 101l74 123l212 -123z" />
    <glyph glyph-name="aacute" unicode="&#xe1;" horiz-adv-x="529" 
d="M296 207q-60 0 -80 -12.5t-20 -35.5q0 -14 9.5 -24t27.5 -10q28 0 45.5 19.5t17.5 45.5v17zM314 0q0 14 0.5 30t3.5 33h-1q-18 -35 -57 -55t-87 -20q-38 0 -65.5 12.5t-46 33.5t-27.5 48.5t-9 58.5q0 50 21 84.5t58 55.5t86.5 30t105.5 9v13q0 21 -17.5 30t-61.5 9
q-32 0 -68 -8.5t-66 -22.5l-29 141q40 13 92.5 21t102.5 8q67 0 111.5 -11.5t71 -34t37.5 -55.5t11 -76v-228q0 -23 0.5 -50.5t3.5 -55.5h-170zM228 544l-60 100l212 124l74 -123z" />
    <glyph glyph-name="acircumflex" unicode="&#xe2;" horiz-adv-x="529" 
d="M296 207q-60 0 -80 -12.5t-20 -35.5q0 -14 9.5 -24t27.5 -10q28 0 45.5 19.5t17.5 45.5v17zM314 0q0 14 0.5 30t3.5 33h-1q-18 -35 -57 -55t-87 -20q-38 0 -65.5 12.5t-46 33.5t-27.5 48.5t-9 58.5q0 50 21 84.5t58 55.5t86.5 30t105.5 9v13q0 21 -17.5 30t-61.5 9
q-32 0 -68 -8.5t-66 -22.5l-29 141q40 13 92.5 21t102.5 8q67 0 111.5 -11.5t71 -34t37.5 -55.5t11 -76v-228q0 -23 0.5 -50.5t3.5 -55.5h-170zM385 544l-109 77l-109 -77l-65 82l174 142l174 -142z" />
    <glyph glyph-name="atilde" unicode="&#xe3;" horiz-adv-x="529" 
d="M296 207q-60 0 -80 -12.5t-20 -35.5q0 -14 9.5 -24t27.5 -10q28 0 45.5 19.5t17.5 45.5v17zM314 0q0 14 0.5 30t3.5 33h-1q-18 -35 -57 -55t-87 -20q-38 0 -65.5 12.5t-46 33.5t-27.5 48.5t-9 58.5q0 50 21 84.5t58 55.5t86.5 30t105.5 9v13q0 21 -17.5 30t-61.5 9
q-32 0 -68 -8.5t-66 -22.5l-29 141q40 13 92.5 21t102.5 8q67 0 111.5 -11.5t71 -34t37.5 -55.5t11 -76v-228q0 -23 0.5 -50.5t3.5 -55.5h-170zM470 660q-25 -52 -59.5 -79t-79.5 -27q-26 0 -42.5 7t-29 15.5t-23 15.5t-22.5 7q-17 0 -27.5 -11t-21.5 -32l-84 64
q25 52 59.5 79t79.5 27q25 0 42 -7t29.5 -15.5t23 -15.5t22.5 -7q17 0 27.5 11t21.5 32l84 -64v0z" />
    <glyph glyph-name="adieresis" unicode="&#xe4;" horiz-adv-x="529" 
d="M296 207q-60 0 -80 -12.5t-20 -35.5q0 -14 9.5 -24t27.5 -10q28 0 45.5 19.5t17.5 45.5v17zM314 0q0 14 0.5 30t3.5 33h-1q-18 -35 -57 -55t-87 -20q-38 0 -65.5 12.5t-46 33.5t-27.5 48.5t-9 58.5q0 50 21 84.5t58 55.5t86.5 30t105.5 9v13q0 21 -17.5 30t-61.5 9
q-32 0 -68 -8.5t-66 -22.5l-29 141q40 13 92.5 21t102.5 8q67 0 111.5 -11.5t71 -34t37.5 -55.5t11 -76v-228q0 -23 0.5 -50.5t3.5 -55.5h-170zM258 640q0 -38 -26.5 -64.5t-64.5 -26.5t-64.5 26.5t-26.5 64.5t26.5 64.5t64.5 26.5t64.5 -26.5t26.5 -64.5zM475 640
q0 -38 -26.5 -64.5t-64.5 -26.5t-64.5 26.5t-26.5 64.5t26.5 64.5t64.5 26.5t64.5 -26.5t26.5 -64.5z" />
    <glyph glyph-name="aring" unicode="&#xe5;" horiz-adv-x="529" 
d="M296 207q-60 0 -80 -12.5t-20 -35.5q0 -14 9.5 -24t27.5 -10q28 0 45.5 19.5t17.5 45.5v17zM314 0q0 14 0.5 30t3.5 33h-1q-18 -35 -57 -55t-87 -20q-38 0 -65.5 12.5t-46 33.5t-27.5 48.5t-9 58.5q0 50 21 84.5t58 55.5t86.5 30t105.5 9v13q0 21 -17.5 30t-61.5 9
q-32 0 -68 -8.5t-66 -22.5l-29 141q40 13 92.5 21t102.5 8q67 0 111.5 -11.5t71 -34t37.5 -55.5t11 -76v-228q0 -23 0.5 -50.5t3.5 -55.5h-170zM323 675q0 20 -14 34t-34 14t-34 -14t-14 -34t14 -34t34 -14t34 14t14 34zM422 675q0 -30 -11.5 -55.5t-31.5 -44t-47 -29
t-57 -10.5t-57 10.5t-47 29t-31.5 44t-11.5 55.5t11.5 55.5t31.5 44t47 29t57 10.5t57 -10.5t47 -29t31.5 -44t11.5 -55.5z" />
    <glyph glyph-name="ae" unicode="&#xe6;" horiz-adv-x="791" 
d="M296 207q-60 0 -80 -12.5t-20 -35.5q0 -14 9.5 -24t27.5 -10q28 0 45.5 19.5t17.5 45.5v17zM586 309q2 36 -12.5 52.5t-38.5 16.5q-26 0 -42.5 -19t-18.5 -50h112v0zM763 269q0 -38 -6 -78h-282q2 -26 27.5 -44.5t79.5 -18.5q35 0 72 7t75 24l16 -136
q-45 -18 -95.5 -26.5t-96.5 -8.5q-74 0 -126.5 21t-75.5 63h-1q-25 -41 -67.5 -62.5t-106.5 -21.5q-39 0 -67 12.5t-47 33.5t-28 48.5t-9 58.5q0 50 21 84.5t58 55.5t86.5 30t105.5 9v13q0 21 -17.5 30t-61.5 9q-32 0 -68 -8.5t-66 -22.5l-29 141q40 13 92.5 21t102.5 8
q43 0 84.5 -7t74.5 -33h1q23 18 57 28.5t73 10.5q58 0 100 -18.5t69.5 -50.5t41 -76t13.5 -96z" />
    <glyph glyph-name="ccedilla" unicode="&#xe7;" horiz-adv-x="409" 
d="M384 7q-26 -10 -60 -14.5t-66 -4.5q-62 0 -106.5 17.5t-73 49.5t-41.5 77t-13 101q0 55 15.5 105t48.5 88t84 60.5t122 22.5q21 0 44.5 -3t45.5 -10l-25 -158q-34 14 -64 14q-42 0 -61 -28t-19 -79q0 -50 21.5 -74t58.5 -24q17 0 35 3t34 11l20 -154v0zM283 -39
q40 -58 32 -108t-50 -86h-130q32 36 35 72t-33 84l146 38v0z" />
    <glyph glyph-name="egrave" unicode="&#xe8;" horiz-adv-x="524" 
d="M319 308q2 36 -12.5 52.5t-38.5 16.5q-26 0 -42.5 -19t-18.5 -50h112v0zM496 288q-1 -57 -7 -98h-281q1 -27 26 -44.5t81 -18.5q39 1 74 8t73 22l16 -134q-50 -18 -98 -26.5t-94 -8.5q-127 0 -194 61t-68 193q0 58 18 107t51.5 85t82 56t100.5 19q55 1 101 -17.5
t72.5 -51.5t37.5 -76t9 -76zM300 544l-226 101l74 123l212 -123z" />
    <glyph glyph-name="eacute" unicode="&#xe9;" horiz-adv-x="524" 
d="M319 308q2 36 -12.5 52.5t-38.5 16.5q-26 0 -42.5 -19t-18.5 -50h112v0zM496 288q-1 -57 -7 -98h-281q1 -27 26 -44.5t81 -18.5q39 1 74 8t73 22l16 -134q-50 -18 -98 -26.5t-94 -8.5q-127 0 -194 61t-68 193q0 58 18 107t51.5 85t82 56t100.5 19q55 1 101 -17.5
t72.5 -51.5t37.5 -76t9 -76zM226 544l-60 100l212 124l74 -123z" />
    <glyph glyph-name="ecircumflex" unicode="&#xea;" horiz-adv-x="524" 
d="M319 308q2 36 -12.5 52.5t-38.5 16.5q-26 0 -42.5 -19t-18.5 -50h112v0zM496 288q-1 -57 -7 -98h-281q1 -27 26 -44.5t81 -18.5q39 1 74 8t73 22l16 -134q-50 -18 -98 -26.5t-94 -8.5q-127 0 -194 61t-68 193q0 58 18 107t51.5 85t82 56t100.5 19q55 1 101 -17.5
t72.5 -51.5t37.5 -76t9 -76zM383 544l-109 77l-109 -77l-65 82l174 142l174 -142z" />
    <glyph glyph-name="edieresis" unicode="&#xeb;" horiz-adv-x="524" 
d="M319 308q2 36 -12.5 52.5t-38.5 16.5q-26 0 -42.5 -19t-18.5 -50h112v0zM496 288q-1 -57 -7 -98h-281q1 -27 26 -44.5t81 -18.5q39 1 74 8t73 22l16 -134q-50 -18 -98 -26.5t-94 -8.5q-127 0 -194 61t-68 193q0 58 18 107t51.5 85t82 56t100.5 19q55 1 101 -17.5
t72.5 -51.5t37.5 -76t9 -76zM255 640q0 -38 -26.5 -64.5t-64.5 -26.5t-64.5 26.5t-26.5 64.5t26.5 64.5t64.5 26.5t64.5 -26.5t26.5 -64.5zM472 640q0 -38 -26.5 -64.5t-64.5 -26.5t-64.5 26.5t-26.5 64.5t26.5 64.5t64.5 26.5t64.5 -26.5t26.5 -64.5z" />
    <glyph glyph-name="igrave" unicode="&#xec;" horiz-adv-x="276" 
d="M47 0v497h182v-497h-182zM189 544l-226 101l74 123l212 -123z" />
    <glyph glyph-name="iacute" unicode="&#xed;" horiz-adv-x="276" 
d="M47 0v497h182v-497h-182zM68 544l-60 100l212 124l74 -123z" />
    <glyph glyph-name="icircumflex" unicode="&#xee;" horiz-adv-x="276" 
d="M47 0v497h182v-497h-182zM248 544l-109 77l-109 -77l-65 82l174 142l174 -142z" />
    <glyph glyph-name="idieresis" unicode="&#xef;" horiz-adv-x="276" 
d="M47 0v497h182v-497h-182zM122 640q0 -38 -26.5 -64.5t-64.5 -26.5t-64.5 26.5t-26.5 64.5t26.5 64.5t64.5 26.5t64.5 -26.5t26.5 -64.5zM339 640q0 -38 -26.5 -64.5t-64.5 -26.5t-64.5 26.5t-26.5 64.5t26.5 64.5t64.5 26.5t64.5 -26.5t26.5 -64.5z" />
    <glyph glyph-name="eth" unicode="&#xf0;" horiz-adv-x="567" 
d="M349 260q0 43 -16 68t-52 25q-29 0 -48.5 -25t-19.5 -79q0 -53 19.5 -78t51.5 -25q65 0 65 114zM539 286q0 -75 -21 -131t-57 -93t-84 -55.5t-102 -18.5t-100 14.5t-79.5 44.5t-52.5 76.5t-19 110.5q0 66 20.5 116.5t54.5 85t79 52t94 17.5q12 0 23 -2t19 -7
q-5 6 -8.5 12t-8.5 13q-14 22 -37 45l-79 -34l-71 79l68 29q-30 23 -68 45l176 74q15 -11 30 -23t29 -26l73 31l71 -79l-72 -30q61 -76 91.5 -163t30.5 -183z" />
    <glyph glyph-name="ntilde" unicode="&#xf1;" horiz-adv-x="564" 
d="M335 0v314q0 19 -6 30t-22 11q-15 0 -29 -10t-25 -26t-17.5 -36t-6.5 -41v-242h-182v497h168q0 -10 -1 -29.5t-4 -36.5h1q23 33 62.5 55.5t96.5 22.5q41 0 69 -12.5t45.5 -34t25 -50t7.5 -60.5v-352h-182zM478 660q-25 -52 -59.5 -79t-79.5 -27q-26 0 -42.5 7t-29 15.5
t-23 15.5t-22.5 7q-17 0 -27.5 -11t-21.5 -32l-84 64q25 52 59.5 79t79.5 27q25 0 42 -7t29.5 -15.5t23 -15.5t22.5 -7q17 0 27.5 11t21.5 32l84 -64v0z" />
    <glyph glyph-name="ograve" unicode="&#xf2;" horiz-adv-x="564" 
d="M352 249q0 54 -15 79t-53 25q-27 0 -49.5 -23t-22.5 -76q0 -58 15.5 -83t52.5 -25q35 0 53.5 28t18.5 75zM541 260q0 -62 -21.5 -112.5t-58 -86t-86 -54.5t-105.5 -19t-101.5 13.5t-78 42.5t-50 76t-17.5 114q0 63 21 114t57.5 87t86.5 55t107 19q123 0 184.5 -65
t61.5 -184zM310 544l-226 101l74 123l212 -123z" />
    <glyph glyph-name="oacute" unicode="&#xf3;" horiz-adv-x="564" 
d="M352 249q0 54 -15 79t-53 25q-27 0 -49.5 -23t-22.5 -76q0 -58 15.5 -83t52.5 -25q35 0 53.5 28t18.5 75zM541 260q0 -62 -21.5 -112.5t-58 -86t-86 -54.5t-105.5 -19t-101.5 13.5t-78 42.5t-50 76t-17.5 114q0 63 21 114t57.5 87t86.5 55t107 19q123 0 184.5 -65
t61.5 -184zM234 544l-60 100l212 124l74 -123z" />
    <glyph glyph-name="ocircumflex" unicode="&#xf4;" horiz-adv-x="564" 
d="M352 249q0 54 -15 79t-53 25q-27 0 -49.5 -23t-22.5 -76q0 -58 15.5 -83t52.5 -25q35 0 53.5 28t18.5 75zM541 260q0 -62 -21.5 -112.5t-58 -86t-86 -54.5t-105.5 -19t-101.5 13.5t-78 42.5t-50 76t-17.5 114q0 63 21 114t57.5 87t86.5 55t107 19q123 0 184.5 -65
t61.5 -184zM399 544l-109 77l-109 -77l-65 82l174 142l174 -142z" />
    <glyph glyph-name="otilde" unicode="&#xf5;" horiz-adv-x="564" 
d="M352 249q0 54 -15 79t-53 25q-27 0 -49.5 -23t-22.5 -76q0 -58 15.5 -83t52.5 -25q35 0 53.5 28t18.5 75zM541 260q0 -62 -21.5 -112.5t-58 -86t-86 -54.5t-105.5 -19t-101.5 13.5t-78 42.5t-50 76t-17.5 114q0 63 21 114t57.5 87t86.5 55t107 19q123 0 184.5 -65
t61.5 -184zM489 660q-25 -52 -59.5 -79t-79.5 -27q-26 0 -42.5 7t-29 15.5t-23 15.5t-22.5 7q-17 0 -27.5 -11t-21.5 -32l-84 64q25 52 59.5 79t79.5 27q25 0 42 -7t29.5 -15.5t23 -15.5t22.5 -7q17 0 27.5 11t21.5 32l84 -64v0z" />
    <glyph glyph-name="odieresis" unicode="&#xf6;" horiz-adv-x="564" 
d="M352 249q0 54 -15 79t-53 25q-27 0 -49.5 -23t-22.5 -76q0 -58 15.5 -83t52.5 -25q35 0 53.5 28t18.5 75zM541 260q0 -62 -21.5 -112.5t-58 -86t-86 -54.5t-105.5 -19t-101.5 13.5t-78 42.5t-50 76t-17.5 114q0 63 21 114t57.5 87t86.5 55t107 19q123 0 184.5 -65
t61.5 -184zM275 640q0 -38 -26.5 -64.5t-64.5 -26.5t-64.5 26.5t-26.5 64.5t26.5 64.5t64.5 26.5t64.5 -26.5t26.5 -64.5zM492 640q0 -38 -26.5 -64.5t-64.5 -26.5t-64.5 26.5t-26.5 64.5t26.5 64.5t64.5 26.5t64.5 -26.5t26.5 -64.5z" />
    <glyph glyph-name="divide" unicode="&#xf7;" 
d="M379 98q0 -21 -8 -40t-22.5 -33.5t-33.5 -22.5t-40 -8t-40 8t-33.5 22.5t-22.5 33.5t-8 40t8 40t22.5 33.5t33.5 22.5t40 8t40 -8t33.5 -22.5t22.5 -33.5t8 -40zM35 222v152h480v-152h-480zM379 498q0 -21 -8 -40t-22.5 -33.5t-33.5 -22.5t-40 -8t-40 8t-33.5 22.5
t-22.5 33.5t-8 40t8 40t22.5 33.5t33.5 22.5t40 8t40 -8t33.5 -22.5t22.5 -33.5t8 -40z" />
    <glyph glyph-name="oslash" unicode="&#xf8;" horiz-adv-x="568" 
d="M545 260q0 -62 -20.5 -112.5t-57 -86t-86.5 -54.5t-109 -19q-46 0 -86 9l-56 -92l-90 45l55 91q-35 29 -53.5 76.5t-18.5 116.5q0 63 20.5 114t57 87t86.5 55t110 19q22 0 41.5 -2t38.5 -6l52 84l90 -45l-51 -83q77 -65 77 -197zM373 249q0 26 -3 47l-100 -163h12
q48 0 69.5 31.5t21.5 84.5zM287 366q-37 0 -64.5 -26.5t-27.5 -84.5q0 -25 3 -46l96 157h-7z" />
    <glyph glyph-name="ugrave" unicode="&#xf9;" horiz-adv-x="562" 
d="M348 0q0 10 1 29.5t4 36.5h-1q-23 -33 -62.5 -55.5t-96.5 -22.5q-41 0 -69.5 12.5t-45.5 34t-24.5 50t-7.5 60.5v352h182v-314q0 -19 6 -30t22 -11q15 0 29 10t25 26t17.5 36t6.5 41v242h182v-497h-168zM300 544l-226 101l74 123l212 -123z" />
    <glyph glyph-name="uacute" unicode="&#xfa;" horiz-adv-x="562" 
d="M348 0q0 10 1 29.5t4 36.5h-1q-23 -33 -62.5 -55.5t-96.5 -22.5q-41 0 -69.5 12.5t-45.5 34t-24.5 50t-7.5 60.5v352h182v-314q0 -19 6 -30t22 -11q15 0 29 10t25 26t17.5 36t6.5 41v242h182v-497h-168zM245 544l-60 100l212 124l74 -123z" />
    <glyph glyph-name="ucircumflex" unicode="&#xfb;" horiz-adv-x="562" 
d="M348 0q0 10 1 29.5t4 36.5h-1q-23 -33 -62.5 -55.5t-96.5 -22.5q-41 0 -69.5 12.5t-45.5 34t-24.5 50t-7.5 60.5v352h182v-314q0 -19 6 -30t22 -11q15 0 29 10t25 26t17.5 36t6.5 41v242h182v-497h-168zM390 544l-109 77l-109 -77l-65 82l174 142l174 -142z" />
    <glyph glyph-name="udieresis" unicode="&#xfc;" horiz-adv-x="562" 
d="M348 0q0 10 1 29.5t4 36.5h-1q-23 -33 -62.5 -55.5t-96.5 -22.5q-41 0 -69.5 12.5t-45.5 34t-24.5 50t-7.5 60.5v352h182v-314q0 -19 6 -30t22 -11q15 0 29 10t25 26t17.5 36t6.5 41v242h182v-497h-168zM264 640q0 -38 -26.5 -64.5t-64.5 -26.5t-64.5 26.5t-26.5 64.5
t26.5 64.5t64.5 26.5t64.5 -26.5t26.5 -64.5zM481 640q0 -38 -26.5 -64.5t-64.5 -26.5t-64.5 26.5t-26.5 64.5t26.5 64.5t64.5 26.5t64.5 -26.5t26.5 -64.5z" />
    <glyph glyph-name="yacute" unicode="&#xfd;" horiz-adv-x="534" 
d="M350 -8q-27 -71 -56 -116t-62 -71t-71 -36t-83 -10q-19 0 -44 2.5t-42 5.5l21 154q35 -11 69 -11q10 0 22.5 2.5t25 9.5t23 19t15.5 30l8 29l-176 497h200l29 -91q10 -31 21 -73.5t19 -82.5h2q5 22 11 45.5t12 45.5t11.5 41t10.5 32l28 83h195zM234 544l-60 100l212 124
l74 -123z" />
    <glyph glyph-name="thorn" unicode="&#xfe;" horiz-adv-x="559" 
d="M342 258q0 54 -12 77t-37 23t-44.5 -29.5t-19.5 -89.5v-102q8 -2 16 -3t19 -1q16 0 30 6t24.5 20.5t17 38.5t6.5 60zM534 278q0 -63 -16 -115.5t-49 -90.5t-84 -59.5t-121 -21.5q-22 0 -35 3v-227h-182v963h182v-182q0 -19 -0.5 -41.5t-3.5 -48.5h2q17 21 46.5 36
t80.5 15q89 0 134.5 -63t45.5 -168z" />
    <glyph glyph-name="ydieresis" unicode="&#xff;" horiz-adv-x="534" 
d="M350 -8q-27 -71 -56 -116t-62 -71t-71 -36t-83 -10q-19 0 -44 2.5t-42 5.5l21 154q35 -11 69 -11q10 0 22.5 2.5t25 9.5t23 19t15.5 30l8 29l-176 497h200l29 -91q10 -31 21 -73.5t19 -82.5h2q5 22 11 45.5t12 45.5t11.5 41t10.5 32l28 83h195zM256 640
q0 -38 -26.5 -64.5t-64.5 -26.5t-64.5 26.5t-26.5 64.5t26.5 64.5t64.5 26.5t64.5 -26.5t26.5 -64.5zM473 640q0 -38 -26.5 -64.5t-64.5 -26.5t-64.5 26.5t-26.5 64.5t26.5 64.5t64.5 26.5t64.5 -26.5t26.5 -64.5z" />
    <glyph glyph-name="dotlessi" unicode="&#x131;" horiz-adv-x="276" 
d="M47 0v497h182v-497h-182z" />
    <glyph glyph-name="Lslash" unicode="&#x141;" horiz-adv-x="442" 
d="M58 0v266l-48 -23l-30 145l78 37v250h186v-163l79 36l30 -145l-109 -50v-187h186v-166h-372z" />
    <glyph glyph-name="lslash" unicode="&#x142;" horiz-adv-x="312" 
d="M247 366v-366h-182v272l-35 -18l-30 138l65 33v305h182v-211l35 18l30 -138z" />
    <glyph glyph-name="OE" unicode="&#x152;" horiz-adv-x="856" 
d="M424 506q-34 13 -74 13q-24 0 -47.5 -10t-42 -31t-30 -54.5t-11.5 -81.5q0 -87 29.5 -136t97.5 -49q20 0 40 5.5t38 13.5v330zM444 0q-23 -6 -51 -10t-56 -4q-80 0 -139 23.5t-98.5 67.5t-59 107.5t-19.5 143.5q0 82 27 148.5t72.5 113.5t106.5 73t129 26q32 0 58.5 -3.5
t52.5 -10.5h352v-158h-209v-95h198v-152h-198v-109h209v-161h-375z" />
    <glyph glyph-name="oe" unicode="&#x153;" horiz-adv-x="841" 
d="M352 249q0 54 -15 79t-53 25q-27 0 -49.5 -23t-22.5 -76q0 -58 15.5 -83t52.5 -25q35 0 53.5 28t18.5 75zM636 309q2 36 -12.5 52.5t-38.5 16.5q-26 0 -42.5 -19t-18.5 -50h112v0zM813 269q0 -38 -6 -78h-282q2 -26 27.5 -44.5t79.5 -18.5q35 0 72 7t75 24l16 -136
q-45 -18 -95.5 -26.5t-96.5 -8.5q-59 0 -101 13t-74 39q-29 -24 -71 -38t-87 -14q-56 0 -101.5 13t-77.5 42.5t-50 76t-18 114.5q0 64 21 115t57.5 86.5t86 54.5t107.5 19q39 0 80 -10.5t70 -33.5q29 22 64 33.5t80 11.5q58 0 100 -18.5t69.5 -50.5t41 -76t13.5 -96z" />
    <glyph glyph-name="Scaron" unicode="&#x160;" horiz-adv-x="502" 
d="M485 221q0 -50 -20.5 -92.5t-56.5 -74t-87.5 -49.5t-112.5 -18q-51 0 -90.5 4t-76.5 13l16 177q34 -14 72 -23t83 -9q27 0 46 12t19 36q0 23 -18.5 37.5t-47 25t-60.5 23t-61 34.5t-47 60t-18 91q0 102 75.5 161t205.5 59q26 0 58.5 -3t65.5 -10l-16 -161q-28 10 -56 15
t-59 5q-38 0 -56 -12.5t-18 -32.5q0 -19 18.5 -33.5t48 -26t63.5 -26t63.5 -37t48 -59t18.5 -86.5zM255 703l-176 83l38 90l142 -48l137 47l35 -85z" />
    <glyph glyph-name="scaron" unicode="&#x161;" horiz-adv-x="405" 
d="M381 163q0 -42 -17 -74.5t-47.5 -55t-73.5 -34t-94 -11.5q-59 0 -110 14l8 146q22 -11 47.5 -16t52.5 -5q40 0 40 22q0 13 -12 21t-29.5 15.5t-38.5 17t-38.5 26t-29.5 42.5t-12 66q0 35 13.5 66.5t41.5 55t71.5 37.5t103.5 14q40 0 83 -8l-4 -140q-18 6 -39.5 9t-42.5 3
q-37 0 -37 -23q0 -11 12 -18.5t30.5 -16t39.5 -19t39.5 -27.5t30.5 -43t12 -64zM207 544l-174 142l65 82l109 -77l109 77l65 -82z" />
    <glyph glyph-name="Ydieresis" unicode="&#x178;" horiz-adv-x="597" 
d="M390 233v-233h-186v232l-211 443h202l63 -146q13 -29 22.5 -54.5t17.5 -48.5h2q9 27 22 56.5t27 61.5l58 131h197zM280 791q0 -36 -25.5 -61t-61.5 -25t-61.5 25t-25.5 61t25.5 61.5t61.5 25.5t61.5 -25.5t25.5 -61.5zM498 791q0 -36 -25.5 -61t-61.5 -25t-61.5 25
t-25.5 61t25.5 61.5t61.5 25.5t61.5 -25.5t25.5 -61.5z" />
    <glyph glyph-name="florin" unicode="&#x192;" 
d="M503 541q-20 7 -41 10.5t-38 3.5q-35 0 -50.5 -18t-20.5 -67l-7 -75h130v-140h-143l-16 -173q-12 -127 -77 -185.5t-182 -58.5q-19 0 -45 2t-48 7l18 154q17 -5 40.5 -9t42.5 -4q30 0 47 18t22 67l17 182h-113v140h126l6 66q11 127 76.5 185.5t182.5 58.5q20 0 45.5 -2.5
t45.5 -6.5z" />
    <glyph glyph-name="circumflex" unicode="&#x2c6;" horiz-adv-x="416" 
d="M317 544l-109 77l-109 -77l-65 82l174 142l174 -142z" />
    <glyph glyph-name="caron" unicode="&#x2c7;" horiz-adv-x="416" 
d="M208 544l-174 142l65 82l109 -77l109 77l65 -82z" />
    <glyph glyph-name="breve" unicode="&#x2d8;" horiz-adv-x="333" 
d="M319 724q0 -36 -9 -68.5t-27.5 -57t-48 -39.5t-70.5 -15q-42 0 -71 15t-47 40t-26 57.5t-8 67.5h113q0 -53 40 -53q20 0 30 13.5t10 39.5h114v0z" />
    <glyph glyph-name="dotaccent" unicode="&#x2d9;" horiz-adv-x="292" 
d="M247 640q0 -22 -8.5 -41t-23.5 -33.5t-35 -22.5t-42 -8q-23 0 -42.5 8t-34.5 22.5t-23.5 33.5t-8.5 41t8.5 41t23.5 33t34.5 22.5t42.5 8.5q22 0 42 -8.5t35 -22.5t23.5 -33t8.5 -41z" />
    <glyph glyph-name="ring" unicode="&#x2da;" horiz-adv-x="340" 
d="M218 667q0 20 -14 34t-34 14t-34 -14t-14 -34t14 -34t34 -14t34 14t14 34zM317 667q0 -30 -11.5 -55.5t-31.5 -44t-47 -29t-57 -10.5t-57 10.5t-47 29t-31.5 44t-11.5 55.5t11.5 55.5t31.5 44t47 29t57 10.5t57 -10.5t47 -29t31.5 -44t11.5 -55.5z" />
    <glyph glyph-name="ogonek" unicode="&#x2db;" horiz-adv-x="276" 
d="M229 0q-50 -20 -67.5 -40.5t-17.5 -37.5q0 -13 9.5 -20t21.5 -7q16 0 32.5 9t25.5 22l64 -84q-35 -42 -85 -62.5t-104 -20.5q-27 0 -50 6.5t-40 19.5t-27 33.5t-10 47.5q0 39 20.5 76.5t59.5 69.5z" />
    <glyph glyph-name="tilde" unicode="&#x2dc;" horiz-adv-x="425" 
d="M411 660q-25 -52 -59.5 -79t-79.5 -27q-26 0 -42.5 7t-29 15.5t-23 15.5t-22.5 7q-17 0 -27.5 -11t-21.5 -32l-84 64q25 52 59.5 79t79.5 27q25 0 42 -7t29.5 -15.5t23 -15.5t22.5 -7q17 0 27.5 11t21.5 32l84 -64v0z" />
    <glyph glyph-name="hungarumlaut" unicode="&#x2dd;" horiz-adv-x="520" 
d="M122 544l-81 69l145 177l99 -83zM336 544l-76 70l164 164l91 -90z" />
    <glyph glyph-name="pi" unicode="&#x3c0;" horiz-adv-x="664" 
d="M632 0q-26 -6 -58.5 -10t-68.5 -4q-68 0 -99.5 32t-31.5 94v236h-87v-348h-167v348h-82v149h583v-149h-80v-157q0 -26 2.5 -41t7.5 -22.5t12.5 -10t17.5 -2.5q22 0 40 5l11 -120v0z" />
    <glyph glyph-name="endash" unicode="&#x2013;" 
d="M0 218v160h550v-160h-550z" />
    <glyph glyph-name="emdash" unicode="&#x2014;" horiz-adv-x="1000" 
d="M100 218v160h800v-160h-800z" />
    <glyph glyph-name="quoteleft" unicode="&#x2018;" horiz-adv-x="300" 
d="M270 699q-28 -30 -43.5 -53t-19.5 -42.5t2.5 -37t22.5 -35.5q19 -21 22.5 -50t-7 -55t-35.5 -44t-62 -18q-31 0 -56 16t-39 44.5t-15.5 67t14.5 83t50.5 93t92.5 96.5l73 -65v0z" />
    <glyph glyph-name="quoteright" unicode="&#x2019;" horiz-adv-x="300" 
d="M150 753q31 0 56 -16t39 -44.5t15.5 -67t-14.5 -83t-50.5 -93t-92.5 -96.5l-73 65q28 30 43.5 53t19.5 42.5t-2.5 37t-22.5 35.5q-19 21 -22.5 50t7 55t35 44t62.5 18z" />
    <glyph glyph-name="quotesinglbase" unicode="&#x201a;" horiz-adv-x="300" 
d="M150 200q31 0 56 -16t39 -44.5t15.5 -67t-14.5 -83t-50.5 -93t-92.5 -96.5l-73 65q28 30 43.5 53t19.5 42.5t-2.5 37t-22.5 35.5q-19 21 -22.5 50t7 55t35 44t62.5 18z" />
    <glyph glyph-name="quotedblleft" unicode="&#x201c;" horiz-adv-x="560" 
d="M270 699q-28 -30 -43.5 -53t-19.5 -42.5t2.5 -37t22.5 -35.5q19 -21 22.5 -50t-7 -55t-35.5 -44t-62 -18q-31 0 -56 16t-39 44.5t-15.5 67t14.5 83t50.5 93t92.5 96.5l73 -65v0zM530 699q-28 -30 -43.5 -53t-19.5 -42.5t2.5 -37t22.5 -35.5q19 -21 22.5 -50t-7 -55
t-35.5 -44t-62 -18q-31 0 -56 16t-39 44.5t-15.5 67t14.5 83t50.5 93t92.5 96.5l73 -65v0z" />
    <glyph glyph-name="quotedblright" unicode="&#x201d;" horiz-adv-x="560" 
d="M150 753q31 0 56 -16t39 -44.5t15.5 -67t-14.5 -83t-50.5 -93t-92.5 -96.5l-73 65q28 30 43.5 53t19.5 42.5t-2.5 37t-22.5 35.5q-19 21 -22.5 50t7 55t35 44t62.5 18zM410 753q31 0 56 -16t39 -44.5t15.5 -67t-14.5 -83t-50.5 -93t-92.5 -96.5l-73 65q28 30 43.5 53
t19.5 42.5t-2.5 37t-22.5 35.5q-19 21 -22.5 50t7 55t35 44t62.5 18z" />
    <glyph glyph-name="quotedblbase" unicode="&#x201e;" horiz-adv-x="560" 
d="M150 200q31 0 56 -16t39 -44.5t15.5 -67t-14.5 -83t-50.5 -93t-92.5 -96.5l-73 65q28 30 43.5 53t19.5 42.5t-2.5 37t-22.5 35.5q-19 21 -22.5 50t7 55t35 44t62.5 18zM410 200q31 0 56 -16t39 -44.5t15.5 -67t-14.5 -83t-50.5 -93t-92.5 -96.5l-73 65q28 30 43.5 53
t19.5 42.5t-2.5 37t-22.5 35.5q-19 21 -22.5 50t7 55t35 44t62.5 18z" />
    <glyph glyph-name="dagger" unicode="&#x2020;" horiz-adv-x="470" 
d="M311 499l28 -74l-30 -261h-147l-31 261l28 74h-127v140h127l-28 135h208l-28 -135h127v-140h-127z" />
    <glyph glyph-name="daggerdbl" unicode="&#x2021;" horiz-adv-x="470" 
d="M313 274l28 -110h-212l28 110h-125v140h125l-26 55l26 55h-125v140h125l-26 110h208l-26 -110h125v-140h-125l26 -55l-26 -55h125v-140h-125z" />
    <glyph glyph-name="bullet" unicode="&#x2022;" horiz-adv-x="426" 
d="M401 297q0 -39 -15 -73t-40.5 -59.5t-59.5 -40.5t-73 -15t-73.5 15t-60 40.5t-40 59.5t-14.5 73t14.5 73t40 59.5t60 40.5t73.5 15t73 -15t59.5 -40.5t40.5 -59.5t15 -73z" />
    <glyph glyph-name="ellipsis" unicode="&#x2026;" horiz-adv-x="808" 
d="M248 90q0 -21 -8 -40t-22.5 -33.5t-33.5 -22.5t-40 -8t-40 8t-33.5 22.5t-22.5 33.5t-8 40t8 40t22.5 33.5t33.5 22.5t40 8t40 -8t33.5 -22.5t22.5 -33.5t8 -40zM508 90q0 -21 -8 -40t-22.5 -33.5t-33.5 -22.5t-40 -8t-40 8t-33.5 22.5t-22.5 33.5t-8 40t8 40t22.5 33.5
t33.5 22.5t40 8t40 -8t33.5 -22.5t22.5 -33.5t8 -40zM768 90q0 -21 -8 -40t-22.5 -33.5t-33.5 -22.5t-40 -8t-40 8t-33.5 22.5t-22.5 33.5t-8 40t8 40t22.5 33.5t33.5 22.5t40 8t40 -8t33.5 -22.5t22.5 -33.5t8 -40z" />
    <glyph glyph-name="perthousand" unicode="&#x2030;" horiz-adv-x="1090" 
d="M342 507q0 -39 -13.5 -71t-35.5 -54t-51 -34t-60 -12q-71 0 -111.5 43.5t-40.5 117.5q0 38 13 69t35 52.5t50.5 33.5t60.5 12q31 0 59 -9t49 -28.5t33 -49t12 -70.5zM218 501q0 35 -9 44.5t-21 9.5t-22.5 -13t-10.5 -42q0 -35 10 -45t21 -10t21.5 13.5t10.5 42.5z
M170 -25l-106 82l507 616l106 -82zM715 157q0 -39 -13.5 -71t-35.5 -54t-51 -34t-60 -12q-71 0 -111.5 43.5t-40.5 117.5q0 38 13 69t35 52.5t50.5 33.5t60.5 12q31 0 59 -9t49 -28.5t33 -49t12 -70.5zM591 151q0 35 -9 44.5t-21 9.5t-22.5 -13t-10.5 -42q0 -35 10 -45
t21 -10t21.5 13.5t10.5 42.5zM1056 157q0 -39 -13.5 -71t-35.5 -54t-51 -34t-60 -12q-71 0 -111.5 43.5t-40.5 117.5q0 38 13 69t35 52.5t50.5 33.5t60.5 12q31 0 59 -9t49 -28.5t33 -49t12 -70.5zM932 151q0 35 -9 44.5t-21 9.5t-22.5 -13t-10.5 -42q0 -35 10 -45t21 -10
t21.5 13.5t10.5 42.5z" />
    <glyph glyph-name="guilsinglleft" unicode="&#x2039;" horiz-adv-x="311" 
d="M128 79l-106 212l109 214l142 -61l-79 -153l82 -150z" />
    <glyph glyph-name="guilsinglright" unicode="&#x203a;" horiz-adv-x="311" 
d="M180 79l-142 61l79 153l-82 150l148 62l106 -212z" />
    <glyph glyph-name="fraction" unicode="&#x2044;" horiz-adv-x="460" 
d="M41 -45l-132 96l510 655l132 -96z" />
    <glyph glyph-name="fraction" unicode="&#x2215;" horiz-adv-x="460" 
d="M41 -45l-132 96l510 655l132 -96z" />
    <glyph glyph-name="Euro" unicode="&#x20ac;" 
d="M530 17q-35 -15 -80 -23t-93 -8q-53 0 -98 10.5t-80.5 34.5t-60.5 63.5t-37 98.5h-70v107h60v19v31h-60v107h78q13 44 37 82t60 65.5t86 43.5t115 16q35 0 72 -7t70 -18l-41 -143q-23 11 -51.5 17.5t-56.5 6.5q-74 0 -103 -63h129v-107h-150v-20v-30h150v-107h-131
q14 -37 41 -50t65 -13q30 0 56 6t53 18l40 -137v0z" />
    <glyph glyph-name="trademark" unicode="&#x2122;" horiz-adv-x="675" 
d="M189 566v-172h-123v172h-59v109h237v-109h-55zM532 394l-12 83l-3 38l-6 -38l-14 -83h-108l-16 86l-5 35l-2 -35l-10 -86h-118l47 281h141l18 -78l6 -34l5 34l15 78h143l50 -281h-131z" />
    <glyph glyph-name="Omega" unicode="&#x2126;" horiz-adv-x="704" 
d="M383 0v143q50 34 69.5 85t19.5 126q0 81 -28.5 123.5t-94.5 42.5q-56 0 -88 -43t-32 -121q0 -41 4.5 -72t15 -56t28 -45t43.5 -39v-144h-291v146h94q-41 27 -66.5 79.5t-25.5 138.5q0 69 23.5 128t66.5 103t104.5 69t138.5 25q63 0 118.5 -17t97.5 -54t66 -95.5
t24 -141.5q0 -81 -25 -140.5t-70 -94.5h100v-146h-292z" />
    <glyph glyph-name="partialdiff" unicode="&#x2202;" horiz-adv-x="630" 
d="M375 238q0 32 -17.5 52.5t-57.5 20.5q-35 0 -57 -23.5t-22 -62.5q0 -34 18 -53.5t53 -19.5t59 23t24 63zM584 385q0 -101 -28.5 -181.5t-89.5 -136.5q-40 -36 -92.5 -55t-108.5 -19q-54 0 -95.5 16t-69.5 44.5t-42.5 68.5t-14.5 88q0 55 18.5 102t52 81t81.5 53t108 19
q25 0 49 -4.5t44 -16.5q-5 17 -8 26.5t-6 15.5q-20 45 -67.5 72t-110.5 27l29 154q78 0 143 -25t111 -71.5t71.5 -112t25.5 -145.5z" />
    <glyph glyph-name="product" unicode="&#x220f;" horiz-adv-x="784" 
d="M665 577v-810h-168v810h-208v-810h-169v810h-85v153h713v-153h-83z" />
    <glyph glyph-name="summation" unicode="&#x2211;" horiz-adv-x="604" 
d="M36 -233v143l264 349l-248 327v144h497v-153h-274l235 -312l-261 -340h316v-158h-529z" />
    <glyph glyph-name="minus" unicode="&#x2212;" 
d="M35 218v160h480v-160h-480z" />
    <glyph glyph-name="radical" unicode="&#x221a;" horiz-adv-x="628" 
d="M414 0h-214l-115 362h-80v135h233l59 -214q5 -17 9 -34.5t6 -37.5h1q4 40 12 71l116 476h201z" />
    <glyph glyph-name="infinity" unicode="&#x221e;" horiz-adv-x="998" 
d="M356 296q-41 31 -64.5 42t-38.5 11q-29 0 -43 -15.5t-14 -35.5t15 -34t39 -14q20 0 45.5 10.5t60.5 35.5zM802 302q0 20 -15 33.5t-39 13.5q-43 0 -110 -48q42 -31 66.5 -41t40.5 -10q29 0 43 15.5t14 36.5zM973 306q0 -44 -15 -83.5t-45 -68.5t-74.5 -46t-102.5 -17
q-51 0 -109.5 22t-133.5 76q-26 -18 -54.5 -36t-60 -31.5t-66 -22t-71.5 -8.5q-54 0 -94.5 16t-67.5 43.5t-40.5 64t-13.5 78.5q0 48 17 87.5t47 67.5t72 43.5t92 15.5q58 0 117.5 -23.5t131.5 -77.5q23 17 51.5 35t60.5 32.5t67 24t70 9.5q51 0 92 -15t70 -41.5t44.5 -63.5
t15.5 -81z" />
    <glyph glyph-name="integral" unicode="&#x222b;" horiz-adv-x="353" 
d="M325 578q-8 2 -18.5 4t-21.5 2q-20 0 -30.5 -15t-10.5 -64q0 -60 2.5 -116t5 -113t5 -116.5t2.5 -125.5q0 -146 -45.5 -212.5t-139.5 -66.5q-14 0 -30.5 2t-31.5 5v156q11 -3 19.5 -4t16.5 -1q11 0 19.5 3.5t14 13t8.5 27t3 44.5q0 60 -2.5 114.5l-5 109t-5 113
t-2.5 126.5q0 75 13.5 127.5t39 85.5t61 48.5t79.5 15.5q11 0 26 -2t28 -5v-156v0z" />
    <glyph glyph-name="approxequal" unicode="&#x2248;" 
d="M525 145q-17 -16 -37 -29t-41 -22.5t-41.5 -14.5t-38.5 -5q-32 0 -56 8.5t-45 19t-40.5 19.5t-40.5 9q-47 0 -99 -43l-60 119q14 13 31.5 26.5t37 24t41 17.5t42.5 7q33 0 56.5 -9t44 -19.5t42 -19t51.5 -8.5q23 0 48 8.5t47 30.5l58 -119v0zM523 379q-32 -33 -71 -54
t-84 -21q-27 0 -49.5 8.5t-43.5 19t-42.5 19.5t-47.5 9q-24 0 -50 -10t-52 -32l-57 118q34 32 78 53.5t85 21.5q32 0 57 -9t46 -19.5t39.5 -19t36.5 -8.5q24 0 49.5 12.5t45.5 30.5l60 -119v0z" />
    <glyph glyph-name="notequal" unicode="&#x2260;" 
d="M287 114l-37 -95h-165l37 95h-84v145h141l29 75h-170v145h227l36 92h164l-36 -92h83v-145h-140l-29 -75h169v-145h-225z" />
    <glyph glyph-name="lessequal" unicode="&#x2264;" 
d="M75 0v152h400v-152h-400zM344 172l-293 269l292 269l121 -121l-178 -147l178 -147z" />
    <glyph glyph-name="greaterequal" unicode="&#x2265;" 
d="M75 0v152h400v-152h-400zM207 172l-121 121l178 147l-178 147l120 123l293 -269z" />
    <glyph glyph-name="lozenge" unicode="&#x25ca;" horiz-adv-x="636" 
d="M313 486l-106 -145l114 -156l110 148zM376 -10h-114l-257 347l257 348h114l255 -348z" />
    <glyph glyph-name="Circumflex" unicode="&#xe08f;" horiz-adv-x="416" 
d="M342 703l-142 48l-137 -47l-35 85l176 87l176 -83z" />
    <glyph glyph-name="Tilde" unicode="&#xe090;" horiz-adv-x="425" 
d="M421 812q-54 -95 -145 -95q-26 0 -43.5 6t-30.5 13.5t-23.5 14t-23.5 6.5q-18 0 -29 -9.5t-22 -29.5l-88 58q54 95 145 95q26 0 43.5 -6.5t30.5 -14t23.5 -13.5t23.5 -6q18 0 29 9.5t22 29.5l88 -58v0z" />
    <glyph glyph-name="apple" unicode="&#xf000;" horiz-adv-x="1047" 
d="M189 374q-2 -20 -2 -43q0 -22 2 -41l-183 -22q-9 63 0 128zM531 355q2 0 2 5t-2 5q3 -5 0 -10zM528 357q5 0 2.5 2t-0.5 2v1q-5 0 -2 -2t0 -2v-1v0zM525 359q-2 -2 -2 -1q0 2 2 1zM525 357h1v3q0 5 -4 1q2 0 3 -1q-2 0 -3 -2t3 0v-1zM522 355q-3 5 0 10q-2 0 -2 -5t2 -5z
M518 358q-2 -1 -2 1q0 3 2 2v1q-2 1 -2.5 -2.5t2.5 -2.5v1zM513 362v-3q0 -2 -0.5 -1.5t-0.5 1.5v3h-1v-3q0 -2 1 -2q2 0 2 2v3h-1zM510 358h-2v6h-1v-7h3v1zM630 -42l-223 -58l20 -47h193l8 19l-2 5l-63 -16l-18 53l94 24zM630 45l-224 -58l9 -19l223 57zM406 119v-36
l12 -28l222 57v7h-234zM555 321q-9 1 -16 1h-15h-16q-7 0 -17 -1l14 -128h38l12 128v0zM439 193l-14 117q-15 -3 -24.5 -7t-16.5 -6q-9 -3 -14 9t-6 28t2 31t10 17q32 9 71 15.5t77 6.5q41 0 78.5 -6.5t70.5 -15.5q7 -2 9.5 -16.5t1.5 -30.5t-6.5 -28t-14.5 -9
q-7 2 -17.5 5.5t-24.5 6.5l-12 -117h36q28 25 45.5 60.5t17.5 78.5q0 38 -14.5 72t-39.5 59t-58.5 39.5t-71.5 14.5t-72 -14.5t-59 -39.5t-39.5 -59t-14.5 -72q0 -42 17.5 -78t46.5 -61h36zM802 332q0 -49 -17 -96t-47 -82v-84l-16 -4l33 -78l-33 -9l33 -76l-35 -9l9 -23
l-33 -78h-65q-5 -23 -34.5 -38t-72.5 -15q-45 0 -74 15.5t-33 37.5h-66l-60 144l32 9l-33 78l36 10l-18 43v80q-30 37 -46 81.5t-16 93.5q0 58 22 108.5t59.5 88t88 59.5t108.5 22q57 0 108 -22t88.5 -59.5t59.5 -88t22 -108.5zM1042 395q7 -62 1 -126l-179 22q2 18 2 40
q0 23 -2 43l178 21v0zM844 742q24 -20 46.5 -42t42.5 -48l-139 -109q-12 15 -29.5 32t-29.5 26zM566 670q-20 3 -41.5 2.5t-41.5 -2.5l-23 174q31 5 64 4.5t63 -4.5l-21 -174v0zM113 654q21 25 43 47.5t47 41.5l113 -143q-14 -11 -30.5 -28t-27.5 -31l-145 113v0z" />
    <glyph glyph-name="apple" unicode="&#xf8ff;" horiz-adv-x="1047" 
d="M189 374q-2 -20 -2 -43q0 -22 2 -41l-183 -22q-9 63 0 128zM531 355q2 0 2 5t-2 5q3 -5 0 -10zM528 357q5 0 2.5 2t-0.5 2v1q-5 0 -2 -2t0 -2v-1v0zM525 359q-2 -2 -2 -1q0 2 2 1zM525 357h1v3q0 5 -4 1q2 0 3 -1q-2 0 -3 -2t3 0v-1zM522 355q-3 5 0 10q-2 0 -2 -5t2 -5z
M518 358q-2 -1 -2 1q0 3 2 2v1q-2 1 -2.5 -2.5t2.5 -2.5v1zM513 362v-3q0 -2 -0.5 -1.5t-0.5 1.5v3h-1v-3q0 -2 1 -2q2 0 2 2v3h-1zM510 358h-2v6h-1v-7h3v1zM630 -42l-223 -58l20 -47h193l8 19l-2 5l-63 -16l-18 53l94 24zM630 45l-224 -58l9 -19l223 57zM406 119v-36
l12 -28l222 57v7h-234zM555 321q-9 1 -16 1h-15h-16q-7 0 -17 -1l14 -128h38l12 128v0zM439 193l-14 117q-15 -3 -24.5 -7t-16.5 -6q-9 -3 -14 9t-6 28t2 31t10 17q32 9 71 15.5t77 6.5q41 0 78.5 -6.5t70.5 -15.5q7 -2 9.5 -16.5t1.5 -30.5t-6.5 -28t-14.5 -9
q-7 2 -17.5 5.5t-24.5 6.5l-12 -117h36q28 25 45.5 60.5t17.5 78.5q0 38 -14.5 72t-39.5 59t-58.5 39.5t-71.5 14.5t-72 -14.5t-59 -39.5t-39.5 -59t-14.5 -72q0 -42 17.5 -78t46.5 -61h36zM802 332q0 -49 -17 -96t-47 -82v-84l-16 -4l33 -78l-33 -9l33 -76l-35 -9l9 -23
l-33 -78h-65q-5 -23 -34.5 -38t-72.5 -15q-45 0 -74 15.5t-33 37.5h-66l-60 144l32 9l-33 78l36 10l-18 43v80q-30 37 -46 81.5t-16 93.5q0 58 22 108.5t59.5 88t88 59.5t108.5 22q57 0 108 -22t88.5 -59.5t59.5 -88t22 -108.5zM1042 395q7 -62 1 -126l-179 22q2 18 2 40
q0 23 -2 43l178 21v0zM844 742q24 -20 46.5 -42t42.5 -48l-139 -109q-12 15 -29.5 32t-29.5 26zM566 670q-20 3 -41.5 2.5t-41.5 -2.5l-23 174q31 5 64 4.5t63 -4.5l-21 -174v0zM113 654q21 25 43 47.5t47 41.5l113 -143q-14 -11 -30.5 -28t-27.5 -31l-145 113v0z" />
    <glyph glyph-name="Acute" unicode="&#xf6c9;" horiz-adv-x="400" 
d="M93 703l-26 96l244 76l35 -123z" />
    <glyph glyph-name="Caron" unicode="&#xf6ca;" horiz-adv-x="416" 
d="M204 703l-176 83l38 90l142 -48l137 47l35 -85z" />
    <glyph glyph-name="Dieresis" unicode="&#xf6cb;" horiz-adv-x="546" 
d="M237 791q0 -36 -25.5 -61t-61.5 -25t-61.5 25t-25.5 61t25.5 61.5t61.5 25.5t61.5 -25.5t25.5 -61.5zM455 791q0 -36 -25.5 -61t-61.5 -25t-61.5 25t-25.5 61t25.5 61.5t61.5 25.5t61.5 -25.5t25.5 -61.5z" />
    <glyph glyph-name="Grave" unicode="&#xf6ce;" horiz-adv-x="380" 
d="M303 703l-253 49l35 123l244 -76z" />
    <glyph glyph-name="Delta" horiz-adv-x="624" 
d="M24 0v143l169 532h229l178 -532v-143h-576zM337 354q-10 33 -18.5 67t-16.5 73h-2q-8 -39 -17 -75.5t-18 -67.5l-53 -183h181z" />
    </font>
</defs>
</svg>
