<?xml version="1.0" standalone="no"?>
<!DOCTYPE svg PUBLIC "-//W3C//DTD SVG 1.1//EN" "http://www.w3.org/Graphics/SVG/1.1/DTD/svg11.dtd" >
<svg xmlns="http://www.w3.org/2000/svg" xmlns:xlink="http://www.w3.org/1999/xlink" version="1.1">
<metadata>
Created by FontForge 20161013 at Thu Jun  1 17:00:10 2006
 By ,,,
Copyright (c) 2000-2006, Luc[as] de Groot. All rights reserved. Published by LucasFonts.com
</metadata>
<defs>
<font id="JumboTheSans" horiz-adv-x="550" >
  <font-face 
    font-family="Jumbo TheSans"
    font-weight="400"
    font-stretch="normal"
    units-per-em="1000"
    panose-1="2 11 5 0 4 3 3 6 2 4"
    ascent="740"
    descent="-260"
    x-height="497"
    cap-height="675"
    bbox="-59 -256 1020.5 857"
    underline-thickness="72"
    underline-position="-286"
    unicode-range="U+000D-FB04"
  />
<missing-glyph 
d="M450 100v350h-350v-350h350zM250 350v50h150v-250h-50v100h-100v50h100v50h-100zM50 50v450h450v-450h-450zM150 150v250h50v-200h100v-50h-150z" />
    <glyph glyph-name="fi" unicode="fi" horiz-adv-x="590" 
d="M415 0v427h-216v-427h-90v427h-102v70h102v22q0 106 56.5 161.5t175.5 55.5q38 0 73 -5t67 -13l-17 -75q-28 8 -61 13.5t-60 5.5q-77 0 -110.5 -34.5t-33.5 -98.5v-32h306v-497h-90z" />
    <glyph glyph-name="fl" unicode="fl" horiz-adv-x="590" 
d="M415 0v656q-41 7 -86 7q-66 0 -98 -27.5t-32 -89.5v-49h135v-70h-135v-427h-90v427h-102v70h102v57q0 84 55 133t174 49q38 0 81.5 -4t85.5 -11v-721h-90z" />
    <glyph glyph-name="ff" unicode="ff" horiz-adv-x="652" 
d="M432 633q-28 12 -55.5 17t-53.5 5q-65 0 -94.5 -32t-29.5 -92v-34h213v37q0 59 20 99zM677 652q-18 6 -37 8.5t-37 2.5q-53 0 -77 -31t-24 -97v-38h138v-70h-138v-427h-90v427h-213v-427h-90v427h-102v70h102v25q0 41 11 78t36.5 65.5t67.5 45.5t104 17q38 0 77 -6.5
t74 -20.5q44 35 124 35q41 0 81 -9z" />
    <glyph glyph-name="ffi" unicode="ffi" horiz-adv-x="891" 
d="M437 631q-31 14 -58.5 19t-55.5 5q-65 0 -94.5 -32t-29.5 -92v-34h213v22q0 28 5 57t20 55zM718 0v427h-216v-427h-90v427h-213v-427h-90v427h-102v70h102v25q0 41 11 78.5t36.5 66t68 45t104.5 16.5q45 0 85 -8.5t73 -23.5q26 19 64.5 30t93.5 11q38 0 73 -5.5t69 -13.5
l-18 -75q-29 9 -62 14.5t-60 5.5q-77 0 -111 -35t-34 -99v-32h306v-497h-90z" />
    <glyph glyph-name="ffl" unicode="ffl" horiz-adv-x="891" 
d="M431 635q-29 12 -55.5 16t-52.5 4q-65 0 -94.5 -32t-29.5 -92v-34h213v57q0 47 19 81zM718 0v656q-46 8 -86 8q-67 0 -98.5 -28t-31.5 -90v-49h134v-70h-134v-427h-90v427h-213v-427h-90v427h-102v70h102v25q0 41 11 78.5t36.5 66t68 45t104.5 16.5q44 0 82.5 -8
t70.5 -22q28 19 67 29t91 10q38 0 81.5 -4t86.5 -11v-722h-90z" />
    <glyph glyph-name="f_b" unicode="fb" horiz-adv-x="889" 
d="M751 264q0 81 -26.5 124.5t-83.5 43.5q-34 0 -59.5 -17.5t-42.5 -45.5t-25.5 -62t-8.5 -66v-165q39 -12 89 -12q71 0 114 46.5t43 153.5zM846 272q0 -65 -18 -117t-51.5 -88t-81.5 -55t-108 -19q-54 0 -93 4.5t-79 15.5v643q-22 4 -43 6t-43 2q-66 0 -98 -28t-32 -90v-49
h135v-70h-135v-427h-90v427h-102v70h102v57q0 84 55.5 133.5t173.5 49.5q38 0 81.5 -4t85.5 -11v-233q0 -22 -2 -48t-6 -45l2 -1q20 53 63.5 82t100.5 29q88 0 135.5 -59.5t47.5 -174.5z" />
    <glyph glyph-name="f_h" unicode="fh" horiz-adv-x="905" 
d="M731 0v321q0 53 -17.5 82t-66.5 29q-31 0 -57 -15t-45 -41t-29.5 -61t-10.5 -76v-239h-90v656q-22 4 -43 6t-43 2q-66 0 -98 -28t-32 -90v-49h135v-70h-135v-427h-90v427h-102v70h102v57q0 84 55.5 133.5t173.5 49.5q38 0 81.5 -4t85.5 -11v-227q0 -24 -1.5 -51.5
t-6.5 -47.5l2 -1q22 51 66 81.5t107 30.5q43 0 71.5 -12.5t46 -34t24.5 -50.5t7 -62v-348h-90z" />
    <glyph glyph-name="f_j" unicode="fj" horiz-adv-x="589" 
d="M505 -55q0 -50 -8.5 -87.5t-28.5 -62t-53 -37t-82 -12.5q-16 0 -34.5 2t-33.5 7l8 79q14 -5 30 -8.5t33 -3.5q23 0 38.5 5.5t24.5 18.5t12.5 35.5t3.5 55.5v490h-216v-427h-90v427h-102v70h102v22q0 106 56.5 162t175.5 56q38 0 73 -5.5t67 -13.5l-17 -75q-28 9 -61 14.5
t-60 5.5q-77 0 -110.5 -35t-33.5 -99v-32h306v-552v0z" />
    <glyph glyph-name="f_k" unicode="fk" horiz-adv-x="824" 
d="M415 656q-22 4 -43 6t-43 2q-66 0 -98 -28t-32 -90v-49h135v-70h-135v-427h-90v427h-102v70h102v57q0 84 55.5 133.5t173.5 49.5q38 0 81.5 -4t85.5 -11v-443l175 218h110l-191 -227l206 -270h-116l-184 256v-256h-90v656v0z" />
    <glyph glyph-name=".notdef" 
d="M450 100v350h-350v-350h350zM250 350v50h150v-250h-50v100h-100v50h100v50h-100zM50 50v450h450v-450h-450zM150 150v250h50v-200h100v-50h-150z" />
    <glyph glyph-name=".null" horiz-adv-x="0" 
 />
    <glyph glyph-name=".null" horiz-adv-x="0" 
 />
    <glyph glyph-name="nonmarkingreturn" unicode="&#xd;" horiz-adv-x="500" 
 />
    <glyph glyph-name="space" unicode=" " horiz-adv-x="218" 
 />
    <glyph glyph-name="space" unicode="&#xa0;" horiz-adv-x="218" 
 />
    <glyph glyph-name="exclam" unicode="!" horiz-adv-x="320" 
d="M229 50q0 -25 -17 -42t-43 -17t-43.5 17t-17.5 42t17.5 42t43.5 17t43 -17t17 -42zM207 168h-75l-16 535h106z" />
    <glyph glyph-name="quotedbl" unicode="&#x22;" horiz-adv-x="366" 
d="M132 469h-66l-14 230h95zM300 469h-67l-14 230h95z" />
    <glyph glyph-name="numbersign" unicode="#" 
d="M211 412l-17 -168h146l17 168h-146zM426 412l-17 -168h86v-62h-93l-19 -182h-69l20 182h-146l-20 -182h-68l19 182h-88v62h95l17 168h-88v62h94l19 176h68l-18 -176h146l19 176h68l-19 -176h87v-62h-93z" />
    <glyph glyph-name="dollar" unicode="$" 
d="M460 201q0 -33 -11.5 -62.5t-33 -53.5t-52.5 -41t-71 -24v-105h-67v101q-35 0 -65.5 3.5t-59.5 10.5l9 84q27 -11 63 -16.5t65 -5.5q55 0 92 23t37 74q0 32 -21 52t-52.5 34t-68 27.5t-68 33.5t-52.5 50t-21 79q0 32 11.5 60t32.5 50.5t50.5 37.5t65.5 20v97h67v-92
q29 -1 57 -4t51 -8l-10 -79q-57 17 -111 17q-35 0 -58.5 -8t-37.5 -20.5t-20.5 -28t-6.5 -31.5q0 -31 21 -50.5t53 -34t69 -28.5t69 -34t53 -50.5t21 -77.5z" />
    <glyph glyph-name="percent" unicode="%" horiz-adv-x="750" 
d="M261 502q0 51 -17 74t-55 23q-32 0 -51.5 -25.5t-19.5 -67.5q0 -99 74 -99q30 0 49.5 26t19.5 69zM632 146q0 50 -17 73.5t-55 23.5q-32 0 -51.5 -25.5t-19.5 -68.5q0 -98 74 -98q30 0 49.5 25.5t19.5 69.5zM335 509q0 -36 -11 -65.5t-30.5 -51t-47 -33.5t-61.5 -12
q-73 0 -107 40.5t-34 112.5q0 34 10.5 63.5t30 51t47.5 33.5t62 12q71 0 106 -38.5t35 -112.5zM154 -21l-58 42l497 648l58 -42zM706 153q0 -36 -11 -65.5t-30.5 -51.5t-47 -34t-61.5 -12q-73 0 -107 40.5t-34 112.5q0 34 10.5 63.5t30 51t47.5 33.5t62 12q71 0 106 -38.5
t35 -111.5z" />
    <glyph glyph-name="ampersand" unicode="&#x26;" horiz-adv-x="795" 
d="M476 136q-31 25 -63 53t-62 56.5t-56.5 55t-47.5 49.5q-53 -42 -76 -78t-23 -75q0 -26 10 -49.5t28.5 -41.5t45 -28.5t59.5 -10.5q60 0 106.5 20.5t78.5 48.5zM350 592q0 31 -18 53.5t-60 22.5q-35 0 -58 -22t-23 -57q0 -25 16 -55.5t57 -77.5q42 35 64 66.5t22 69.5z
M681 -19q-36 25 -74.5 53.5t-67.5 52.5q-49 -43 -115 -70t-149 -27q-54 0 -95 15t-68.5 41.5t-41.5 62.5t-14 77q0 68 38.5 118.5t100.5 98.5q-26 30 -44 54.5t-29 46t-15.5 41t-4.5 40.5q0 30 11.5 57.5t34 48.5t56 33t76.5 12q78 0 119 -38t41 -97q0 -51 -28.5 -97.5
t-96.5 -99.5q22 -23 48.5 -48.5t55 -52t58.5 -53t59 -49.5v-1q33 47 52.5 110t15.5 138h90q2 -85 -21.5 -161t-70.5 -136q38 -29 74 -55.5t63 -45.5z" />
    <glyph glyph-name="quotesingle" unicode="'" horiz-adv-x="199" 
d="M132 469h-66l-14 230h95z" />
    <glyph glyph-name="parenleft" unicode="(" horiz-adv-x="303" 
d="M216 -209q-44 70 -72.5 135t-45 126.5t-22.5 119t-6 112.5t7 114t24 122t45.5 128.5t70.5 132.5l65 -31q-61 -105 -92.5 -221.5t-31.5 -239.5q0 -255 125 -465z" />
    <glyph glyph-name="parenright" unicode=")" horiz-adv-x="303" 
d="M238 289q0 -55 -7 -114t-24 -122t-45 -129t-71 -133l-65 32q62 105 93 221.5t31 238.5q0 129 -30.5 244t-94.5 222l68 32q44 -70 72 -135t44.5 -126t22.5 -118.5t6 -112.5z" />
    <glyph glyph-name="asterisk" unicode="*" horiz-adv-x="374" 
d="M296 477l-90 66l11 -112h-67l11 112l-90 -66l-33 58l103 45l-103 46l34 58l90 -66l-11 112h67l-12 -112l91 66l33 -58l-103 -45l103 -46z" />
    <glyph glyph-name="plus" unicode="+" 
d="M317 260v-201h-85v201h-190v75h190v200h85v-200h191v-75h-191z" />
    <glyph glyph-name="comma" unicode="," horiz-adv-x="228" 
d="M112 113q28 0 45.5 -22t16 -58.5t-26.5 -85t-83 -101.5l-38 34q48 52 54 87t-11 57q-11 13 -12 28.5t5 29t19 22.5t31 9z" />
    <glyph glyph-name="hyphen" unicode="-" horiz-adv-x="330" 
d="M47 250v74h236v-74h-236z" />
    <glyph glyph-name="hyphen" unicode="&#xad;" horiz-adv-x="330" 
d="M47 250v74h236v-74h-236z" />
    <glyph glyph-name="period" unicode="." horiz-adv-x="228" 
d="M176 53q0 -26 -18 -44t-44 -18t-44 18t-18 44t18 44t44 18t44 -18t18 -44z" />
    <glyph glyph-name="slash" unicode="/" horiz-adv-x="438" 
d="M89 -161h-86l350 918h86z" />
    <glyph glyph-name="zero" unicode="0" 
d="M405 326q0 72 -8 121.5t-24 80t-41 43.5t-58 13q-28 0 -51.5 -13t-41 -42.5t-27.5 -77t-10 -117.5q0 -138 29 -202.5t101 -64.5q62 0 96.5 63t34.5 196zM502 332q0 -93 -20 -158.5t-52.5 -106t-74.5 -59t-86 -18.5q-54 0 -95 17.5t-69.5 57.5t-43 104.5t-14.5 158.5
q0 85 17.5 148t48.5 103.5t74 60.5t94 20q48 0 89 -16t70 -54t45.5 -101t16.5 -157z" />
    <glyph glyph-name="one" unicode="1" 
d="M74 0v81h175v478l-160 -63l-16 84l197 70h72v-569h154v-81h-422z" />
    <glyph glyph-name="two" unicode="2" 
d="M58 0v73l143 141q51 50 83 85.5t49 62.5t23 49t6 46q0 51 -33 86.5t-96 35.5q-45 0 -83.5 -15.5t-63.5 -35.5l-22 78q37 23 84 38t101 15q53 0 92.5 -15.5t66 -41.5t39.5 -59.5t13 -70.5q0 -32 -7 -61.5t-25 -61t-49 -67.5t-79 -82l-121 -115v-1q32 1 84.5 1.5t121.5 0.5
h99v-86h-426z" />
    <glyph glyph-name="three" unicode="3" 
d="M474 199q0 -48 -19.5 -86.5t-55 -66t-86 -42t-112.5 -14.5q-34 0 -66.5 4.5t-57.5 11.5l10 81q27 -9 58 -14.5t65 -5.5q82 0 124 33t42 87t-41 85t-121 31q-27 0 -49.5 -1t-48.5 -4v72h23q106 0 165 29t59 91q0 45 -33 70t-90 25q-42 0 -77 -10t-66 -27l-9 79
q35 14 76.5 23.5t91.5 9.5t88 -12t63.5 -33t38 -49.5t12.5 -61.5q0 -58 -32.5 -96.5t-91.5 -55.5l-1 -1q30 -3 56 -16t45 -33.5t29.5 -47t10.5 -55.5z" />
    <glyph glyph-name="four" unicode="4" 
d="M333 560h-1l-217 -331q22 1 53.5 1.5l63 1t58.5 0.5h43v328zM421 150v-150h-89v150h-302l-7 73l276 427h122v-418h107v-82h-107z" />
    <glyph glyph-name="five" unicode="5" 
d="M475 213q0 -50 -19.5 -91t-55 -70t-85 -45t-110.5 -16q-64 0 -120 13v83q28 -9 59.5 -14t67.5 -5q81 0 123.5 36t42.5 98q0 60 -46 91t-124 31q-32 0 -60.5 -2.5t-48.5 -5.5v334h352v-86h-268v-170q13 1 28.5 1.5t26.5 0.5q58 0 102.5 -14t74.5 -39t45 -58t15 -72z" />
    <glyph glyph-name="six" unicode="6" 
d="M413 204q0 58 -32.5 94.5t-96.5 36.5q-32 0 -56.5 -11.5t-41.5 -29.5t-26 -40t-9 -43q0 -30 8.5 -57t26 -47t43 -31.5t58.5 -11.5q60 0 93 39t33 101zM505 219q0 -52 -16 -94t-46 -72t-71.5 -46.5t-92.5 -16.5q-106 0 -166.5 71.5t-60.5 202.5q0 104 24.5 179t68.5 123
t105 70.5t134 22.5q16 0 32 -0.5t27 -2.5v-79q-15 2 -30.5 3.5t-35.5 1.5q-100 0 -154 -54.5t-74 -154.5q-2 -8 -4.5 -20.5t-4.5 -28.5h1q25 42 67.5 63.5t94.5 21.5q49 0 86.5 -15t63 -40.5t39 -60t13.5 -74.5z" />
    <glyph glyph-name="seven" unicode="7" 
d="M495 572q-38 -71 -73.5 -145t-67.5 -147.5t-59.5 -144.5t-49.5 -135h-105q25 68 54 140t61 144.5t66 143t70 136.5q-9 0 -35.5 -0.5t-62 -1t-75.5 -0.5h-74h-88v88h439v-78v0z" />
    <glyph glyph-name="eight" unicode="8" 
d="M401 158q0 27 -11 46.5t-29.5 35.5t-42.5 28.5t-50 24.5q-24 -13 -45.5 -27t-38 -30t-26.5 -34.5t-10 -41.5q0 -42 33.5 -69.5t96.5 -27.5q52 0 87.5 25t35.5 70zM387 494q0 45 -31 69.5t-83 24.5q-53 0 -81.5 -27t-28.5 -65q0 -20 7 -36t21.5 -30t36.5 -27t52 -28
q22 12 41.5 25t34 27t23 30.5t8.5 36.5zM495 167q0 -41 -17.5 -73.5t-47.5 -55.5t-71.5 -35.5t-89.5 -12.5q-49 0 -88.5 11.5t-67.5 33t-43.5 51.5t-15.5 67q0 31 11.5 56.5t30.5 46.5t44.5 38.5t52.5 33.5q-57 29 -90 66.5t-33 93.5q0 37 15 68.5t43 54.5t66.5 36t85.5 13
t84 -12t62.5 -33t39 -50t13.5 -63q0 -28 -10 -51t-27 -42.5t-39.5 -36t-47.5 -31.5q27 -14 52 -30t44.5 -36.5t31.5 -47t12 -60.5z" />
    <glyph glyph-name="nine" unicode="9" 
d="M394 440q0 63 -33.5 104.5t-98.5 41.5q-30 0 -53 -10.5t-39.5 -29.5t-25 -44t-8.5 -54q0 -61 33 -97t93 -36q32 0 56.5 10t41.5 27t25.5 39.5t8.5 48.5zM494 386q0 -107 -25 -182t-69.5 -122t-105.5 -69t-133 -22q-20 0 -40 1.5t-40 5.5v81q21 -5 44 -7.5t46 -2.5
q97 0 150.5 49t70.5 146q2 14 4 24.5t5 23.5h-1q-24 -35 -64 -54.5t-92 -19.5q-48 0 -85 15t-62.5 41t-38.5 62t-13 78q0 51 16.5 93t46.5 71.5t71 45.5t90 16q51 0 92.5 -16t71 -49.5t45.5 -85t16 -123.5z" />
    <glyph glyph-name="colon" unicode=":" horiz-adv-x="286" 
d="M220 53q0 -26 -18 -44t-44 -18t-44 18t-18 44t18 44t44 18t44 -18t18 -44zM220 346q0 -26 -18 -44t-44 -18t-44 18t-18 44t18 44t44 18t44 -18t18 -44z" />
    <glyph glyph-name="semicolon" unicode=";" horiz-adv-x="286" 
d="M157 113q28 0 45.5 -22t16 -58.5t-26.5 -85t-83 -101.5l-38 34q48 52 54 87t-11 57q-11 13 -12 28.5t5 29t19 22.5t31 9zM220 346q0 -26 -18 -44t-44 -18t-44 18t-18 44t18 44t44 18t44 -18t18 -44z" />
    <glyph glyph-name="semicolon" unicode="&#x37e;" horiz-adv-x="286" 
d="M157 113q28 0 45.5 -22t16 -58.5t-26.5 -85t-83 -101.5l-38 34q48 52 54 87t-11 57q-11 13 -12 28.5t5 29t19 22.5t31 9zM220 346q0 -26 -18 -44t-44 -18t-44 18t-18 44t18 44t44 18t44 -18t18 -44z" />
    <glyph glyph-name="less" unicode="&#x3c;" 
d="M388 19l-316 283l316 284l58 -58l-259 -225l259 -222z" />
    <glyph glyph-name="equal" unicode="=" 
d="M56 175v74h438v-74h-438zM56 346v74h438v-74h-438z" />
    <glyph glyph-name="greater" unicode="&#x3e;" 
d="M162 19l-58 58l259 225l-259 222l58 62l316 -283z" />
    <glyph glyph-name="question" unicode="?" horiz-adv-x="445" 
d="M252 50q0 -25 -17.5 -42t-43.5 -17t-43 17t-17 42t17 42t43 17t43.5 -17t17.5 -42zM385 516q0 -41 -15 -70t-36 -52.5t-44.5 -44.5t-40.5 -46t-23 -57t8 -78h-87q-16 49 -12 85.5t19.5 64t38 49.5t43.5 43t35.5 44t14.5 53q0 50 -54 83.5t-148 37.5l11 82q70 -2 124 -19
t91 -43.5t56 -60.5t19 -71z" />
    <glyph glyph-name="at" unicode="@" horiz-adv-x="978" 
d="M566 463q-24 6 -58 6q-35 0 -59.5 -19t-41 -47t-24 -61.5t-7.5 -61.5q0 -77 43 -77q18 0 38 12.5t38.5 38.5t34 64.5t25.5 91.5l11 53v0zM883 406q0 -67 -17.5 -118.5t-48 -87t-72 -53.5t-89.5 -18q-31 0 -52.5 9.5t-34 24.5t-17 34.5t-1.5 40.5h-3q-6 -15 -20 -34
t-34 -35.5t-44.5 -28t-51.5 -11.5q-49 0 -73.5 34.5t-24.5 100.5q0 55 14 104t42.5 85.5t71 57.5t99.5 21q34 0 66.5 -4t55.5 -10l-38 -213q-10 -54 5.5 -78t53.5 -24q28 0 52 12.5t41.5 37t27.5 61.5t10 87q0 49 -15.5 95.5t-49 83t-87.5 59t-130 22.5q-73 0 -137 -27
t-111 -76t-74.5 -116.5t-27.5 -148.5q0 -70 19.5 -126.5t58.5 -96t97 -60.5t134 -21q45 0 85.5 6.5t82.5 19.5l13 -73q-45 -14 -96.5 -21t-95.5 -7q-91 0 -162 26t-119.5 73.5t-74 115.5t-25.5 152q0 99 35 182t94.5 143t139 93.5t169.5 33.5q91 0 158.5 -27t112 -72
t66.5 -104t22 -124z" />
    <glyph glyph-name="A" unicode="A" horiz-adv-x="615" 
d="M333 480q-9 25 -16 47.5t-13 44.5h-2q-6 -22 -13 -44.5t-15 -46.5l-90 -250h239zM503 0l-56 158h-287l-56 -158h-94l246 675h102l248 -675h-103z" />
    <glyph glyph-name="B" unicode="B" horiz-adv-x="570" 
d="M422 199q0 33 -14 55t-38 35.5t-57.5 19t-72.5 5.5h-30t-33 -1v-236q28 -5 86 -5q83 0 121 35.5t38 91.5zM402 501q0 22 -6.5 41t-22 33t-41.5 21.5t-65 7.5q-24 0 -47 -0.5t-43 -1.5v-218q14 -1 28 -1h33q84 0 124 31t40 87zM519 202q0 -30 -11 -66t-40.5 -67t-80 -51.5
t-129.5 -20.5q-30 0 -76.5 1t-96.5 2v675q37 1 86.5 2t110.5 1q109 0 162.5 -43t53.5 -119q0 -54 -30.5 -96t-85.5 -61v-2q35 -6 61 -21t43 -36t25 -46.5t8 -51.5z" />
    <glyph glyph-name="C" unicode="C" horiz-adv-x="583" 
d="M538 28q-38 -16 -86 -26t-99 -10q-81 0 -139.5 24.5t-95.5 68.5t-54.5 104t-17.5 132q0 77 19.5 143t60 114t102.5 75.5t148 27.5q39 0 79 -5t76 -16l-15 -84q-35 12 -73.5 19t-76.5 7q-58 0 -99.5 -21t-68.5 -57t-39.5 -84.5t-12.5 -103.5q0 -125 55.5 -193.5
t173.5 -68.5q37 0 77.5 9.5t70.5 24.5l15 -80v0z" />
    <glyph glyph-name="D" unicode="D" horiz-adv-x="678" 
d="M535 339q0 130 -62.5 197t-194.5 67q-26 0 -54 -1t-47 -2v-520q19 -3 44 -4.5t45 -1.5q59 0 108.5 15.5t85 48t55.5 82.5t20 119zM632 345q0 -87 -27.5 -152t-77.5 -109t-119 -66t-152 -22q-51 0 -92 2t-79 2v674q39 1 92.5 2.5t109.5 1.5q81 0 145 -19.5t108.5 -60
t68 -103.5t23.5 -150z" />
    <glyph glyph-name="E" unicode="E" horiz-adv-x="501" 
d="M85 0v675h347v-76h-255v-214h243v-74h-243v-234h255v-77h-347z" />
    <glyph glyph-name="F" unicode="F" horiz-adv-x="469" 
d="M177 599v-219h239v-74h-239v-306h-92v675h344v-76h-252z" />
    <glyph glyph-name="G" unicode="G" horiz-adv-x="682" 
d="M601 30q-51 -19 -109 -29t-114 -10q-77 0 -138.5 22.5t-105.5 65.5t-67.5 105t-23.5 140t25 144t72 114t114.5 75t151.5 27q50 0 96.5 -7.5t90.5 -21.5l-20 -83q-42 16 -85.5 24.5t-89.5 8.5q-52 0 -98.5 -17t-82 -50.5t-56 -84.5t-20.5 -118q0 -63 17.5 -112t50.5 -83
t79 -51.5t103 -17.5q34 0 63 5t56 13v255h91v-314v0z" />
    <glyph glyph-name="H" unicode="H" horiz-adv-x="698" 
d="M521 0v311h-344v-311h-92v675h92v-286h344v286h92v-675h-92z" />
    <glyph glyph-name="I" unicode="I" horiz-adv-x="262" 
d="M85 0v675h92v-675h-92z" />
    <glyph glyph-name="J" unicode="J" horiz-adv-x="329" 
d="M245 176q0 -84 -38.5 -133.5t-130.5 -49.5q-41 0 -75 8v80q14 -5 32 -8t37 -3q20 0 35.5 5t26 17.5t16 34t5.5 55.5v493h92v-499v0z" />
    <glyph glyph-name="K" unicode="K" horiz-adv-x="584" 
d="M444 0l-267 334v-334h-92v675h92v-318l268 318h113l-285 -326l296 -349h-125z" />
    <glyph glyph-name="L" unicode="L" horiz-adv-x="426" 
d="M85 0v675h92v-596h242v-79h-334z" />
    <glyph glyph-name="M" unicode="M" horiz-adv-x="889" 
d="M744 0l-57 390q-8 54 -13 95t-8 71h-2q-5 -24 -13 -54.5t-20 -67.5l-145 -434h-98l-137 406q-14 41 -24.5 78t-18.5 72h-1q-3 -42 -8 -83.5t-11 -91.5l-46 -381h-94l99 675h113l142 -425q9 -27 19.5 -62t18.5 -72h2q9 35 17.5 65t19.5 63l146 431h114l102 -675h-97z" />
    <glyph glyph-name="N" unicode="N" horiz-adv-x="707" 
d="M502 0l-257 418q-23 37 -41.5 71.5t-35.5 68.5q1 -27 2.5 -68.5t2.5 -89t1.5 -95.5t0.5 -88v-217h-90v675h121l251 -405q23 -36 43.5 -74t39.5 -74q-2 31 -3 75.5t-2 94t-1.5 99.5t-0.5 92v192h89v-675h-120z" />
    <glyph glyph-name="O" unicode="O" horiz-adv-x="705" 
d="M565 334q0 131 -55.5 200.5t-157.5 69.5q-42 0 -80.5 -17t-67.5 -50t-46.5 -81.5t-17.5 -112.5q0 -60 13 -110t39 -86t65.5 -55.5t93.5 -19.5q41 0 79.5 16.5t68.5 49.5t48 82t18 114zM663 345q0 -84 -25.5 -150t-69 -111.5t-101.5 -69.5t-124 -24q-76 0 -132.5 24.5
t-94 69t-56 107t-18.5 139.5q0 84 25 150t68.5 111.5t102 69.5t124.5 24q68 0 123.5 -22t95 -65t61 -106.5t21.5 -146.5z" />
    <glyph glyph-name="P" unicode="P" horiz-adv-x="524" 
d="M396 472q0 63 -37.5 97t-117.5 34h-35q-15 0 -29 -1v-266q13 -2 27 -3t28 -1q75 1 119.5 38.5t44.5 101.5zM492 481q0 -50 -19.5 -91t-54 -71t-82.5 -46.5t-105 -16.5h-27q-13 0 -27 2v-258h-92v675q38 2 79 3t87 1q117 0 179 -53.5t62 -144.5z" />
    <glyph glyph-name="Q" unicode="Q" horiz-adv-x="704" 
d="M565 334q0 131 -55.5 200.5t-157.5 69.5q-42 0 -80.5 -17t-67.5 -50t-46.5 -81.5t-17.5 -112.5q0 -60 13 -110t39 -86t65.5 -55.5t93.5 -19.5q41 0 79.5 16.5t68.5 49.5t48 82t18 114zM703 -185q-65 -9 -113 -2.5t-90.5 16.5t-84.5 17.5t-95 0.5v81q41 5 74 3t62.5 -7
t57 -12t56.5 -12t61.5 -7t71.5 4v-82v0zM663 345q0 -84 -25.5 -150t-69 -111.5t-101.5 -69.5t-124 -24q-76 0 -132.5 24.5t-94 69t-56 107t-18.5 139.5q0 84 25 150t68.5 111.5t102 69.5t124.5 24q68 0 123.5 -22t95 -65t61 -106.5t21.5 -146.5z" />
    <glyph glyph-name="R" unicode="R" horiz-adv-x="553" 
d="M387 491q0 61 -37.5 87t-111.5 26q-17 0 -32 -0.5t-29 -1.5v-230q8 -1 22.5 -1.5t34.5 -0.5q73 0 113 33.5t40 87.5zM410 0l-221 303h-12v-303h-92v675q35 2 74 3t95 1q50 0 92 -9.5t72.5 -30.5t47.5 -54.5t17 -81.5q0 -43 -16 -77t-43 -58t-63 -38t-76 -17
q14 -18 29.5 -36.5t28.5 -35.5l184 -241h-117z" />
    <glyph glyph-name="S" unicode="S" horiz-adv-x="503" 
d="M455 198q0 -45 -18 -83t-50.5 -65.5t-78.5 -43t-103 -15.5q-42 0 -79 5t-69 14l11 88q32 -13 68 -20t74 -7q29 0 55.5 6.5t46.5 20t32 35.5t12 53q0 38 -22.5 60.5t-56.5 39t-73.5 30.5t-73.5 35.5t-56.5 54.5t-22.5 87q0 42 15.5 77t45.5 60.5t74 39.5t101 14
q29 0 61 -3t61 -10l-11 -81q-27 8 -57 13t-59 5q-69 0 -102.5 -28.5t-33.5 -76.5q0 -36 23 -58.5t57 -38.5t74.5 -30.5t74.5 -36.5t57 -55t23 -86z" />
    <glyph glyph-name="T" unicode="T" horiz-adv-x="516" 
d="M304 598v-598h-92v598h-194v77h481v-77h-195z" />
    <glyph glyph-name="U" unicode="U" horiz-adv-x="693" 
d="M607 258q0 -134 -68 -201t-201 -67q-79 0 -128.5 20t-77 53.5t-37.5 76t-10 87.5v448h92v-441q0 -35 7 -65.5t25.5 -53.5t51 -36t83.5 -13q88 0 130.5 41.5t42.5 143.5v424h90v-417v0z" />
    <glyph glyph-name="V" unicode="V" horiz-adv-x="618" 
d="M357 0h-103l-243 675h102l151 -434q10 -29 22 -66t21 -72h2q9 35 21 72t26 73l155 427h94z" />
    <glyph glyph-name="W" unicode="W" horiz-adv-x="952" 
d="M740 0h-113l-129 454q-8 29 -14 58.5t-11 58.5h-1q-7 -57 -24 -116l-126 -455h-110l-178 675h98l114 -440q9 -34 15.5 -65.5t11.5 -64.5h1q11 66 27 125l125 445h104l129 -449q8 -26 15 -57t12 -62h1q5 29 10.5 56t12.5 54l117 458h91z" />
    <glyph glyph-name="X" unicode="X" horiz-adv-x="599" 
d="M467 0l-172 279l-171 -279h-107l222 348l-208 327h106l160 -258l157 258h104l-205 -324l229 -351h-115z" />
    <glyph glyph-name="Y" unicode="Y" horiz-adv-x="537" 
d="M312 243v-243h-92v243l-211 432h101l107 -228q28 -60 51 -117h1q12 31 27 63.5t31 65.5l104 216h96z" />
    <glyph glyph-name="Z" unicode="Z" horiz-adv-x="539" 
d="M46 0v68l283 446q14 22 27 41.5t28 39.5q-24 -1 -59.5 -1.5t-87.5 -0.5h-181v82h435v-70l-298 -464q-10 -15 -19.5 -29.5t-20.5 -29.5q16 2 59 2h109h174v-84h-449z" />
    <glyph glyph-name="bracketleft" unicode="[" horiz-adv-x="322" 
d="M86 -199v970h198v-69h-114v-830h114v-71h-198z" />
    <glyph glyph-name="backslash" unicode="\" horiz-adv-x="442" 
d="M361 -161l-350 918h87l350 -918h-87z" />
    <glyph glyph-name="bracketright" unicode="]" horiz-adv-x="322" 
d="M38 -199v71h114v830h-114v69h198v-970h-198z" />
    <glyph glyph-name="asciicircum" unicode="^" 
d="M408 343l-144 265l-138 -265l-62 33l165 299h73l172 -298z" />
    <glyph glyph-name="underscore" unicode="_" 
d="M0 -249v71h550v-71h-550z" />
    <glyph glyph-name="grave" unicode="`" horiz-adv-x="369" 
d="M231 570l-150 114l49 60l140 -125z" />
    <glyph glyph-name="a" unicode="a" horiz-adv-x="521" 
d="M345 233q-62 0 -102.5 -8t-64.5 -21t-34 -30t-10 -36q0 -33 20.5 -54.5t55.5 -21.5q30 0 55 13.5t43 36t27.5 51t9.5 57.5v13zM350 0q0 26 0.5 52t4.5 47h-2q-18 -46 -62.5 -77t-106.5 -31t-100 37t-38 97q0 81 78 126t221 45v33q0 52 -23.5 79.5t-85.5 27.5
q-35 0 -74.5 -10t-69.5 -27l-19 73q36 15 82.5 25t94.5 10q54 0 89.5 -12t57 -33.5t30 -52t8.5 -66.5v-200q0 -35 0.5 -73t1.5 -70h-87z" />
    <glyph glyph-name="b" unicode="b" horiz-adv-x="558" 
d="M421 264q0 81 -26.5 124.5t-83.5 43.5q-34 0 -59.5 -18t-42.5 -45.5t-25.5 -61.5t-8.5 -66v-165q20 -6 41 -9t47 -3q36 0 65 11t49.5 35t32 62t11.5 92zM515 272q0 -65 -18 -117t-51.5 -88t-81.5 -55t-108 -19q-52 0 -91.5 4.5t-79.5 15.5v717h90v-241q0 -22 -2 -48
t-7 -45l2 -1q20 53 63.5 82t100.5 29q88 0 135.5 -59.5t47.5 -174.5z" />
    <glyph glyph-name="c" unicode="c" horiz-adv-x="435" 
d="M407 19q-32 -13 -71 -20t-77 -7q-45 0 -84.5 12t-69 39.5t-47 73.5t-17.5 115q0 60 15.5 110t45.5 86.5t75.5 56.5t105.5 20q34 0 65 -5.5t57 -15.5l-17 -77q-23 10 -52.5 16.5t-60.5 6.5q-34 0 -60 -13.5t-43.5 -38.5t-26.5 -59t-9 -75q0 -36 6.5 -68t22.5 -55.5
t43.5 -37t68.5 -13.5q65 0 116 24l14 -75v0z" />
    <glyph glyph-name="d" unicode="d" horiz-adv-x="557" 
d="M382 422q-23 6 -45 8.5t-43 2.5q-36 0 -65 -11t-49.5 -35t-32 -62t-11.5 -92q0 -81 26.5 -124.5t83.5 -43.5q34 0 59.5 18t42.5 45.5t25.5 61.5t8.5 67v165zM385 0q0 21 1.5 50t6.5 51l-2 1q-21 -51 -64.5 -81t-102.5 -30q-92 0 -137.5 62.5t-45.5 171.5q0 65 18 117
t51.5 88t81 55t106.5 19q20 0 40.5 -1.5t43.5 -3.5v231h90v-730h-87z" />
    <glyph glyph-name="e" unicode="e" horiz-adv-x="508" 
d="M370 315q2 57 -28 91t-83 34q-49 0 -81.5 -34t-40.5 -91h233v0zM462 297q0 -16 -3 -46h-325q-3 -98 37 -142.5t120 -44.5q36 0 72.5 7.5t69.5 22.5l13 -72q-38 -15 -81.5 -23t-90.5 -8q-114 0 -173.5 61.5t-59.5 193.5q0 56 15 103.5t43.5 82.5t69.5 54.5t94 19.5
q52 0 90 -16.5t62 -45t35.5 -66.5t11.5 -81z" />
    <glyph glyph-name="f" unicode="f" horiz-adv-x="350" 
d="M374 652q-17 6 -36 8.5t-37 2.5q-54 0 -78 -31t-24 -97v-38h138v-70h-138v-427h-90v427h-102v70h102v37q0 103 48.5 152.5t142.5 49.5q41 0 82 -9z" />
    <glyph glyph-name="g" unicode="g" horiz-adv-x="541" 
d="M421 -78q0 36 -24.5 57t-77.5 23l-96 4h-15t-14 1q-29 -20 -46.5 -44.5t-17.5 -53.5q0 -45 37.5 -69.5t96.5 -24.5q76 0 116.5 30.5t40.5 76.5zM375 328q0 51 -29 81t-83 30q-57 0 -87.5 -31.5t-30.5 -79.5q0 -52 29.5 -80.5t85.5 -28.5q54 0 84.5 28.5t30.5 80.5z
M512 -67q0 -39 -19 -73.5t-54 -60t-83.5 -40.5t-106.5 -15q-97 0 -153 38.5t-56 110.5q0 44 24.5 78.5t58.5 53.5q-23 10 -36 29.5t-13 44.5q0 26 15 49t40 35q-34 20 -53.5 54t-19.5 83q0 37 14 71t40.5 59.5t66 40.5t90.5 15q20 0 35.5 -2t34.5 -7h169v-71h-82
q19 -15 29.5 -39t10.5 -53q0 -38 -13 -71t-39 -57t-65.5 -38t-92.5 -14q-28 0 -53 7q-16 -8 -24 -19t-8 -23q0 -21 20 -29t65 -10l91 -3q81 -3 124 -39.5t43 -104.5z" />
    <glyph glyph-name="h" unicode="h" horiz-adv-x="575" 
d="M401 0v320q0 54 -17.5 83t-67.5 29q-31 0 -57 -15t-44.5 -41t-29 -61.5t-10.5 -76.5v-238h-90v730h90v-236q0 -24 -2 -51.5t-7 -47.5l2 -1q22 51 66 81.5t107 30.5q43 0 71.5 -12.5t46 -34t25 -50.5t7.5 -62v-347h-90z" />
    <glyph glyph-name="i" unicode="i" horiz-adv-x="260" 
d="M85 0v497h90v-497h-90zM190 654q0 -24 -17.5 -41t-42.5 -17t-42.5 16.5t-17.5 41.5t17.5 42t42.5 17t42.5 -17t17.5 -42z" />
    <glyph glyph-name="j" unicode="j" horiz-adv-x="266" 
d="M181 -55q0 -50 -8.5 -87.5t-28.5 -62t-52.5 -37t-81.5 -12.5q-17 0 -35.5 2t-33.5 7l8 79q14 -5 30.5 -8.5t32.5 -3.5q23 0 38.5 5.5t24.5 18.5t13 35.5t4 55.5v560h89v-552v0zM196 654q0 -24 -17.5 -41t-41.5 -17q-25 0 -42.5 16.5t-17.5 41.5t17.5 42t42.5 17
q24 0 41.5 -17t17.5 -42z" />
    <glyph glyph-name="k" unicode="k" horiz-adv-x="493" 
d="M359 0l-184 256v-256h-90v730h90v-451l175 218h109l-191 -227l206 -270h-115z" />
    <glyph glyph-name="l" unicode="l" horiz-adv-x="260" 
d="M85 0v730h90v-730h-90z" />
    <glyph glyph-name="m" unicode="m" horiz-adv-x="879" 
d="M704 0v319q0 51 -16 82t-65 31q-27 0 -52 -13.5t-44.5 -39t-31 -62t-11.5 -81.5v-236h-89v319q0 24 -3 44.5t-12 35.5t-25 24t-41 9q-29 0 -54 -14.5t-44 -40.5t-30 -62t-11 -79v-236h-90v497h87q0 -23 -1.5 -52.5t-6.5 -52.5l2 -1q22 53 67.5 84t105.5 31q39 0 65 -12
t41.5 -29t22 -37t8.5 -35q8 18 22 37.5t35 36.5t49 28t64 11q71 0 109.5 -39t38.5 -124v-343h-90z" />
    <glyph glyph-name="n" unicode="n" horiz-adv-x="575" 
d="M401 0v320q0 54 -17.5 83t-67.5 29q-31 0 -57 -15t-44.5 -41t-29 -61.5t-10.5 -76.5v-238h-90v497h87q0 -23 -1.5 -52.5t-6.5 -52.5h2q22 51 66.5 82.5t108.5 31.5q43 0 71.5 -12.5t46 -34t25 -50.5t7.5 -62v-347h-90z" />
    <glyph glyph-name="o" unicode="o" horiz-adv-x="545" 
d="M411 252q0 85 -34.5 132t-103.5 47q-27 0 -52.5 -10.5t-45 -32.5t-31 -55.5t-11.5 -79.5q0 -91 35.5 -138.5t104.5 -47.5q28 0 53 11t44 34t30 57.5t11 82.5zM505 257q0 -56 -17.5 -104.5t-49 -84.5t-76.5 -56.5t-100 -20.5q-51 0 -92 15t-70 46t-45 78.5t-16 113.5
q0 55 16.5 102.5t48 83t76.5 56t101 20.5q48 0 89 -13.5t71 -43.5t47 -77.5t17 -114.5z" />
    <glyph glyph-name="p" unicode="p" horiz-adv-x="558" 
d="M421 264q0 81 -26.5 124.5t-83.5 43.5q-34 0 -59.5 -18t-42.5 -45.5t-25.5 -61.5t-8.5 -67v-164q39 -12 88 -12q36 0 65 11t49.5 35t32 62t11.5 92zM515 272q0 -134 -67.5 -206t-188.5 -72q-23 0 -42.5 1t-41.5 5v-247h-90v744h87q0 -21 -1.5 -50.5t-6.5 -50.5l2 -1
q21 52 64 81.5t103 29.5q88 0 135 -59.5t47 -174.5z" />
    <glyph glyph-name="q" unicode="q" horiz-adv-x="558" 
d="M384 423q-43 10 -89 10q-71 0 -114 -46.5t-43 -153.5q0 -81 26 -124.5t83 -43.5q34 0 59.5 18t42.5 45.5t26 62t9 67.5v165zM384 -247v258q0 17 1 41.5t6 47.5l-2 1q-20 -51 -63 -80.5t-99 -29.5q-88 0 -136 58t-48 175q0 132 69 206.5t193 74.5q45 0 87.5 -4t80.5 -10
v-738h-89z" />
    <glyph glyph-name="r" unicode="r" horiz-adv-x="355" 
d="M330 417q-79 14 -117 -41.5t-38 -175.5v-200h-90v497h87q0 -23 -2.5 -55t-8.5 -63h2q8 26 21.5 50.5t34.5 42.5t49.5 28t65.5 6z" />
    <glyph glyph-name="s" unicode="s" horiz-adv-x="425" 
d="M375 150q0 -34 -14.5 -63t-41.5 -50.5t-66 -33.5t-88 -12q-29 0 -58 3t-52 10l8 80q24 -10 53 -15t57 -5q48 0 78 20.5t30 55.5q0 28 -17 43t-43 24.5t-55.5 17.5t-55.5 23t-43 40t-17 69q0 64 49.5 106.5t148.5 42.5q23 0 48 -2.5t48 -7.5l-7 -74q-22 8 -47 11.5
t-50 3.5q-50 0 -73.5 -19.5t-23.5 -51.5q0 -28 17 -42.5t43 -24.5t56 -19t56 -23.5t43 -39.5t17 -67z" />
    <glyph glyph-name="t" unicode="t" horiz-adv-x="371" 
d="M338 3q-22 -5 -49 -8t-51 -3q-38 0 -63.5 8t-41 26t-22 46.5t-6.5 68.5v286h-102v70h102v161l90 25v-186h139v-70h-139v-254q0 -31 3 -51t11.5 -32t22 -16.5t34.5 -4.5q34 0 63 8l9 -74v0z" />
    <glyph glyph-name="u" unicode="u" horiz-adv-x="575" 
d="M403 0q0 23 2 52.5t6 52.5h-2q-22 -51 -66.5 -82.5t-108.5 -31.5q-43 0 -71.5 12.5t-46 34t-24.5 50.5t-7 62v347h89v-320q0 -54 18 -83t67 -29q31 0 57 15t45 41t29.5 61.5t10.5 76.5v238h89v-497h-87z" />
    <glyph glyph-name="v" unicode="v" horiz-adv-x="486" 
d="M288 0h-93l-187 497h101l105 -296q8 -24 15.5 -47.5t13.5 -46.5h2q6 22 13 45t15 46l108 299h97z" />
    <glyph glyph-name="w" unicode="w" horiz-adv-x="793" 
d="M616 0h-101l-99 293q-8 23 -14.5 48t-13.5 51h-1q-8 -33 -16.5 -63t-18.5 -62l-83 -267h-100l-153 497h99l76 -265q10 -35 19 -68t17 -62h1q8 33 16 65t18 63l85 267h96l86 -264q7 -23 13 -41.5t10.5 -33.5t8 -29t6.5 -28h1q8 32 15.5 61t18.5 67l80 268h95z" />
    <glyph glyph-name="x" unicode="x" horiz-adv-x="518" 
d="M382 0l-126 191l-126 -191h-109l183 249l-174 248h110l123 -187l125 187h101l-171 -245l180 -252h-116z" />
    <glyph glyph-name="y" unicode="y" horiz-adv-x="480" 
d="M268 -42q-23 -60 -46.5 -101t-51.5 -65.5t-61 -35.5t-75 -11q-14 0 -30 2t-28 4l10 80q12 -4 29 -6t31 -2q19 0 37 5.5t34.5 19.5t31 37.5t28.5 60.5l20 54l-188 497h102l94 -258q12 -34 21 -64t17 -59h2q3 13 8.5 31t12 38t14 41.5t14.5 42.5l80 228h98z" />
    <glyph glyph-name="z" unicode="z" horiz-adv-x="447" 
d="M48 0v63l238 356q-21 -1 -55.5 -1.5t-75.5 -0.5h-102v80h338v-63l-235 -353q10 0 26 0.5t35 1t38 0.5h36h105v-83h-348z" />
    <glyph glyph-name="braceleft" unicode="{" horiz-adv-x="341" 
d="M291 -199q-86 0 -121 48.5t-35 146.5v175q0 59 -24 83t-82 27v71q30 1 50 7t32.5 18t18 32.5t5.5 50.5v117q0 43 8 79t26 61.5t48 39.5t74 14h18v-69q-26 0 -43.5 -6t-28 -20t-15 -37.5t-4.5 -58.5v-116q0 -67 -23.5 -102.5t-69.5 -43.5v-2q45 -7 69 -44.5t24 -103.5
v-174q0 -35 4.5 -58.5t15 -37.5t28 -20t43.5 -6v-71h-18z" />
    <glyph glyph-name="bar" unicode="|" horiz-adv-x="285" 
d="M106 -247v1000h71v-1000h-71z" />
    <glyph glyph-name="braceright" unicode="}" horiz-adv-x="338" 
d="M318 281q-58 -3 -82 -27t-24 -83v-175q0 -98 -35 -146.5t-121 -48.5h-18v71q26 0 43.5 6t28 20t15 37.5t4.5 58.5v174q0 66 24 103.5t69 44.5v2q-93 12 -93 142v120q0 35 -4.5 58.5t-15 37.5t-28 20t-43.5 6v69h18q44 0 74 -14t48 -39.5t26 -61.5t8 -79v-113
q0 -32 5.5 -53t18 -33.5t32.5 -18.5t50 -7v-71v0z" />
    <glyph glyph-name="asciitilde" unicode="~" 
d="M497 564q0 -65 -35.5 -105.5t-97.5 -40.5q-42 0 -65.5 17t-41 38t-33.5 38t-42 17q-32 0 -46 -24.5t-15 -64.5h-67v10q0 66 36 106.5t98 40.5q28 0 47.5 -8t33.5 -20.5t25 -27t22 -27t23.5 -20.5t30.5 -8q31 0 45 24.5t15 64.5h67v-10v0z" />
    <glyph glyph-name="Euro" 
d="M514 24q-38 -17 -81.5 -25.5t-82.5 -8.5q-109 0 -172 55.5t-79 176.5h-88v60h83q-1 8 -1 16v16q0 14 0.5 28.5t1.5 28.5h-84v60h93q9 50 29.5 92t53 72.5t77.5 47.5t105 17q35 0 72 -8t64 -19l-22 -72q-25 11 -58 18.5t-68 7.5q-36 0 -63 -12t-46.5 -33t-31.5 -49.5
t-19 -61.5h190v-60h-200q0 -11 -0.5 -22.5t-0.5 -24.5v-22q0 -10 1 -20h200v-60h-193q13 -79 54 -117.5t119 -38.5q30 0 63.5 7.5t62.5 20.5l21 -70v0z" />
    <glyph glyph-name="Euro" unicode="&#x20ac;" 
d="M514 24q-38 -17 -81.5 -25.5t-82.5 -8.5q-109 0 -172 55.5t-79 176.5h-88v60h83q-1 8 -1 16v16q0 14 0.5 28.5t1.5 28.5h-84v60h93q9 50 29.5 92t53 72.5t77.5 47.5t105 17q35 0 72 -8t64 -19l-22 -72q-25 11 -58 18.5t-68 7.5q-36 0 -63 -12t-46.5 -33t-31.5 -49.5
t-19 -61.5h190v-60h-200q0 -11 -0.5 -22.5t-0.5 -24.5v-22q0 -10 1 -20h200v-60h-193q13 -79 54 -117.5t119 -38.5q30 0 63.5 7.5t62.5 20.5l21 -70v0z" />
    <glyph glyph-name="Zcaron" horiz-adv-x="539" 
d="M46 0v68l283 446q14 22 27 41.5t28 39.5q-24 -1 -59.5 -1.5t-87.5 -0.5h-181v82h435v-70l-298 -464q-10 -15 -19.5 -29.5t-20.5 -29.5q16 2 59 2h109h174v-84h-449zM274 724l-160 83l27 50l135 -63l132 63l23 -48z" />
    <glyph glyph-name="Zcaron" unicode="&#x17d;" horiz-adv-x="539" 
d="M46 0v68l283 446q14 22 27 41.5t28 39.5q-24 -1 -59.5 -1.5t-87.5 -0.5h-181v82h435v-70l-298 -464q-10 -15 -19.5 -29.5t-20.5 -29.5q16 2 59 2h109h174v-84h-449zM274 724l-160 83l27 50l135 -63l132 63l23 -48z" />
    <glyph glyph-name="zcaron" horiz-adv-x="447" 
d="M48 0v63l238 356q-21 -1 -55.5 -1.5t-75.5 -0.5h-102v80h338v-63l-235 -353q10 0 26 0.5t35 1t38 0.5h36h105v-83h-348zM224 570l-139 130l40 44l100 -85l100 85l38 -42z" />
    <glyph glyph-name="zcaron" unicode="&#x17e;" horiz-adv-x="447" 
d="M48 0v63l238 356q-21 -1 -55.5 -1.5t-75.5 -0.5h-102v80h338v-63l-235 -353q10 0 26 0.5t35 1t38 0.5h36h105v-83h-348zM224 570l-139 130l40 44l100 -85l100 85l38 -42z" />
    <glyph glyph-name="exclamdown" unicode="&#xa1;" horiz-adv-x="320" 
d="M97 -206l15 535h76l16 -535h-107zM211 447q0 -25 -17 -42t-43 -17t-43 17t-17 42t17 42t43 17t43 -17t17 -42z" />
    <glyph glyph-name="cent" unicode="&#xa2;" 
d="M470 136q-28 -14 -59 -22.5t-63 -10.5v-103h-70v103q-97 6 -148 64t-51 162q0 95 52.5 155t146.5 76v90h70v-87q27 -1 57 -6.5t57 -16.5l-17 -75q-25 11 -54 18t-61 7q-72 0 -114.5 -40t-42.5 -118q0 -34 8.5 -62t27.5 -48.5t48 -32t71 -11.5q32 0 63 8t56 22l23 -72v0z
" />
    <glyph glyph-name="sterling" unicode="&#xa3;" 
d="M73 0v62q46 39 70 75t24 78q0 17 -2 35.5t-5 36.5h-106v70h96q-5 28 -8.5 56t-3.5 54q0 103 53.5 148t144.5 45q25 0 58 -4.5t62 -12.5l-20 -77q-24 8 -52 14t-55 6q-100 0 -100 -109q0 -29 4 -59.5t9 -60.5h159v-70h-150q6 -35 6 -67q0 -45 -19 -78t-57 -66
q17 1 37.5 1.5t43.5 0.5h218v-78h-407z" />
    <glyph glyph-name="currency" unicode="&#xa4;" 
d="M376 334q0 50 -23.5 82t-80.5 32q-41 0 -69.5 -31t-28.5 -86q0 -25 5.5 -46.5t17.5 -38t31.5 -26t48.5 -9.5q39 0 69 32t30 91zM435 60l-80 108q-39 -24 -88 -24q-37 0 -68 13l-72 -97l-67 49l73 90q-19 22 -29.5 54t-10.5 76q0 77 45 125l-78 96l66 48l74 -101
q18 10 39 14t43 4q19 0 39.5 -3.5t40.5 -13.5l75 101l64 -49l-77 -97q15 -20 24 -49t9 -69q0 -36 -10.5 -67t-29.5 -54l84 -104z" />
    <glyph glyph-name="yen" unicode="&#xa5;" 
d="M341 296h143v-61h-165v-70h165v-61h-165v-104h-91v104h-165v61h165v70h-165v61h144l-173 354h100l94 -201q14 -31 25 -60t21 -55h2q11 29 24.5 60.5t27.5 60.5l93 195h96z" />
    <glyph glyph-name="brokenbar" unicode="&#xa6;" horiz-adv-x="285" 
d="M106 -247v378h71v-378h-71zM106 385v368h71v-368h-71z" />
    <glyph glyph-name="section" unicode="&#xa7;" horiz-adv-x="520" 
d="M349 223q0 28 -13.5 54t-34.5 51t-47.5 50t-53.5 53q-23 -17 -33 -38t-10 -43q0 -27 12.5 -52t33.5 -49.5t48 -50.5t56 -55q23 16 32.5 37.5t9.5 42.5zM434 235q0 -42 -20.5 -77.5t-58.5 -63.5q17 -23 28 -48.5t11 -56.5q0 -30 -11.5 -57.5t-34.5 -49t-59 -34.5t-84 -13
q-17 0 -38 3t-41 8l7 76q22 -7 39.5 -9.5t35.5 -2.5q45 0 68 21.5t23 54.5q0 26 -17 51t-42 50.5t-54.5 52t-54.5 57t-42 65.5t-17 77t20.5 77.5t58.5 64.5q-18 23 -28.5 48.5t-10.5 54.5q0 31 10.5 58.5t33 48.5t56 33t80.5 12q17 0 37.5 -2t37.5 -6l-7 -76q-34 10 -69 10
q-42 0 -63 -19t-21 -53q0 -26 17 -51t42 -50.5t54.5 -53t54.5 -58t42 -66t17 -76.5z" />
    <glyph glyph-name="dieresis" unicode="&#xa8;" horiz-adv-x="546" 
d="M222 654q0 -23 -15 -38t-38 -15t-38.5 15t-15.5 38t15.5 38.5t38.5 15.5t38 -15.5t15 -38.5zM414 654q0 -23 -15 -38t-38 -15t-38.5 15t-15.5 38t15.5 38.5t38.5 15.5t38 -15.5t15 -38.5z" />
    <glyph glyph-name="copyright" unicode="&#xa9;" horiz-adv-x="756" 
d="M475 175q-46 -17 -99 -17q-41 0 -71 13t-49.5 35.5t-28.5 54t-9 69.5q0 36 9.5 69t30.5 58.5t54 40.5t80 15q23 0 42.5 -3.5t36.5 -9.5l-8 -64q-32 16 -72 16q-26 0 -44.5 -9t-30 -25t-16.5 -38t-5 -47q0 -54 22 -82.5t70 -28.5q42 0 78 15l10 -62v0zM641 334
q0 55 -20.5 103.5t-56.5 85t-84.5 57.5t-103.5 21t-103 -20.5t-84 -56.5t-56.5 -84.5t-20.5 -103.5t20.5 -104t56.5 -85.5t84 -57.5t103 -21t103.5 21t84.5 57t56.5 84.5t20.5 103.5zM712 336q0 -70 -26.5 -131t-72 -106.5t-106.5 -72t-131 -26.5q-71 0 -132.5 26t-106.5 71
t-71 106t-26 131t26.5 131t72 106.5t106.5 71.5t131 26t131.5 -26t107 -71t71.5 -105.5t26 -130.5z" />
    <glyph glyph-name="ordfeminine" unicode="&#xaa;" horiz-adv-x="389" 
d="M245 493q-66 0 -94.5 -15.5t-28.5 -43.5q0 -17 11.5 -27.5t31.5 -10.5q21 0 36 10t25 23.5t14.5 28.5t4.5 26v9zM57 211v71h288v-71h-288zM246 343q0 11 1 25.5t4 27.5l-2 1q-10 -24 -38.5 -42.5t-62.5 -18.5q-52 0 -76 24t-24 62q0 57 52.5 89.5t144.5 32.5v18
q0 10 -2 20.5t-9 19.5t-20 14.5t-34 5.5q-29 0 -56 -7.5t-49 -18.5l-7 66q26 10 57 15.5t66 5.5q37 0 61.5 -9.5t39.5 -25t21 -35.5t6 -41q0 -45 -0.5 -82t-0.5 -60q0 -35 0.5 -54.5t1.5 -32.5h-74z" />
    <glyph glyph-name="guillemotleft" unicode="&#xab;" horiz-adv-x="509" 
d="M167 114l-113 179l114 182l68 -35l-92 -146l93 -144zM369 116l-122 177l123 180l66 -35l-100 -144l101 -142z" />
    <glyph glyph-name="logicalnot" unicode="&#xac;" 
d="M404 103v157h-362v75h440v-232h-78z" />
    <glyph glyph-name="registered" unicode="&#xae;" horiz-adv-x="562" 
d="M312 578q0 14 -7.5 21t-27.5 7h-21v-63h14q23 0 32.5 11t9.5 24zM313 416l-53 95h-4v-95h-49v228h79q42 0 60 -16.5t18 -43.5q0 -29 -14.5 -45t-38.5 -21q4 -4 9 -12t10 -17l43 -73h-60zM441 527q0 33 -12.5 63t-34 52.5t-51 35.5t-62.5 13t-62.5 -12.5t-51 -34.5
t-34 -51.5t-12.5 -62.5t12.5 -63t34 -52.5t51 -35.5t62.5 -13t62.5 13t51 34.5t34 51t12.5 62.5zM501 529q0 -45 -17.5 -85t-47.5 -69.5t-70 -47t-85 -17.5q-47 0 -87 17t-70 46.5t-47 69.5t-17 86q0 45 17.5 85t47.5 69.5t70 46.5t86 17t86 -17t70 -46t47 -69t17 -86z" />
    <glyph glyph-name="macron" unicode="&#xaf;" horiz-adv-x="395" 
d="M71 616v68h253v-68h-253z" />
    <glyph glyph-name="macron" unicode="&#x2c9;" horiz-adv-x="395" 
d="M71 616v68h253v-68h-253z" />
    <glyph glyph-name="degree" unicode="&#xb0;" horiz-adv-x="376" 
d="M249 608q0 12 -3 24t-10.5 22t-19.5 16.5t-30 6.5q-26 0 -44 -19t-18 -50q0 -32 17 -50t44 -18q28 0 46 19t18 49zM319 609q0 -30 -11.5 -54t-30.5 -40.5t-44 -25t-51 -8.5q-60 0 -94.5 34t-34.5 92q0 30 11.5 54t30.5 40.5t43.5 25t49.5 8.5q34 0 58.5 -10t40.5 -27.5
t24 -40.5t8 -48z" />
    <glyph glyph-name="plusminus" unicode="&#xb1;" 
d="M44 0v75h462v-75h-462zM318 336v-197h-86v197h-190v74h190v196h86v-196h190v-74h-190z" />
    <glyph glyph-name="twosuperior" unicode="&#xb2;" horiz-adv-x="317" 
d="M46 356v52l73 65q32 29 43.5 46t11.5 36q0 18 -12.5 30.5t-36.5 12.5q-14 0 -29.5 -5t-26.5 -14l-20 56q20 11 44.5 17t50.5 6q30 0 51 -7.5t34.5 -20t20 -28.5t6.5 -34q0 -28 -14.5 -53t-49.5 -56l-48 -41h122v-62h-220z" />
    <glyph glyph-name="threesuperior" unicode="&#xb3;" horiz-adv-x="306" 
d="M252 443q0 -47 -37 -71t-103 -24q-17 0 -35.5 2.5t-30.5 5.5l10 53q11 -3 25 -5.5t28 -2.5q32 0 46.5 11t14.5 30q0 26 -22 35t-79 3v48h21q42 0 58 12.5t16 30.5q0 14 -10.5 25t-36.5 11q-15 0 -28.5 -4t-24.5 -9l-14 48q17 8 39.5 12t46.5 4q56 0 80.5 -23.5
t24.5 -53.5q0 -49 -46 -71q28 -4 42.5 -23t14.5 -44z" />
    <glyph glyph-name="acute" unicode="&#xb4;" horiz-adv-x="389" 
d="M149 570l-39 48l140 126l49 -60z" />
    <glyph glyph-name="mu" unicode="&#xb5;" horiz-adv-x="585" 
d="M579 2q-14 -4 -36 -7.5t-47 -3.5q-27 0 -44.5 9.5t-27 24.5t-12 34.5t0.5 39.5h-1q-17 -48 -58 -77.5t-96 -29.5q-29 0 -50.5 7t-32.5 21v-267h-90v744h90v-314q0 -54 19 -85.5t72 -31.5q29 0 53.5 14t42.5 38t28.5 56t10.5 68v255h90v-348q0 -47 7.5 -63.5t25.5 -16.5
q14 0 27 2t20 4l8 -73v0z" />
    <glyph glyph-name="mu" unicode="&#x3bc;" horiz-adv-x="585" 
d="M579 2q-14 -4 -36 -7.5t-47 -3.5q-27 0 -44.5 9.5t-27 24.5t-12 34.5t0.5 39.5h-1q-17 -48 -58 -77.5t-96 -29.5q-29 0 -50.5 7t-32.5 21v-267h-90v744h90v-314q0 -54 19 -85.5t72 -31.5q29 0 53.5 14t42.5 38t28.5 56t10.5 68v255h90v-348q0 -47 7.5 -63.5t25.5 -16.5
q14 0 27 2t20 4l8 -73v0z" />
    <glyph glyph-name="paragraph" unicode="&#xb6;" horiz-adv-x="576" 
d="M289 247q-57 0 -99 17.5t-69.5 47t-41 68.5t-13.5 83q0 46 16 85t45.5 67t70.5 44t91 16v-428v0zM445 605v-701h-154v70h73v701h152v-70h-71z" />
    <glyph glyph-name="periodcentered" unicode="&#xb7;" horiz-adv-x="234" 
d="M181 297q0 -26 -18.5 -45t-45.5 -19t-45.5 19t-18.5 45q0 27 18.5 45.5t45.5 18.5t45.5 -18.5t18.5 -45.5z" />
    <glyph glyph-name="periodcentered" unicode="&#x2219;" horiz-adv-x="234" 
d="M181 297q0 -26 -18.5 -45t-45.5 -19t-45.5 19t-18.5 45q0 27 18.5 45.5t45.5 18.5t45.5 -18.5t18.5 -45.5z" />
    <glyph glyph-name="cedilla" unicode="&#xb8;" horiz-adv-x="400" 
d="M258 -40q38 -51 30 -98.5t-51 -96.5h-73q19 24 31 45t14.5 40.5t-4 38.5t-24.5 41l77 30v0z" />
    <glyph glyph-name="onesuperior" unicode="&#xb9;" horiz-adv-x="309" 
d="M131 356v231l-70 -32l-17 56l94 39h69v-294h-76z" />
    <glyph glyph-name="ordmasculine" unicode="&#xba;" horiz-adv-x="419" 
d="M288 514q0 20 -4 39t-13 33.5t-24.5 23t-38.5 8.5q-30 0 -55.5 -24.5t-25.5 -81.5q0 -20 3.5 -39.5t12.5 -34.5t24 -24.5t38 -9.5q36 0 59.5 26t23.5 84zM62 211v71h292v-71h-292zM368 515q0 -40 -12.5 -73t-35 -56t-53.5 -36t-68 -13q-33 0 -61 9.5t-48.5 30t-31.5 53.5
t-11 80q0 39 12.5 71t34.5 55t52 35.5t66 12.5q29 0 57 -7.5t50 -27t35.5 -52t13.5 -82.5z" />
    <glyph glyph-name="guillemotright" unicode="&#xbb;" horiz-adv-x="509" 
d="M138 116l-66 35l101 144l-100 142l68 36l122 -177zM340 114l-67 35l92 146l-92 144l70 36l112 -179z" />
    <glyph glyph-name="onequarter" unicode="&#xbc;" horiz-adv-x="707" 
d="M131 356v231l-70 -32l-17 56l94 39h69v-294h-76zM113 -21l-58 42l497 648l58 -42zM599 55v-55h-69v55h-144l-4 51l113 188h104v-183h51v-56h-51zM530 245l-82 -134h82v134z" />
    <glyph glyph-name="onehalf" unicode="&#xbd;" horiz-adv-x="711" 
d="M131 356v231l-70 -32l-17 56l94 39h69v-294h-76zM113 -21l-58 42l497 648l58 -42zM427 0v51l73 66q32 28 43.5 45t11.5 36t-12.5 31.5t-36.5 12.5q-14 0 -29.5 -5.5t-26.5 -13.5l-20 56q20 10 44.5 16.5t50.5 6.5q30 0 51 -7.5t34.5 -20t20 -29t6.5 -33.5
q0 -28 -14.5 -53.5t-49.5 -55.5l-48 -42h122v-61h-220z" />
    <glyph glyph-name="threequarters" unicode="&#xbe;" horiz-adv-x="708" 
d="M254 443q0 -47 -37 -71.5t-103 -24.5q-17 0 -35.5 2.5t-30.5 5.5l10 53q11 -3 25 -5t28 -2q33 0 47.5 11t14.5 30q0 26 -22.5 35t-79.5 3v48h21q42 0 58 12.5t16 30.5q0 14 -10.5 25t-36.5 11q-14 0 -28 -4t-25 -9l-14 48q17 8 39.5 12t46.5 4q57 0 81 -23.5t24 -53.5
q0 -49 -46 -71q29 -4 43 -23t14 -44zM115 -21l-58 42l497 648l58 -42zM601 55v-55h-70v55h-144l-4 51l113 188h105v-183h51v-56h-51zM532 245l-83 -134h83v134z" />
    <glyph glyph-name="questiondown" unicode="&#xbf;" horiz-adv-x="445" 
d="M350 -213q-70 2 -124 19t-91 43.5t-56 60.5t-19 71q0 41 15 70t36 52.5t44.5 44.5t40.5 46t22.5 57t-7.5 78h88q16 -50 11.5 -86t-20 -63.5t-38 -49.5t-43.5 -43t-35.5 -44t-14.5 -53q0 -50 54.5 -83.5t148.5 -37.5zM314 447q0 -25 -17 -42t-43 -17t-43 17t-17 42t17 42
t43 17t43 -17t17 -42z" />
    <glyph glyph-name="Agrave" unicode="&#xc0;" horiz-adv-x="615" 
d="M333 480q-9 25 -16 47.5t-13 44.5h-2q-6 -22 -13 -44.5t-15 -46.5l-90 -250h239zM503 0l-56 158h-287l-56 -158h-94l246 675h102l248 -675h-103zM353 725l-190 56l26 70l182 -74z" />
    <glyph glyph-name="Aacute" unicode="&#xc1;" horiz-adv-x="615" 
d="M333 480q-9 25 -16 47.5t-13 44.5h-2q-6 -22 -13 -44.5t-15 -46.5l-90 -250h239zM503 0l-56 158h-287l-56 -158h-94l246 675h102l248 -675h-103zM252 725l-18 52l182 74l26 -70z" />
    <glyph glyph-name="Acircumflex" unicode="&#xc2;" horiz-adv-x="615" 
d="M333 480q-9 25 -16 47.5t-13 44.5h-2q-6 -22 -13 -44.5t-15 -46.5l-90 -250h239zM503 0l-56 158h-287l-56 -158h-94l246 675h102l248 -675h-103zM438 724l-135 63l-132 -63l-23 48l157 85l160 -83z" />
    <glyph glyph-name="Atilde" unicode="&#xc3;" horiz-adv-x="615" 
d="M333 480q-9 25 -16 47.5t-13 44.5h-2q-6 -22 -13 -44.5t-15 -46.5l-90 -250h239zM503 0l-56 158h-287l-56 -158h-94l246 675h102l248 -675h-103zM485 808q-20 -35 -48.5 -54t-63.5 -19q-26 0 -43.5 8t-32 18t-27.5 18t-29 8q-36 0 -63 -45l-46 33q20 35 48.5 54.5
t63.5 19.5q25 0 43 -8t32.5 -18t27.5 -18t29 -8q34 0 63 44l46 -33v0z" />
    <glyph glyph-name="Adieresis" unicode="&#xc4;" horiz-adv-x="615" 
d="M333 480q-9 25 -16 47.5t-13 44.5h-2q-6 -22 -13 -44.5t-15 -46.5l-90 -250h239zM503 0l-56 158h-287l-56 -158h-94l246 675h102l248 -675h-103zM249 781q0 -21 -15 -35.5t-36 -14.5t-35.5 14.5t-14.5 35.5t14.5 35.5t35.5 14.5t36 -14.5t15 -35.5zM462 781
q0 -21 -14.5 -35.5t-35.5 -14.5t-35.5 14.5t-14.5 35.5t14.5 35.5t35.5 14.5t35.5 -14.5t14.5 -35.5z" />
    <glyph glyph-name="Aring" unicode="&#xc5;" horiz-adv-x="615" 
d="M335 473q-12 26 -18.5 50t-12.5 48h-2q-6 -23 -13.5 -48t-17.5 -51l-87 -241h238zM363 731q0 23 -16 40t-39 17t-39 -17t-16 -40t16 -40t39 -17t39 17t16 40zM503 0l-56 158h-287l-56 -158h-94l235 644q-23 12 -36.5 34.5t-13.5 52.5q0 23 9 43t24.5 35t36 23.5t43.5 8.5
q24 0 45 -8.5t36 -23.5t24 -35t9 -43q0 -28 -15 -51.5t-38 -36.5l237 -643h-103z" />
    <glyph glyph-name="AE" unicode="&#xc6;" horiz-adv-x="781" 
d="M362 598h-2q-13 -29 -27 -60t-39 -77l-122 -225h190v362zM362 0v163h-224l-85 -163h-96l359 675h386v-76h-250v-214h240v-74h-240v-234h259v-77h-349z" />
    <glyph glyph-name="Ccedilla" unicode="&#xc7;" horiz-adv-x="583" 
d="M538 28q-38 -16 -86 -26t-99 -10q-81 0 -139.5 24.5t-95.5 68.5t-54.5 104t-17.5 132q0 77 19.5 143t60 114t102.5 75.5t148 27.5q39 0 79 -5t76 -16l-15 -84q-35 12 -73.5 19t-76.5 7q-58 0 -99.5 -21t-68.5 -57t-39.5 -84.5t-12.5 -103.5q0 -125 55.5 -193.5
t173.5 -68.5q37 0 77.5 9.5t70.5 24.5l15 -80v0zM358 -40q38 -51 30 -98.5t-51 -96.5h-73q19 24 31 45t14.5 40.5t-4 38.5t-24.5 41l77 30v0z" />
    <glyph glyph-name="Egrave" unicode="&#xc8;" horiz-adv-x="501" 
d="M85 0v675h347v-76h-255v-214h243v-74h-243v-234h255v-77h-347zM306 725l-190 56l26 70l182 -74z" />
    <glyph glyph-name="Eacute" unicode="&#xc9;" horiz-adv-x="501" 
d="M85 0v675h347v-76h-255v-214h243v-74h-243v-234h255v-77h-347zM204 725l-18 52l182 74l26 -70z" />
    <glyph glyph-name="Ecircumflex" unicode="&#xca;" horiz-adv-x="501" 
d="M85 0v675h347v-76h-255v-214h243v-74h-243v-234h255v-77h-347zM390 724l-135 63l-132 -63l-23 48l157 85l160 -83z" />
    <glyph glyph-name="Edieresis" unicode="&#xcb;" horiz-adv-x="501" 
d="M85 0v675h347v-76h-255v-214h243v-74h-243v-234h255v-77h-347zM198 781q0 -21 -15 -35.5t-36 -14.5t-35.5 14.5t-14.5 35.5t14.5 35.5t35.5 14.5t36 -14.5t15 -35.5zM411 781q0 -21 -14.5 -35.5t-35.5 -14.5t-35.5 14.5t-14.5 35.5t14.5 35.5t35.5 14.5t35.5 -14.5
t14.5 -35.5z" />
    <glyph glyph-name="Igrave" unicode="&#xcc;" horiz-adv-x="262" 
d="M85 0v675h92v-675h-92zM178 725l-190 56l26 70l182 -74z" />
    <glyph glyph-name="Iacute" unicode="&#xcd;" horiz-adv-x="262" 
d="M85 0v675h92v-675h-92zM87 725l-18 52l182 74l26 -70z" />
    <glyph glyph-name="Icircumflex" unicode="&#xce;" horiz-adv-x="262" 
d="M85 0v675h92v-675h-92zM265 724l-135 63l-132 -63l-23 48l157 85l160 -83z" />
    <glyph glyph-name="Idieresis" unicode="&#xcf;" horiz-adv-x="262" 
d="M85 0v675h92v-675h-92zM75 781q0 -21 -15 -35.5t-36 -14.5t-35.5 14.5t-14.5 35.5t14.5 35.5t35.5 14.5t36 -14.5t15 -35.5zM288 781q0 -21 -14.5 -35.5t-35.5 -14.5t-35.5 14.5t-14.5 35.5t14.5 35.5t35.5 14.5t35.5 -14.5t14.5 -35.5z" />
    <glyph glyph-name="Eth" unicode="&#xd0;" horiz-adv-x="687" 
d="M545 338q0 131 -62.5 198t-194.5 67q-27 0 -54.5 -1t-47.5 -2v-218h140v-70h-140v-234q3 0 13.5 -1t24 -1.5t27.5 -1t25 -0.5q59 0 108.5 15.5t85 48t55.5 82t20 118.5zM641 345q0 -87 -27.5 -152.5t-77.5 -109t-119 -65.5t-152 -22q-51 0 -91.5 2t-78.5 2v312h-94v70h94
v292q40 1 93 2.5t108 1.5q81 0 145.5 -19.5t108.5 -60t67.5 -103.5t23.5 -150z" />
    <glyph glyph-name="Ntilde" unicode="&#xd1;" horiz-adv-x="707" 
d="M502 0l-257 418q-23 37 -41.5 71.5t-35.5 68.5q1 -27 2.5 -68.5t2.5 -89t1.5 -95.5t0.5 -88v-217h-90v675h121l251 -405q23 -36 43.5 -74t39.5 -74q-2 31 -3 75.5t-2 94t-1.5 99.5t-0.5 92v192h89v-675h-120zM531 808q-20 -35 -48.5 -54t-63.5 -19q-26 0 -43.5 8t-32 18
t-27.5 18t-29 8q-36 0 -63 -45l-46 33q20 35 48.5 54.5t63.5 19.5q25 0 43 -8t32.5 -18t27.5 -18t29 -8q34 0 63 44l46 -33v0z" />
    <glyph glyph-name="Ograve" unicode="&#xd2;" horiz-adv-x="705" 
d="M565 334q0 131 -55.5 200.5t-157.5 69.5q-42 0 -80.5 -17t-67.5 -50t-46.5 -81.5t-17.5 -112.5q0 -60 13 -110t39 -86t65.5 -55.5t93.5 -19.5q41 0 79.5 16.5t68.5 49.5t48 82t18 114zM663 345q0 -84 -25.5 -150t-69 -111.5t-101.5 -69.5t-124 -24q-76 0 -132.5 24.5
t-94 69t-56 107t-18.5 139.5q0 84 25 150t68.5 111.5t102 69.5t124.5 24q68 0 123.5 -22t95 -65t61 -106.5t21.5 -146.5zM394 725l-190 56l26 70l182 -74z" />
    <glyph glyph-name="Oacute" unicode="&#xd3;" horiz-adv-x="705" 
d="M565 334q0 131 -55.5 200.5t-157.5 69.5q-42 0 -80.5 -17t-67.5 -50t-46.5 -81.5t-17.5 -112.5q0 -60 13 -110t39 -86t65.5 -55.5t93.5 -19.5q41 0 79.5 16.5t68.5 49.5t48 82t18 114zM663 345q0 -84 -25.5 -150t-69 -111.5t-101.5 -69.5t-124 -24q-76 0 -132.5 24.5
t-94 69t-56 107t-18.5 139.5q0 84 25 150t68.5 111.5t102 69.5t124.5 24q68 0 123.5 -22t95 -65t61 -106.5t21.5 -146.5zM317 725l-18 52l182 74l26 -70z" />
    <glyph glyph-name="Ocircumflex" unicode="&#xd4;" horiz-adv-x="705" 
d="M565 334q0 131 -55.5 200.5t-157.5 69.5q-42 0 -80.5 -17t-67.5 -50t-46.5 -81.5t-17.5 -112.5q0 -60 13 -110t39 -86t65.5 -55.5t93.5 -19.5q41 0 79.5 16.5t68.5 49.5t48 82t18 114zM663 345q0 -84 -25.5 -150t-69 -111.5t-101.5 -69.5t-124 -24q-76 0 -132.5 24.5
t-94 69t-56 107t-18.5 139.5q0 84 25 150t68.5 111.5t102 69.5t124.5 24q68 0 123.5 -22t95 -65t61 -106.5t21.5 -146.5zM490 724l-135 63l-132 -63l-23 48l157 85l160 -83z" />
    <glyph glyph-name="Otilde" unicode="&#xd5;" horiz-adv-x="705" 
d="M565 334q0 131 -55.5 200.5t-157.5 69.5q-42 0 -80.5 -17t-67.5 -50t-46.5 -81.5t-17.5 -112.5q0 -60 13 -110t39 -86t65.5 -55.5t93.5 -19.5q41 0 79.5 16.5t68.5 49.5t48 82t18 114zM663 345q0 -84 -25.5 -150t-69 -111.5t-101.5 -69.5t-124 -24q-76 0 -132.5 24.5
t-94 69t-56 107t-18.5 139.5q0 84 25 150t68.5 111.5t102 69.5t124.5 24q68 0 123.5 -22t95 -65t61 -106.5t21.5 -146.5zM529 808q-20 -35 -48.5 -54t-63.5 -19q-26 0 -43.5 8t-32 18t-27.5 18t-29 8q-36 0 -63 -45l-46 33q20 35 48.5 54.5t63.5 19.5q25 0 43 -8t32.5 -18
t27.5 -18t29 -8q34 0 63 44l46 -33v0z" />
    <glyph glyph-name="Odieresis" unicode="&#xd6;" horiz-adv-x="705" 
d="M565 334q0 131 -55.5 200.5t-157.5 69.5q-42 0 -80.5 -17t-67.5 -50t-46.5 -81.5t-17.5 -112.5q0 -60 13 -110t39 -86t65.5 -55.5t93.5 -19.5q41 0 79.5 16.5t68.5 49.5t48 82t18 114zM663 345q0 -84 -25.5 -150t-69 -111.5t-101.5 -69.5t-124 -24q-76 0 -132.5 24.5
t-94 69t-56 107t-18.5 139.5q0 84 25 150t68.5 111.5t102 69.5t124.5 24q68 0 123.5 -22t95 -65t61 -106.5t21.5 -146.5zM297 781q0 -21 -15 -35.5t-36 -14.5t-35.5 14.5t-14.5 35.5t14.5 35.5t35.5 14.5t36 -14.5t15 -35.5zM510 781q0 -21 -14.5 -35.5t-35.5 -14.5
t-35.5 14.5t-14.5 35.5t14.5 35.5t35.5 14.5t35.5 -14.5t14.5 -35.5z" />
    <glyph glyph-name="multiply" unicode="&#xd7;" 
d="M440 77l-168 168l-167 -168l-50 50l168 168l-168 167l55 55l167 -168l168 168l50 -50l-168 -167l168 -168z" />
    <glyph glyph-name="Oslash" unicode="&#xd8;" horiz-adv-x="705" 
d="M413 598q-14 4 -28.5 6t-31.5 2q-43 0 -82 -17t-68.5 -50t-47 -82.5t-17.5 -115.5q0 -73 19.5 -131t65.5 -91l190 479v0zM568 333q0 80 -23.5 139t-70.5 89l-190 -482q15 -5 31.5 -7t31.5 -2q46 0 86 16.5t70 49t47.5 82t17.5 115.5zM664 343q0 -84 -25 -150t-68.5 -111
t-102.5 -68.5t-128 -23.5q-49 0 -91 11l-42 -103l-67 28l42 103q-73 41 -106.5 120t-33.5 183q0 84 25.5 149.5t69 110.5t101.5 69t124 24q22 0 43.5 -2.5t41.5 -6.5l41 99l67 -28l-40 -98q71 -35 110 -112t39 -194z" />
    <glyph glyph-name="Ugrave" unicode="&#xd9;" horiz-adv-x="693" 
d="M607 258q0 -134 -68 -201t-201 -67q-79 0 -128.5 20t-77 53.5t-37.5 76t-10 87.5v448h92v-441q0 -35 7 -65.5t25.5 -53.5t51 -36t83.5 -13q88 0 130.5 41.5t42.5 143.5v424h90v-417v0zM377 725l-190 56l26 70l182 -74z" />
    <glyph glyph-name="Uacute" unicode="&#xda;" horiz-adv-x="693" 
d="M607 258q0 -134 -68 -201t-201 -67q-79 0 -128.5 20t-77 53.5t-37.5 76t-10 87.5v448h92v-441q0 -35 7 -65.5t25.5 -53.5t51 -36t83.5 -13q88 0 130.5 41.5t42.5 143.5v424h90v-417v0zM330 725l-18 52l182 74l26 -70z" />
    <glyph glyph-name="Ucircumflex" unicode="&#xdb;" horiz-adv-x="693" 
d="M607 258q0 -134 -68 -201t-201 -67q-79 0 -128.5 20t-77 53.5t-37.5 76t-10 87.5v448h92v-441q0 -35 7 -65.5t25.5 -53.5t51 -36t83.5 -13q88 0 130.5 41.5t42.5 143.5v424h90v-417v0zM481 724l-135 63l-132 -63l-23 48l157 85l160 -83z" />
    <glyph glyph-name="Udieresis" unicode="&#xdc;" horiz-adv-x="693" 
d="M607 258q0 -134 -68 -201t-201 -67q-79 0 -128.5 20t-77 53.5t-37.5 76t-10 87.5v448h92v-441q0 -35 7 -65.5t25.5 -53.5t51 -36t83.5 -13q88 0 130.5 41.5t42.5 143.5v424h90v-417v0zM289 781q0 -21 -15 -35.5t-36 -14.5t-35.5 14.5t-14.5 35.5t14.5 35.5t35.5 14.5
t36 -14.5t15 -35.5zM502 781q0 -21 -14.5 -35.5t-35.5 -14.5t-35.5 14.5t-14.5 35.5t14.5 35.5t35.5 14.5t35.5 -14.5t14.5 -35.5z" />
    <glyph glyph-name="Yacute" unicode="&#xdd;" horiz-adv-x="537" 
d="M312 243v-243h-92v243l-211 432h101l107 -228q28 -60 51 -117h1q12 31 27 63.5t31 65.5l104 216h96zM248 725l-18 52l182 74l26 -70z" />
    <glyph glyph-name="Thorn" unicode="&#xde;" horiz-adv-x="530" 
d="M417 360q0 63 -40.5 101.5t-132.5 38.5q-17 0 -33.5 -1t-33.5 -4v-281q15 -2 32 -3t37 -1q80 0 125.5 38.5t45.5 111.5zM512 367q0 -52 -20.5 -95t-56.5 -73.5t-86.5 -47.5t-110.5 -17q-17 0 -32 1t-29 3v-138h-92v675h92v-102q20 1 40 1.5t44 0.5q118 0 184.5 -52.5
t66.5 -155.5z" />
    <glyph glyph-name="germandbls" unicode="&#xdf;" horiz-adv-x="593" 
d="M552 149q0 -35 -14 -64t-40 -50t-62.5 -33t-82.5 -12q-29 0 -54.5 3t-44.5 8l6 79q21 -8 45 -12.5t47 -4.5q57 0 82.5 23t25.5 52q0 27 -14.5 44.5t-36.5 31.5t-47.5 27.5t-47.5 32t-36.5 44.5t-14.5 65q0 30 10 50.5t25 36t32.5 28t32.5 25.5t25 29.5t10 39.5
q0 37 -26.5 55t-68.5 18q-61 0 -94.5 -37t-33.5 -123v-505h-90v500q0 65 17.5 110t47.5 72.5t70.5 40t87.5 12.5q88 0 135 -37.5t47 -97.5q0 -34 -10 -56.5t-25 -38t-33 -27t-33 -23t-25 -26t-10 -36.5q0 -26 14.5 -43.5t36.5 -31.5t48 -28t48 -32.5t36.5 -44.5t14.5 -64z
" />
    <glyph glyph-name="agrave" unicode="&#xe0;" horiz-adv-x="521" 
d="M345 233q-62 0 -102.5 -8t-64.5 -21t-34 -30t-10 -36q0 -33 20.5 -54.5t55.5 -21.5q30 0 55 13.5t43 36t27.5 51t9.5 57.5v13zM350 0q0 26 0.5 52t4.5 47h-2q-18 -46 -62.5 -77t-106.5 -31t-100 37t-38 97q0 81 78 126t221 45v33q0 52 -23.5 79.5t-85.5 27.5
q-35 0 -74.5 -10t-69.5 -27l-19 73q36 15 82.5 25t94.5 10q54 0 89.5 -12t57 -33.5t30 -52t8.5 -66.5v-200q0 -35 0.5 -73t1.5 -70h-87zM276 570l-150 114l49 60l140 -125z" />
    <glyph glyph-name="aacute" unicode="&#xe1;" horiz-adv-x="521" 
d="M345 233q-62 0 -102.5 -8t-64.5 -21t-34 -30t-10 -36q0 -33 20.5 -54.5t55.5 -21.5q30 0 55 13.5t43 36t27.5 51t9.5 57.5v13zM350 0q0 26 0.5 52t4.5 47h-2q-18 -46 -62.5 -77t-106.5 -31t-100 37t-38 97q0 81 78 126t221 45v33q0 52 -23.5 79.5t-85.5 27.5
q-35 0 -74.5 -10t-69.5 -27l-19 73q36 15 82.5 25t94.5 10q54 0 89.5 -12t57 -33.5t30 -52t8.5 -66.5v-200q0 -35 0.5 -73t1.5 -70h-87zM244 570l-39 48l140 126l49 -60z" />
    <glyph glyph-name="acircumflex" unicode="&#xe2;" horiz-adv-x="521" 
d="M345 233q-62 0 -102.5 -8t-64.5 -21t-34 -30t-10 -36q0 -33 20.5 -54.5t55.5 -21.5q30 0 55 13.5t43 36t27.5 51t9.5 57.5v13zM350 0q0 26 0.5 52t4.5 47h-2q-18 -46 -62.5 -77t-106.5 -31t-100 37t-38 97q0 81 78 126t221 45v33q0 52 -23.5 79.5t-85.5 27.5
q-35 0 -74.5 -10t-69.5 -27l-19 73q36 15 82.5 25t94.5 10q54 0 89.5 -12t57 -33.5t30 -52t8.5 -66.5v-200q0 -35 0.5 -73t1.5 -70h-87zM357 570l-99 85l-100 -85l-39 42l140 132l138 -130z" />
    <glyph glyph-name="atilde" unicode="&#xe3;" horiz-adv-x="521" 
d="M345 233q-62 0 -102.5 -8t-64.5 -21t-34 -30t-10 -36q0 -33 20.5 -54.5t55.5 -21.5q30 0 55 13.5t43 36t27.5 51t9.5 57.5v13zM350 0q0 26 0.5 52t4.5 47h-2q-18 -46 -62.5 -77t-106.5 -31t-100 37t-38 97q0 81 78 126t221 45v33q0 52 -23.5 79.5t-85.5 27.5
q-35 0 -74.5 -10t-69.5 -27l-19 73q36 15 82.5 25t94.5 10q54 0 89.5 -12t57 -33.5t30 -52t8.5 -66.5v-200q0 -35 0.5 -73t1.5 -70h-87zM425 672q-20 -38 -47 -58t-62 -20q-24 0 -41 8.5t-31 19t-26.5 19t-28.5 8.5q-33 0 -59 -47l-45 36q20 37 47 57t62 20q24 0 41 -8.5
t31 -18.5t26.5 -18.5t28.5 -8.5q33 0 60 46l44 -35v0z" />
    <glyph glyph-name="adieresis" unicode="&#xe4;" horiz-adv-x="521" 
d="M345 233q-62 0 -102.5 -8t-64.5 -21t-34 -30t-10 -36q0 -33 20.5 -54.5t55.5 -21.5q30 0 55 13.5t43 36t27.5 51t9.5 57.5v13zM350 0q0 26 0.5 52t4.5 47h-2q-18 -46 -62.5 -77t-106.5 -31t-100 37t-38 97q0 81 78 126t221 45v33q0 52 -23.5 79.5t-85.5 27.5
q-35 0 -74.5 -10t-69.5 -27l-19 73q36 15 82.5 25t94.5 10q54 0 89.5 -12t57 -33.5t30 -52t8.5 -66.5v-200q0 -35 0.5 -73t1.5 -70h-87zM215 654q0 -23 -15 -38t-38 -15t-38.5 15t-15.5 38t15.5 38.5t38.5 15.5t38 -15.5t15 -38.5zM407 654q0 -23 -15 -38t-38 -15t-38.5 15
t-15.5 38t15.5 38.5t38.5 15.5t38 -15.5t15 -38.5z" />
    <glyph glyph-name="aring" unicode="&#xe5;" horiz-adv-x="521" 
d="M345 233q-62 0 -102.5 -8t-64.5 -21t-34 -30t-10 -36q0 -33 20.5 -54.5t55.5 -21.5q30 0 55 13.5t43 36t27.5 51t9.5 57.5v13zM350 0q0 26 0.5 52t4.5 47h-2q-18 -46 -62.5 -77t-106.5 -31t-100 37t-38 97q0 81 78 126t221 45v33q0 52 -23.5 79.5t-85.5 27.5
q-35 0 -74.5 -10t-69.5 -27l-19 73q36 15 82.5 25t94.5 10q54 0 89.5 -12t57 -33.5t30 -52t8.5 -66.5v-200q0 -35 0.5 -73t1.5 -70h-87zM317 663q0 23 -16.5 40t-39.5 17t-39 -17t-16 -40t16 -39.5t39 -16.5t39.5 16.5t16.5 39.5zM375 663q0 -23 -9 -42.5t-24.5 -34.5
t-36 -23.5t-44.5 -8.5q-48 0 -80.5 30.5t-32.5 78.5q0 24 9 44t24.5 34.5t36 23t43.5 8.5q24 0 45 -8.5t36 -23t24 -34.5t9 -44z" />
    <glyph glyph-name="ae" unicode="&#xe6;" horiz-adv-x="807" 
d="M345 233q-62 0 -102.5 -8t-64.5 -21t-34 -30t-10 -36q0 -33 20.5 -54.5t55.5 -21.5q30 0 55 13.5t43 36t27.5 51t9.5 57.5v13zM669 315q2 57 -27.5 91t-82.5 34q-49 0 -82 -34t-41 -91h233v0zM761 297q0 -16 -3 -46h-324q-4 -98 36.5 -142.5t119.5 -44.5q36 0 72.5 7.5
t69.5 22.5l13 -72q-38 -15 -81.5 -23t-90.5 -8q-84 0 -132.5 33t-65.5 81h-1q-11 -23 -28.5 -43.5t-41.5 -36t-54 -25t-65 -9.5q-63 0 -101 37t-38 97q0 81 78 126t221 45v33q0 52 -23.5 79.5t-85.5 27.5q-35 0 -74.5 -10t-69.5 -27l-19 73q36 15 82.5 25t94.5 10
q55 0 94.5 -18t59.5 -60h1q23 33 63.5 55t94.5 22q52 0 89.5 -16.5t61.5 -45t35.5 -66.5t11.5 -81z" />
    <glyph glyph-name="ccedilla" unicode="&#xe7;" horiz-adv-x="435" 
d="M407 19q-32 -13 -71 -20t-77 -7q-45 0 -84.5 12t-69 39.5t-47 73.5t-17.5 115q0 60 15.5 110t45.5 86.5t75.5 56.5t105.5 20q34 0 65 -5.5t57 -15.5l-17 -77q-23 10 -52.5 16.5t-60.5 6.5q-34 0 -60 -13.5t-43.5 -38.5t-26.5 -59t-9 -75q0 -36 6.5 -68t22.5 -55.5
t43.5 -37t68.5 -13.5q65 0 116 24l14 -75v0zM274 -40q38 -51 30 -98.5t-51 -96.5h-73q19 24 31 45t14.5 40.5t-4 38.5t-24.5 41l77 30v0z" />
    <glyph glyph-name="egrave" unicode="&#xe8;" horiz-adv-x="508" 
d="M370 315q2 57 -28 91t-83 34q-49 0 -81.5 -34t-40.5 -91h233v0zM462 297q0 -16 -3 -46h-325q-3 -98 37 -142.5t120 -44.5q36 0 72.5 7.5t69.5 22.5l13 -72q-38 -15 -81.5 -23t-90.5 -8q-114 0 -173.5 61.5t-59.5 193.5q0 56 15 103.5t43.5 82.5t69.5 54.5t94 19.5
q52 0 90 -16.5t62 -45t35.5 -66.5t11.5 -81zM278 570l-150 114l49 60l140 -125z" />
    <glyph glyph-name="eacute" unicode="&#xe9;" horiz-adv-x="508" 
d="M370 315q2 57 -28 91t-83 34q-49 0 -81.5 -34t-40.5 -91h233v0zM462 297q0 -16 -3 -46h-325q-3 -98 37 -142.5t120 -44.5q36 0 72.5 7.5t69.5 22.5l13 -72q-38 -15 -81.5 -23t-90.5 -8q-114 0 -173.5 61.5t-59.5 193.5q0 56 15 103.5t43.5 82.5t69.5 54.5t94 19.5
q52 0 90 -16.5t62 -45t35.5 -66.5t11.5 -81zM244 570l-39 48l140 126l49 -60z" />
    <glyph glyph-name="ecircumflex" unicode="&#xea;" horiz-adv-x="508" 
d="M370 315q2 57 -28 91t-83 34q-49 0 -81.5 -34t-40.5 -91h233v0zM462 297q0 -16 -3 -46h-325q-3 -98 37 -142.5t120 -44.5q36 0 72.5 7.5t69.5 22.5l13 -72q-38 -15 -81.5 -23t-90.5 -8q-114 0 -173.5 61.5t-59.5 193.5q0 56 15 103.5t43.5 82.5t69.5 54.5t94 19.5
q52 0 90 -16.5t62 -45t35.5 -66.5t11.5 -81zM361 570l-99 85l-100 -85l-39 42l140 132l138 -130z" />
    <glyph glyph-name="edieresis" unicode="&#xeb;" horiz-adv-x="508" 
d="M370 315q2 57 -28 91t-83 34q-49 0 -81.5 -34t-40.5 -91h233v0zM462 297q0 -16 -3 -46h-325q-3 -98 37 -142.5t120 -44.5q36 0 72.5 7.5t69.5 22.5l13 -72q-38 -15 -81.5 -23t-90.5 -8q-114 0 -173.5 61.5t-59.5 193.5q0 56 15 103.5t43.5 82.5t69.5 54.5t94 19.5
q52 0 90 -16.5t62 -45t35.5 -66.5t11.5 -81zM221 654q0 -23 -15 -38t-38 -15t-38.5 15t-15.5 38t15.5 38.5t38.5 15.5t38 -15.5t15 -38.5zM413 654q0 -23 -15 -38t-38 -15t-38.5 15t-15.5 38t15.5 38.5t38.5 15.5t38 -15.5t15 -38.5z" />
    <glyph glyph-name="igrave" unicode="&#xec;" horiz-adv-x="260" 
d="M85 0v497h90v-497h-90zM162 570l-150 114l49 60l140 -125z" />
    <glyph glyph-name="iacute" unicode="&#xed;" horiz-adv-x="260" 
d="M85 0v497h90v-497h-90zM96 570l-39 48l140 126l49 -60z" />
    <glyph glyph-name="icircumflex" unicode="&#xee;" horiz-adv-x="260" 
d="M85 0v497h90v-497h-90zM230 570l-99 85l-100 -85l-39 42l140 132l138 -130z" />
    <glyph glyph-name="idieresis" unicode="&#xef;" horiz-adv-x="260" 
d="M85 0v497h90v-497h-90zM88 654q0 -23 -15 -38t-38 -15t-38.5 15t-15.5 38t15.5 38.5t38.5 15.5t38 -15.5t15 -38.5zM280 654q0 -23 -15 -38t-38 -15t-38.5 15t-15.5 38t15.5 38.5t38.5 15.5t38 -15.5t15 -38.5z" />
    <glyph glyph-name="eth" unicode="&#xf0;" horiz-adv-x="546" 
d="M410 261q0 78 -34.5 124t-103.5 46q-27 0 -52 -10.5t-44.5 -33t-31 -56.5t-11.5 -80q0 -89 38 -136.5t105 -47.5q28 0 52.5 11t42.5 34t28.5 60t10.5 89zM503 273q0 -72 -18.5 -125t-50.5 -88t-75 -52t-93 -17q-51 0 -92.5 15.5t-71 46.5t-46 78.5t-16.5 112.5
q0 55 16.5 103t47 83t74 55t97.5 20q32 0 61 -10.5t44 -34.5q-8 16 -16.5 29.5t-13.5 21.5q-12 21 -27.5 42t-36.5 44l-102 -46l-38 47l94 42q-17 16 -37.5 32t-43.5 34l90 38q20 -16 38.5 -32.5t36.5 -35.5l100 44l39 -47l-98 -42q66 -78 102 -168.5t36 -189.5z" />
    <glyph glyph-name="ntilde" unicode="&#xf1;" horiz-adv-x="575" 
d="M401 0v320q0 54 -17.5 83t-67.5 29q-31 0 -57 -15t-44.5 -41t-29 -61.5t-10.5 -76.5v-238h-90v497h87q0 -23 -1.5 -52.5t-6.5 -52.5h2q22 51 66.5 82.5t108.5 31.5q43 0 71.5 -12.5t46 -34t25 -50.5t7.5 -62v-347h-90zM461 672q-20 -38 -47 -58t-62 -20q-24 0 -41 8.5
t-31 19t-26.5 19t-28.5 8.5q-33 0 -59 -47l-45 36q20 37 47 57t62 20q24 0 41 -8.5t31 -18.5t26.5 -18.5t28.5 -8.5q33 0 60 46l44 -35v0z" />
    <glyph glyph-name="ograve" unicode="&#xf2;" horiz-adv-x="545" 
d="M411 252q0 85 -34.5 132t-103.5 47q-27 0 -52.5 -10.5t-45 -32.5t-31 -55.5t-11.5 -79.5q0 -91 35.5 -138.5t104.5 -47.5q28 0 53 11t44 34t30 57.5t11 82.5zM505 257q0 -56 -17.5 -104.5t-49 -84.5t-76.5 -56.5t-100 -20.5q-51 0 -92 15t-70 46t-45 78.5t-16 113.5
q0 55 16.5 102.5t48 83t76.5 56t101 20.5q48 0 89 -13.5t71 -43.5t47 -77.5t17 -114.5zM294 570l-150 114l49 60l140 -125z" />
    <glyph glyph-name="oacute" unicode="&#xf3;" horiz-adv-x="545" 
d="M411 252q0 85 -34.5 132t-103.5 47q-27 0 -52.5 -10.5t-45 -32.5t-31 -55.5t-11.5 -79.5q0 -91 35.5 -138.5t104.5 -47.5q28 0 53 11t44 34t30 57.5t11 82.5zM505 257q0 -56 -17.5 -104.5t-49 -84.5t-76.5 -56.5t-100 -20.5q-51 0 -92 15t-70 46t-45 78.5t-16 113.5
q0 55 16.5 102.5t48 83t76.5 56t101 20.5q48 0 89 -13.5t71 -43.5t47 -77.5t17 -114.5zM258 570l-39 48l140 126l49 -60z" />
    <glyph glyph-name="ocircumflex" unicode="&#xf4;" horiz-adv-x="545" 
d="M411 252q0 85 -34.5 132t-103.5 47q-27 0 -52.5 -10.5t-45 -32.5t-31 -55.5t-11.5 -79.5q0 -91 35.5 -138.5t104.5 -47.5q28 0 53 11t44 34t30 57.5t11 82.5zM505 257q0 -56 -17.5 -104.5t-49 -84.5t-76.5 -56.5t-100 -20.5q-51 0 -92 15t-70 46t-45 78.5t-16 113.5
q0 55 16.5 102.5t48 83t76.5 56t101 20.5q48 0 89 -13.5t71 -43.5t47 -77.5t17 -114.5zM373 570l-99 85l-100 -85l-39 42l140 132l138 -130z" />
    <glyph glyph-name="otilde" unicode="&#xf5;" horiz-adv-x="545" 
d="M411 252q0 85 -34.5 132t-103.5 47q-27 0 -52.5 -10.5t-45 -32.5t-31 -55.5t-11.5 -79.5q0 -91 35.5 -138.5t104.5 -47.5q28 0 53 11t44 34t30 57.5t11 82.5zM505 257q0 -56 -17.5 -104.5t-49 -84.5t-76.5 -56.5t-100 -20.5q-51 0 -92 15t-70 46t-45 78.5t-16 113.5
q0 55 16.5 102.5t48 83t76.5 56t101 20.5q48 0 89 -13.5t71 -43.5t47 -77.5t17 -114.5zM448 672q-20 -38 -47 -58t-62 -20q-24 0 -41 8.5t-31 19t-26.5 19t-28.5 8.5q-33 0 -59 -47l-45 36q20 37 47 57t62 20q24 0 41 -8.5t31 -18.5t26.5 -18.5t28.5 -8.5q33 0 60 46l44 -35
v0z" />
    <glyph glyph-name="odieresis" unicode="&#xf6;" horiz-adv-x="545" 
d="M411 252q0 85 -34.5 132t-103.5 47q-27 0 -52.5 -10.5t-45 -32.5t-31 -55.5t-11.5 -79.5q0 -91 35.5 -138.5t104.5 -47.5q28 0 53 11t44 34t30 57.5t11 82.5zM505 257q0 -56 -17.5 -104.5t-49 -84.5t-76.5 -56.5t-100 -20.5q-51 0 -92 15t-70 46t-45 78.5t-16 113.5
q0 55 16.5 102.5t48 83t76.5 56t101 20.5q48 0 89 -13.5t71 -43.5t47 -77.5t17 -114.5zM232 654q0 -23 -15 -38t-38 -15t-38.5 15t-15.5 38t15.5 38.5t38.5 15.5t38 -15.5t15 -38.5zM424 654q0 -23 -15 -38t-38 -15t-38.5 15t-15.5 38t15.5 38.5t38.5 15.5t38 -15.5
t15 -38.5z" />
    <glyph glyph-name="divide" unicode="&#xf7;" 
d="M334 96q0 -26 -17.5 -43.5t-42.5 -17.5q-26 0 -43.5 17.5t-17.5 43.5q0 25 17.5 42.5t43.5 17.5q25 0 42.5 -17.5t17.5 -42.5zM42 260v75h466v-75h-466zM334 498q0 -25 -17.5 -42.5t-42.5 -17.5q-26 0 -43.5 17.5t-17.5 42.5t17.5 42.5t43.5 17.5q25 0 42.5 -17.5
t17.5 -42.5z" />
    <glyph glyph-name="oslash" unicode="&#xf8;" horiz-adv-x="545" 
d="M300 431q-20 3 -37 2q-24 -1 -48.5 -11t-44 -31.5t-32 -55t-12.5 -82.5q0 -48 12.5 -87.5t37.5 -62.5l124 328v0zM418 252q0 112 -62 156l-128 -336q24 -8 53 -8q27 1 51.5 12.5t43.5 34.5t30.5 58t11.5 83zM505 257q0 -56 -17.5 -104.5t-49 -84.5t-76 -56.5t-99.5 -20.5
q-33 0 -63 8l-40 -103l-58 19l40 104q-54 32 -78.5 91t-24.5 134q0 55 17 103t48.5 83.5t76 55.5t100.5 20q11 0 23 -1t24 -3l36 94l58 -19l-36 -92q25 -12 47 -31t38 -47t25 -65t9 -85z" />
    <glyph glyph-name="ugrave" unicode="&#xf9;" horiz-adv-x="575" 
d="M403 0q0 23 2 52.5t6 52.5h-2q-22 -51 -66.5 -82.5t-108.5 -31.5q-43 0 -71.5 12.5t-46 34t-24.5 50.5t-7 62v347h89v-320q0 -54 18 -83t67 -29q31 0 57 15t45 41t29.5 61.5t10.5 76.5v238h89v-497h-87zM299 570l-150 114l49 60l140 -125z" />
    <glyph glyph-name="uacute" unicode="&#xfa;" horiz-adv-x="575" 
d="M403 0q0 23 2 52.5t6 52.5h-2q-22 -51 -66.5 -82.5t-108.5 -31.5q-43 0 -71.5 12.5t-46 34t-24.5 50.5t-7 62v347h89v-320q0 -54 18 -83t67 -29q31 0 57 15t45 41t29.5 61.5t10.5 76.5v238h89v-497h-87zM278 570l-39 48l140 126l49 -60z" />
    <glyph glyph-name="ucircumflex" unicode="&#xfb;" horiz-adv-x="575" 
d="M403 0q0 23 2 52.5t6 52.5h-2q-22 -51 -66.5 -82.5t-108.5 -31.5q-43 0 -71.5 12.5t-46 34t-24.5 50.5t-7 62v347h89v-320q0 -54 18 -83t67 -29q31 0 57 15t45 41t29.5 61.5t10.5 76.5v238h89v-497h-87zM386 570l-99 85l-100 -85l-39 42l140 132l138 -130z" />
    <glyph glyph-name="udieresis" unicode="&#xfc;" horiz-adv-x="575" 
d="M403 0q0 23 2 52.5t6 52.5h-2q-22 -51 -66.5 -82.5t-108.5 -31.5q-43 0 -71.5 12.5t-46 34t-24.5 50.5t-7 62v347h89v-320q0 -54 18 -83t67 -29q31 0 57 15t45 41t29.5 61.5t10.5 76.5v238h89v-497h-87zM244 654q0 -23 -15 -38t-38 -15t-38.5 15t-15.5 38t15.5 38.5
t38.5 15.5t38 -15.5t15 -38.5zM436 654q0 -23 -15 -38t-38 -15t-38.5 15t-15.5 38t15.5 38.5t38.5 15.5t38 -15.5t15 -38.5z" />
    <glyph glyph-name="yacute" unicode="&#xfd;" horiz-adv-x="480" 
d="M268 -42q-23 -60 -46.5 -101t-51.5 -65.5t-61 -35.5t-75 -11q-14 0 -30 2t-28 4l10 80q12 -4 29 -6t31 -2q19 0 37 5.5t34.5 19.5t31 37.5t28.5 60.5l20 54l-188 497h102l94 -258q12 -34 21 -64t17 -59h2q3 13 8.5 31t12 38t14 41.5t14.5 42.5l80 228h98zM233 570l-39 48
l140 126l49 -60z" />
    <glyph glyph-name="thorn" unicode="&#xfe;" horiz-adv-x="558" 
d="M421 264q0 81 -26.5 124.5t-83.5 43.5q-34 0 -59.5 -18t-42.5 -45.5t-25.5 -61.5t-8.5 -67v-164q39 -12 88 -12q36 0 65 11t49.5 35t32 62t11.5 92zM515 272q0 -134 -67.5 -206t-188.5 -72q-23 0 -42.5 1t-41.5 5v-247h-90v977h90v-218q0 -27 -1.5 -59t-5.5 -52l2 -1
q20 48 62 77t101 29q88 0 135 -59.5t47 -174.5z" />
    <glyph glyph-name="ydieresis" unicode="&#xff;" horiz-adv-x="480" 
d="M268 -42q-23 -60 -46.5 -101t-51.5 -65.5t-61 -35.5t-75 -11q-14 0 -30 2t-28 4l10 80q12 -4 29 -6t31 -2q19 0 37 5.5t34.5 19.5t31 37.5t28.5 60.5l20 54l-188 497h102l94 -258q12 -34 21 -64t17 -59h2q3 13 8.5 31t12 38t14 41.5t14.5 42.5l80 228h98zM201 654
q0 -23 -15 -38t-38 -15t-38.5 15t-15.5 38t15.5 38.5t38.5 15.5t38 -15.5t15 -38.5zM393 654q0 -23 -15 -38t-38 -15t-38.5 15t-15.5 38t15.5 38.5t38.5 15.5t38 -15.5t15 -38.5z" />
    <glyph glyph-name="dotlessi" unicode="&#x131;" horiz-adv-x="260" 
d="M85 0v497h90v-497h-90z" />
    <glyph glyph-name="Lslash" unicode="&#x141;" horiz-adv-x="435" 
d="M94 0v349l-78 -36l-20 69l98 45v248h91v-205l112 50l19 -69l-131 -59v-313h242v-79h-333z" />
    <glyph glyph-name="lslash" unicode="&#x142;" horiz-adv-x="295" 
d="M196 486v-486h-90v443l-70 -33l-20 66l90 42v212h90v-169l78 37l19 -67z" />
    <glyph glyph-name="OE" unicode="&#x152;" horiz-adv-x="863" 
d="M447 590q-23 7 -45 10.5t-48 3.5q-43 0 -81.5 -17t-68 -50t-47 -81.5t-17.5 -112.5q0 -60 13 -110t39 -86t65.5 -55.5t93.5 -19.5q23 0 48 3.5t48 10.5v504zM453 0q-27 -5 -54.5 -7.5t-55.5 -2.5q-76 0 -132.5 24.5t-94 69t-56 107t-18.5 139.5q0 84 25 150t68.5 111.5
t101.5 69.5t123 24q27 0 52 -2.5t49 -7.5h333v-76h-256v-214h244v-74h-244v-234h256v-77h-341z" />
    <glyph glyph-name="oe" unicode="&#x153;" horiz-adv-x="872" 
d="M411 252q0 85 -34.5 132t-103.5 47q-27 0 -52.5 -10.5t-45 -32.5t-31 -55.5t-11.5 -79.5q0 -91 35.5 -138.5t104.5 -47.5q28 0 53 11t44 34t30 57.5t11 82.5zM735 315q2 57 -28 91t-83 34q-49 0 -81.5 -34t-40.5 -91h233v0zM827 297q0 -16 -3 -46h-325q-3 -98 37 -142.5
t120 -44.5q36 0 72.5 7.5t69.5 22.5l13 -72q-38 -15 -82 -23t-90 -8q-75 0 -121 27t-71 74q-27 -44 -73 -72.5t-112 -28.5q-51 0 -92 15t-70 46t-45 78.5t-16 113.5q0 55 16.5 102.5t48 83t76.5 56t101 20.5q54 0 102 -22.5t76 -71.5q26 42 68 68t101 26q52 0 90 -16.5
t62 -45t35.5 -66.5t11.5 -81z" />
    <glyph glyph-name="Scaron" unicode="&#x160;" horiz-adv-x="503" 
d="M455 198q0 -45 -18 -83t-50.5 -65.5t-78.5 -43t-103 -15.5q-42 0 -79 5t-69 14l11 88q32 -13 68 -20t74 -7q29 0 55.5 6.5t46.5 20t32 35.5t12 53q0 38 -22.5 60.5t-56.5 39t-73.5 30.5t-73.5 35.5t-56.5 54.5t-22.5 87q0 42 15.5 77t45.5 60.5t74 39.5t101 14
q29 0 61 -3t61 -10l-11 -81q-27 8 -57 13t-59 5q-69 0 -102.5 -28.5t-33.5 -76.5q0 -36 23 -58.5t57 -38.5t74.5 -30.5t74.5 -36.5t57 -55t23 -86zM254 724l-160 83l27 50l135 -63l132 63l23 -48z" />
    <glyph glyph-name="scaron" unicode="&#x161;" horiz-adv-x="425" 
d="M375 150q0 -34 -14.5 -63t-41.5 -50.5t-66 -33.5t-88 -12q-29 0 -58 3t-52 10l8 80q24 -10 53 -15t57 -5q48 0 78 20.5t30 55.5q0 28 -17 43t-43 24.5t-55.5 17.5t-55.5 23t-43 40t-17 69q0 64 49.5 106.5t148.5 42.5q23 0 48 -2.5t48 -7.5l-7 -74q-22 8 -47 11.5
t-50 3.5q-50 0 -73.5 -19.5t-23.5 -51.5q0 -28 17 -42.5t43 -24.5t56 -19t56 -23.5t43 -39.5t17 -67zM214 570l-139 130l40 44l100 -85l100 85l38 -42z" />
    <glyph glyph-name="Ydieresis" unicode="&#x178;" horiz-adv-x="537" 
d="M312 243v-243h-92v243l-211 432h101l107 -228q28 -60 51 -117h1q12 31 27 63.5t31 65.5l104 216h96zM215 781q0 -21 -15 -35.5t-36 -14.5t-35.5 14.5t-14.5 35.5t14.5 35.5t35.5 14.5t36 -14.5t15 -35.5zM428 781q0 -21 -14.5 -35.5t-35.5 -14.5t-35.5 14.5t-14.5 35.5
t14.5 35.5t35.5 14.5t35.5 -14.5t14.5 -35.5z" />
    <glyph glyph-name="florin" unicode="&#x192;" 
d="M504 613q-23 7 -46 11t-43 4q-48 0 -72 -28t-30 -91l-15 -152h149v-70h-155l-24 -246q-10 -106 -61.5 -153.5t-142.5 -47.5q-20 0 -44 3.5t-47 9.5l13 76q22 -7 45.5 -11t43.5 -4q47 0 71.5 27.5t30.5 90.5l24 255h-115v70h122l15 143q11 106 61.5 153.5t141.5 47.5
q21 0 45 -3t46 -9z" />
    <glyph glyph-name="circumflex" unicode="&#x2c6;" horiz-adv-x="433" 
d="M313 570l-99 85l-100 -85l-39 42l140 132l138 -130z" />
    <glyph glyph-name="caron" unicode="&#x2c7;" horiz-adv-x="433" 
d="M212 570l-139 130l40 44l100 -85l100 85l38 -42z" />
    <glyph glyph-name="breve" unicode="&#x2d8;" horiz-adv-x="400" 
d="M325 717q0 -26 -7.5 -50.5t-23 -43t-39.5 -29.5t-57 -11t-56.5 11t-38 30t-21.5 43t-7 50h62q0 -27 15.5 -46.5t46.5 -19.5q29 0 46 17t17 49h63v0z" />
    <glyph glyph-name="dotaccent" unicode="&#x2d9;" horiz-adv-x="283" 
d="M199 654q0 -24 -17.5 -41t-42.5 -17q-24 0 -41.5 16.5t-17.5 41.5t17.5 42t41.5 17q25 0 42.5 -17t17.5 -42z" />
    <glyph glyph-name="ring" unicode="&#x2da;" horiz-adv-x="383" 
d="M247 655q0 23 -16.5 40t-39.5 17t-39 -17t-16 -40t16 -39.5t39 -16.5t39.5 16.5t16.5 39.5zM305 655q0 -23 -9 -42.5t-24.5 -34.5t-36 -23.5t-44.5 -8.5q-48 0 -80.5 30.5t-32.5 78.5q0 24 9 44t24.5 34.5t36 23t43.5 8.5q24 0 45 -8.5t36 -23t24 -34.5t9 -44z" />
    <glyph glyph-name="ogonek" unicode="&#x2db;" horiz-adv-x="493" 
d="M175 0q-48 -27 -69 -54.5t-21 -51.5q0 -33 34 -33q26 0 48 33l39 -39q-21 -33 -52.5 -50t-67.5 -17q-40 0 -64.5 19.5t-24.5 59.5q0 38 25 75.5t67 65.5z" />
    <glyph glyph-name="tilde" unicode="&#x2dc;" horiz-adv-x="496" 
d="M415 672q-20 -38 -47 -58t-62 -20q-24 0 -41 8.5t-31 19t-26.5 19t-28.5 8.5q-33 0 -59 -47l-45 36q20 37 47 57t62 20q24 0 41 -8.5t31 -18.5t26.5 -18.5t28.5 -8.5q33 0 60 46l44 -35v0z" />
    <glyph glyph-name="hungarumlaut" unicode="&#x2dd;" horiz-adv-x="493" 
d="M121 570l-44 39l118 141l56 -48zM295 570l-44 40l129 134l53 -50z" />
    <glyph glyph-name="Delta" unicode="&#x394;" horiz-adv-x="608" 
d="M320 516q-7 21 -11.5 39t-8.5 36h-1l-10 -38t-12 -39l-152 -433h348zM28 0v67l219 608h111l221 -608v-67h-551z" />
    <glyph glyph-name="Delta" unicode="&#x2206;" horiz-adv-x="608" 
d="M320 516q-7 21 -11.5 39t-8.5 36h-1l-10 -38t-12 -39l-152 -433h348zM28 0v67l219 608h111l221 -608v-67h-551z" />
    <glyph glyph-name="Omega" unicode="&#x3a9;" horiz-adv-x="720" 
d="M433 0v75q31 25 56.5 52t43 59.5t27 71t9.5 87.5q0 56 -13 103.5t-39 82t-65.5 54t-92.5 19.5q-44 0 -82 -17.5t-66.5 -50.5t-44.5 -80t-16 -107q0 -47 7.5 -85t23.5 -70t42 -61t63 -58v-75h-243v77h142q-60 42 -96.5 109t-36.5 160q0 79 24.5 142t67 106.5t100.5 67
t125 23.5q63 0 117.5 -20t94.5 -60.5t63 -102.5t23 -145q0 -49 -11 -91t-30 -77t-44 -63t-53 -49h147v-77h-243z" />
    <glyph glyph-name="Omega" unicode="&#x2126;" horiz-adv-x="720" 
d="M433 0v75q31 25 56.5 52t43 59.5t27 71t9.5 87.5q0 56 -13 103.5t-39 82t-65.5 54t-92.5 19.5q-44 0 -82 -17.5t-66.5 -50.5t-44.5 -80t-16 -107q0 -47 7.5 -85t23.5 -70t42 -61t63 -58v-75h-243v77h142q-60 42 -96.5 109t-36.5 160q0 79 24.5 142t67 106.5t100.5 67
t125 23.5q63 0 117.5 -20t94.5 -60.5t63 -102.5t23 -145q0 -49 -11 -91t-30 -77t-44 -63t-53 -49h147v-77h-243z" />
    <glyph glyph-name="pi" unicode="&#x3c0;" horiz-adv-x="633" 
d="M476 423q0 -97 5 -163.5t13 -108.5q9 -48 22 -65.5t33 -17.5q22 0 42 6l10 -73q-13 -4 -31 -6.5t-37 -2.5q-56 0 -85 30.5t-44 106.5q-9 48 -13.5 122.5t-4.5 171.5h-165q2 -106 -12 -214.5t-49 -214.5l-99 12q38 108 56.5 209.5t16.5 207.5h-121v74h586v-74h-123z" />
    <glyph glyph-name="endash" unicode="&#x2013;" 
d="M0 259v78h550v-78h-550z" />
    <glyph glyph-name="emdash" unicode="&#x2014;" horiz-adv-x="1000" 
d="M118 259v78h764v-78h-764z" />
    <glyph glyph-name="quoteleft" unicode="&#x2018;" horiz-adv-x="243" 
d="M203 715q-48 -52 -54 -86.5t11 -56.5q10 -14 11.5 -29.5t-4.5 -29t-19.5 -22.5t-31.5 -9q-27 0 -45 22t-16.5 59t26.5 85.5t83 101.5l39 -35v0z" />
    <glyph glyph-name="quoteright" unicode="&#x2019;" horiz-adv-x="243" 
d="M126 743q27 0 45 -22t16.5 -59t-26.5 -85.5t-83 -101.5l-39 35q48 52 54 86.5t-11 56.5q-11 13 -12 29t5 29.5t19.5 22.5t31.5 9z" />
    <glyph glyph-name="quotesinglbase" unicode="&#x201a;" horiz-adv-x="243" 
d="M126 113q27 0 45 -22t16.5 -58.5t-26.5 -85t-83 -101.5l-39 34q48 52 54 87t-11 57q-11 13 -12 28.5t5 29t19.5 22.5t31.5 9z" />
    <glyph glyph-name="quotedblleft" unicode="&#x201c;" horiz-adv-x="433" 
d="M203 715q-48 -52 -54 -86.5t11 -56.5q10 -14 11.5 -29.5t-4.5 -29t-19.5 -22.5t-31.5 -9q-27 0 -45 22t-16.5 59t26.5 85.5t83 101.5l39 -35v0zM393 715q-48 -52 -54 -86.5t11 -56.5q10 -14 11.5 -29.5t-4.5 -29t-19.5 -22.5t-31.5 -9q-27 0 -45 22t-16.5 59t26.5 85.5
t83 101.5l39 -35v0z" />
    <glyph glyph-name="quotedblright" unicode="&#x201d;" horiz-adv-x="433" 
d="M126 743q27 0 45 -22t16.5 -59t-26.5 -85.5t-83 -101.5l-39 35q48 52 54 86.5t-11 56.5q-11 13 -12 29t5 29.5t19.5 22.5t31.5 9zM316 743q27 0 45 -22t16.5 -59t-26.5 -85.5t-83 -101.5l-39 35q48 52 54 86.5t-11 56.5q-11 13 -12 29t5 29.5t19.5 22.5t31.5 9z" />
    <glyph glyph-name="quotedblbase" unicode="&#x201e;" horiz-adv-x="433" 
d="M126 113q27 0 45 -22t16.5 -58.5t-26.5 -85t-83 -101.5l-39 34q48 52 54 87t-11 57q-11 13 -12 28.5t5 29t19.5 22.5t31.5 9zM316 113q27 0 45 -22t16.5 -58.5t-26.5 -85t-83 -101.5l-39 34q48 52 54 87t-11 57q-11 13 -12 28.5t5 29t19.5 22.5t31.5 9z" />
    <glyph glyph-name="dagger" unicode="&#x2020;" horiz-adv-x="449" 
d="M260 557l17 -98l-19 -251h-67l-19 251l16 98h-140v70h140l-16 137h105l-17 -137h140v-70h-140z" />
    <glyph glyph-name="daggerdbl" unicode="&#x2021;" horiz-adv-x="449" 
d="M261 295l16 -130h-106l17 130h-140v70h140l-16 100l16 99h-140v70h140l-16 130h105l-16 -130h139v-70h-139l16 -99l-16 -100h139v-70h-139z" />
    <glyph glyph-name="bullet" unicode="&#x2022;" horiz-adv-x="420" 
d="M331 297q0 -25 -9.5 -47t-26 -38.5t-38.5 -26t-47 -9.5t-47 9.5t-38.5 26t-26 38.5t-9.5 47t9.5 47t26 38.5t38.5 26t47 9.5t47 -9.5t38.5 -26t26 -38.5t9.5 -47z" />
    <glyph glyph-name="ellipsis" unicode="&#x2026;" horiz-adv-x="665" 
d="M173 51q0 -25 -17.5 -42.5t-42.5 -17.5q-26 0 -43.5 17.5t-17.5 42.5q0 26 17.5 43.5t43.5 17.5q25 0 42.5 -17.5t17.5 -43.5zM388 51q0 -25 -17.5 -42.5t-43.5 -17.5q-25 0 -42.5 17.5t-17.5 42.5q0 26 17.5 43.5t42.5 17.5q26 0 43.5 -17.5t17.5 -43.5zM603 51
q0 -25 -17.5 -42.5t-43.5 -17.5q-25 0 -42.5 17.5t-17.5 42.5q0 26 17.5 43.5t42.5 17.5q26 0 43.5 -17.5t17.5 -43.5z" />
    <glyph glyph-name="perthousand" unicode="&#x2030;" horiz-adv-x="1026" 
d="M321 515q0 -38 -11.5 -68t-31 -50.5t-45 -31t-54.5 -10.5q-60 0 -96 35t-36 111q0 37 11.5 67t30.5 50t44.5 31t54.5 11q57 0 95 -33.5t38 -111.5zM249 508q0 47 -15 69t-49 22q-31 0 -48.5 -24.5t-17.5 -67.5q0 -48 15 -70t49 -22q31 0 48.5 25t17.5 68zM112 -16l-55 42
l527 640l56 -44zM651 151q0 -38 -11.5 -68t-31 -50.5t-45 -31.5t-54.5 -11q-60 0 -96 35t-36 112q0 37 11.5 66.5t30.5 50t44.5 31t54.5 10.5q57 0 95 -33t38 -111zM580 144q0 47 -15 69t-50 22q-31 0 -48.5 -25t-17.5 -67q0 -48 15 -70t49 -22q31 0 49 24.5t18 68.5z
M969 151q0 -38 -11 -68t-30.5 -50.5t-45 -31.5t-54.5 -11q-60 0 -96 35t-36 112q0 37 11.5 66.5t30.5 50t44.5 31t54.5 10.5q57 0 94.5 -33t37.5 -111zM898 144q0 47 -15 69t-49 22q-31 0 -49 -25t-18 -67q0 -92 65 -92q31 0 48.5 24.5t17.5 68.5z" />
    <glyph glyph-name="guilsinglleft" unicode="&#x2039;" horiz-adv-x="313" 
d="M172 115l-119 178l120 181l66 -36l-97 -144l98 -142z" />
    <glyph glyph-name="guilsinglright" unicode="&#x203a;" horiz-adv-x="313" 
d="M139 115l-66 36l98 144l-97 142l68 37l118 -178z" />
    <glyph glyph-name="fraction" unicode="&#x2044;" horiz-adv-x="419" 
d="M15 -27l-64 46l479 679l64 -46z" />
    <glyph glyph-name="fraction" unicode="&#x2215;" horiz-adv-x="419" 
d="M15 -27l-64 46l479 679l64 -46z" />
    <glyph glyph-name="trademark" unicode="&#x2122;" horiz-adv-x="699" 
d="M187 620v-226h-69v226h-74v55h216v-55h-73zM578 394l-22 147l-7 54l-12 -46l-45 -155h-69l-44 157l-11 44l-3 -37l-24 -164h-64l44 281h86l45 -154l10 -46l9 42l47 158h86l43 -281h-69z" />
    <glyph glyph-name="partialdiff" unicode="&#x2202;" horiz-adv-x="637" 
d="M440 238q0 54 -33 90t-98 36q-32 0 -58.5 -12t-46 -33t-30 -49.5t-10.5 -61.5q0 -69 35 -103.5t91 -34.5q32 0 59.5 13t47.5 35.5t31.5 53t11.5 66.5zM564 409q0 -88 -21.5 -174t-70.5 -149q-33 -42 -83.5 -68t-110.5 -26q-100 0 -152 56t-52 152q0 51 17.5 95t49 76
t75.5 50t98 18q58 0 98 -26t58 -68v45t-1 39q-3 59 -21 102.5t-47 72.5t-68.5 43t-84.5 14l10 74q69 -1 125.5 -23.5t96.5 -64.5t62 -102t22 -136z" />
    <glyph glyph-name="product" unicode="&#x220f;" horiz-adv-x="784" 
d="M634 653v-900h-87v900h-310v-900h-86v900h-106v77h694v-77h-105z" />
    <glyph glyph-name="summation" unicode="&#x2211;" horiz-adv-x="609" 
d="M36 -247v70l309 427l-290 410v70h483v-77h-371l284 -399l-307 -421h409v-80h-517z" />
    <glyph glyph-name="minus" unicode="&#x2212;" 
d="M42 259v78h466v-78h-466z" />
    <glyph glyph-name="radical" unicode="&#x221a;" horiz-adv-x="608" 
d="M345 0h-104l-148 429h-92v68h69h96l95 -289q9 -28 17.5 -56.5t16.5 -57.5h2q12 55 27 106l158 558h97z" />
    <glyph glyph-name="infinity" unicode="&#x221e;" horiz-adv-x="975" 
d="M417 297q-51 38 -95 64.5t-84 26.5q-45 0 -68 -27t-23 -62q0 -39 24 -64t70 -25q39 0 82.5 25t93.5 62zM828 298q0 39 -24 64.5t-70 25.5q-38 0 -82.5 -25.5t-93.5 -62.5q51 -38 95 -64t84 -26q45 0 68 26.5t23 61.5zM918 303q0 -35 -12.5 -66t-36 -54.5t-58 -37.5
t-79.5 -14q-60 0 -121 32.5t-127 81.5q-29 -21 -59 -41.5t-61 -36.5t-63.5 -26t-65.5 -10q-45 0 -78.5 13t-55.5 35.5t-33 52t-11 62.5q0 36 13 67.5t37 54.5t57.5 36.5t75.5 13.5q63 0 125 -33t126 -81q28 21 58 41.5t61.5 36.5t64 26t64.5 10q44 0 77.5 -13t56 -35
t34 -51.5t11.5 -63.5z" />
    <glyph glyph-name="integral" unicode="&#x222b;" horiz-adv-x="339" 
d="M320 651q-10 3 -23.5 5.5t-26.5 2.5q-19 0 -32.5 -6t-22.5 -24t-13 -50t-4 -83q0 -60 2 -114.5t4 -112t4 -122t2 -143.5q0 -71 -9.5 -120.5t-28.5 -80.5t-48 -45t-68 -14q-13 0 -27 2t-26 4v79q11 -3 24 -5t25 -2q19 0 32.5 6t22.5 23.5t13 49t4 81.5q0 57 -1.5 111.5
t-4 113t-4 124t-1.5 145.5q0 72 10 121.5t30 80.5t49 44.5t67 13.5q12 0 25.5 -1.5t25.5 -4.5v-79v0z" />
    <glyph glyph-name="approxequal" unicode="&#x2248;" 
d="M504 194q-23 -20 -57 -36.5t-72 -16.5q-36 0 -61 9.5t-46.5 20.5t-43 20.5t-51.5 9.5q-31 0 -55.5 -14t-41.5 -28l-30 62q22 20 54.5 38t73.5 18q34 0 59 -9.5t47.5 -21t45.5 -21t53 -9.5q26 0 49.5 10t46.5 30l29 -62v0zM504 373q-23 -23 -55 -40.5t-74 -17.5
q-35 0 -59.5 9.5t-46 20.5t-43.5 20.5t-53 9.5t-56 -14t-42 -28l-29 62q23 22 57 39.5t74 17.5q34 0 59.5 -9.5t48 -21t44.5 -21t49 -9.5q26 0 49.5 12t46.5 32l30 -62v0z" />
    <glyph glyph-name="notequal" unicode="&#x2260;" 
d="M266 175l-56 -139h-80l56 139h-134v74h163l38 96h-201v75h230l57 141h80l-57 -141h136v-75h-165l-39 -96h204v-74h-232z" />
    <glyph glyph-name="lessequal" unicode="&#x2264;" 
d="M68 0v75h414v-75h-414zM418 127l-361 247l360 249l53 -62l-286 -186l286 -182z" />
    <glyph glyph-name="greaterequal" unicode="&#x2265;" 
d="M68 0v75h414v-75h-414zM133 127l-53 62l286 186l-286 183l52 65l361 -247z" />
    <glyph glyph-name="lozenge" unicode="&#x25ca;" horiz-adv-x="619" 
d="M304 585l-171 -242l182 -252l172 239zM341 -9h-57l-250 350l246 343h55l250 -349z" />
    <glyph glyph-name="Acute" unicode="&#xf6c9;" horiz-adv-x="389" 
d="M109 725l-18 52l182 74l26 -70z" />
    <glyph glyph-name="Caron" unicode="&#xf6ca;" horiz-adv-x="433" 
d="M214 724l-160 83l27 50l135 -63l132 63l23 -48z" />
    <glyph glyph-name="Dieresis" unicode="&#xf6cb;" horiz-adv-x="546" 
d="M207 781q0 -21 -15 -35.5t-36 -14.5t-35.5 14.5t-14.5 35.5t14.5 35.5t35.5 14.5t36 -14.5t15 -35.5zM420 781q0 -21 -14.5 -35.5t-35.5 -14.5t-35.5 14.5t-14.5 35.5t14.5 35.5t35.5 14.5t35.5 -14.5t14.5 -35.5z" />
    <glyph glyph-name="Grave" unicode="&#xf6ce;" horiz-adv-x="369" 
d="M261 725l-190 56l26 70l182 -74z" />
    <glyph glyph-name="apple" unicode="&#xf8ff;" horiz-adv-x="1041" 
d="M150 360q-2 -22 0 -44l-128 -9q-2 32 0 62zM531 355q2 0 2 5t-2 5q3 -5 0 -10zM528 357q5 0 2.5 2t-0.5 2v1q-5 0 -2 -2t0 -2v-1v0zM525 359q-2 1 -2 -1q0 -1 2 1zM525 357h1v3q0 5 -4 1q2 0 3 -1q-2 0 -3 -2t3 0v-1zM522 355q-3 5 0 10q-2 0 -2 -5t2 -5zM518 358
q-2 -1 -2 1q0 3 2 2v1q-2 1 -2.5 -2.5t2.5 -2.5v1zM513 362v-3q0 -2 -0.5 -1.5t-0.5 1.5v3h-1v-3q0 -2 1 -2q2 0 2 2v3h-1zM510 358h-2v6h-1v-7h3v1zM634 -6l-242 -61l26 -62h207l14 32l-7 14l-74 -19l-12 33l104 26zM633 77l-241 -62l16 -39l241 60zM395 151v-54l16 -38
l235 59v33h-251zM564 335q-13 2 -22.5 2.5t-20.5 0.5q-10 0 -21 -0.5t-24 -2.5l15 -143h60l13 143v0zM455 192l-16 137q-13 -3 -21 -6.5t-15 -5.5t-11 4t-4.5 15t1 17t6.5 10q29 8 61.5 14t64.5 6q34 0 66.5 -6t61.5 -14q4 -1 5.5 -9t1 -17t-4.5 -15.5t-11 -4.5
q-8 4 -17 6.5t-22 5.5l-14 -137h59q26 23 46 60.5t20 85.5q0 40 -15 75t-41 61t-61 41t-74 15q-40 0 -75 -15t-61 -41t-41 -61t-15 -75q0 -42 17.5 -80.5t50.5 -65.5h58zM763 338q0 -52 -19.5 -95.5t-48.5 -72.5v-77l-16 -5l32 -74l-30 -8l30 -72l-31 -7l10 -25l-29 -68h-51
q-3 -18 -28.5 -31t-60.5 -13q-36 0 -61 13t-27 31h-52l-50 122l31 8l-31 74l34 9l-19 46v78q-29 30 -48 73t-19 94q0 50 19 94t51.5 77t76.5 52t95 19q50 0 94 -19t77 -52t52 -77t19 -94zM1019 369q3 -31 0 -61l-126 9q2 21 0 43l126 9v0zM846 706q24 -19 43 -43l-94 -81
q-7 8 -15 16t-16 14zM543 696q-23 2 -44 0l-8 124q31 2 60 0l-8 -124v0zM152 665q11 11 21 21.5t22 20.5l83 -96q-8 -6 -15.5 -14t-15.5 -15l-95 83v0z" />
    <glyph glyph-name="Circumflex" horiz-adv-x="433" 
d="M347 724l-135 63l-132 -63l-23 48l157 85l160 -83z" />
    <glyph glyph-name="Tilde" horiz-adv-x="496" 
d="M433 808q-20 -35 -48.5 -54t-63.5 -19q-26 0 -43.5 8t-32 18t-27.5 18t-29 8q-36 0 -63 -45l-46 33q20 35 48.5 54.5t63.5 19.5q25 0 43 -8t32.5 -18t27.5 -18t29 -8q34 0 63 44l46 -33v0z" />
    </font>
</defs>
</svg>
