<?xml version="1.0" standalone="no"?>
<!DOCTYPE svg PUBLIC "-//W3C//DTD SVG 1.1//EN" "http://www.w3.org/Graphics/SVG/1.1/DTD/svg11.dtd" >
<svg xmlns="http://www.w3.org/2000/svg" xmlns:xlink="http://www.w3.org/1999/xlink" version="1.1">
<metadata>
Created by FontForge 20161013 at Thu Jun  1 17:01:34 2006
 By ,,,
Copyright (c) 2000-2006, Luc[as] de Groot. All rights reserved. Published by LucasFonts.com
</metadata>
<defs>
<font id="JumboTheSans-Italic" horiz-adv-x="550" >
  <font-face 
    font-family="Jumbo TheSans"
    font-weight="400"
    font-style="italic"
    font-stretch="normal"
    units-per-em="1000"
    panose-1="2 11 5 0 4 3 3 13 2 4"
    ascent="740"
    descent="-260"
    x-height="497"
    cap-height="675"
    bbox="-177 -256 1020.5 857"
    underline-thickness="72"
    underline-position="-286"
    slope="-11"
    unicode-range="U+000D-FB04"
  />
<missing-glyph 
d="M450 100v350h-350v-350h350zM250 350v50h150v-250h-50v100h-100v50h100v50h-100zM50 50v450h450v-450h-450zM150 150v250h50v-200h100v-50h-150z" />
    <glyph glyph-name="fi" unicode="fi" horiz-adv-x="575" 
d="M529 643q-26 9 -56.5 14t-56.5 5q-75 0 -115.5 -34t-52.5 -99l-6 -32h300l-95 -497h-88l81 427h-212l-85 -452q-23 -122 -80 -175.5t-148 -53.5q-46 0 -86 9l22 76q17 -5 35.5 -7.5t34.5 -2.5q27 0 48 7.5t37 25t28 46.5t20 73l86 454h-100l14 70h101l3 22
q17 106 81 161.5t183 55.5q40 0 73.5 -5t64.5 -13z" />
    <glyph glyph-name="fl" unicode="fl" horiz-adv-x="574" 
d="M447 0h-88l125 656q-21 4 -41.5 5.5t-39.5 1.5q-66 0 -103 -27.5t-48 -88.5l-10 -50h132l-15 -70h-131l-85 -452q-23 -122 -80 -175.5t-148 -53.5q-46 0 -86 9l22 76q17 -5 35.5 -7.5t34.5 -2.5q27 0 48 7.5t37 25t28 46.5t20 73l86 454h-100l14 70h100l10 54
q17 91 79 138t169 47q46 0 90 -4t82 -11z" />
    <glyph glyph-name="ff" unicode="ff" horiz-adv-x="639" 
d="M228 427l-85 -452q-8 -42 -19.5 -74t-28.5 -55q23 -11 51 -17t54 -6q64 0 101 33t52 111l87 460h-212zM502 639q-25 12 -50.5 16.5t-49.5 4.5q-67 0 -105 -33.5t-49 -96.5l-6 -33h212l6 35q6 33 17 60t25 47zM747 653q-17 5 -35.5 7.5t-34.5 2.5q-54 0 -85 -31t-44 -101
l-6 -34h135l-14 -70h-134l-86 -455q-12 -62 -35 -105t-55 -69t-73.5 -37.5t-91.5 -11.5q-38 0 -76 8t-74 22q-26 -18 -56.5 -25.5t-66.5 -7.5q-46 0 -86 9l22 76q17 -5 35.5 -7.5t34.5 -2.5q27 0 48 7.5t37 25t28 46.5t20 73l86 454h-100l14 70h100l5 31q19 100 81 152.5
t170 52.5q80 0 151 -29q47 32 125 32q41 0 83 -9z" />
    <glyph glyph-name="ffi" unicode="ffi" horiz-adv-x="875" 
d="M228 427l-85 -452q-8 -42 -19.5 -74t-28.5 -55q23 -11 51 -17t54 -6q64 0 101 33t52 111l87 460h-212zM507 637q-27 13 -54 18t-51 5q-67 0 -105 -33.5t-49 -96.5l-6 -33h212l4 25q6 34 18.5 63.5t30.5 51.5zM829 644q-26 9 -56.5 14t-56.5 5q-72 0 -113.5 -33
t-55.5 -105l-5 -28h300l-95 -497h-88l81 427h-211l-86 -455q-12 -62 -35 -105t-55 -69t-73.5 -37.5t-91.5 -11.5q-38 0 -76 8t-74 22q-26 -18 -56.5 -25.5t-66.5 -7.5q-46 0 -86 9l22 76q17 -5 35.5 -7.5t34.5 -2.5q27 0 48 7.5t37 25t28 46.5t20 73l86 454h-100l14 70h100
l5 31q19 100 81 152.5t170 52.5q40 0 80.5 -8t78.5 -24q30 18 69 27t84 9q40 0 73.5 -5.5t64.5 -13.5z" />
    <glyph glyph-name="ffl" unicode="ffl" horiz-adv-x="875" 
d="M229 427l-86 -452q-8 -42 -19.5 -74t-28.5 -55q23 -11 51 -17t54 -6q64 0 101 33t52 111l88 460h-212zM502 639q-26 12 -51 16.5t-48 4.5q-68 0 -106 -33.5t-49 -96.5l-6 -33h212l11 54q11 54 37 88zM747 0h-88l125 656q-21 4 -41.5 6t-39.5 2q-66 0 -102.5 -28
t-48.5 -89l-9 -50h135l-15 -70h-134l-86 -455q-12 -62 -35 -105t-55 -69t-73.5 -37.5t-91.5 -11.5q-38 0 -76 8t-74 22q-26 -18 -56.5 -25.5t-66.5 -7.5q-46 0 -86 9l22 76q17 -5 35.5 -7.5t34.5 -2.5q27 0 48 7.5t37 25t28 46.5t20 73l86 454h-100l14 70h100l6 31
q18 100 80 152.5t170 52.5q39 0 79 -8t75 -22q60 34 149 34q46 0 89.5 -4t82.5 -11z" />
    <glyph glyph-name="f_b" unicode="fb" horiz-adv-x="859" 
d="M738 339q0 49 -14 70t-37 21q-24 0 -47.5 -15.5t-45.5 -40.5t-42.5 -58t-37 -68t-28 -70t-17.5 -64l-8 -42q16 -4 33 -6.5t38 -2.5q55 0 94 26t64 66t36.5 89t11.5 95zM829 356q0 -69 -18.5 -134.5t-56.5 -116.5t-97 -82t-141 -31q-45 0 -83 4.5t-72 12.5l123 647
q-21 4 -41.5 6t-39.5 2q-66 0 -102.5 -28t-48.5 -89l-10 -50h132l-15 -70h-130l-86 -452q-23 -122 -80 -175.5t-148 -53.5q-46 0 -86 9l22 76q17 -5 35.5 -7.5t34.5 -2.5q27 0 48 7.5t37 25t28 46.5t20 73l87 454h-101l15 70h99l11 54q17 91 78.5 138.5t169.5 47.5
q46 0 89.5 -4t82.5 -11l-45 -234q-2 -14 -6 -29.5t-10.5 -37.5t-16 -52t-22.5 -72l2 -1q19 44 43 82.5t53 67t63 45t72 16.5q54 0 82.5 -36t28.5 -115z" />
    <glyph glyph-name="f_h" unicode="fh" horiz-adv-x="884" 
d="M757 0h-89l61 318q11 59 0.5 85.5t-43.5 26.5q-35 0 -70 -32.5t-65 -80.5t-52 -103.5t-31 -101.5l-21 -112h-88l125 656q-21 4 -41.5 6t-39.5 2q-66 0 -102.5 -28t-48.5 -89l-10 -50h132l-15 -70h-130l-86 -452q-23 -122 -80 -175.5t-148 -53.5q-46 0 -86 9l22 76
q17 -5 35.5 -7.5t34.5 -2.5q27 0 48 7.5t37 25t28 46.5t20 73l87 454h-101l15 70h99l11 54q17 91 78.5 138.5t169.5 47.5q46 0 89.5 -4t82.5 -11l-43 -225q-3 -15 -7 -32t-10.5 -40t-16 -53t-22.5 -71h2q18 39 41 76.5t52 66t63 46t73 17.5q69 0 94 -45.5t10 -123.5z" />
    <glyph glyph-name="f_j" unicode="fj" horiz-adv-x="581" 
d="M529 644q-25 8 -56 13.5t-57 5.5q-75 0 -115.5 -34.5t-52.5 -99.5l-6 -32h307l-107 -559q-9 -47 -24.5 -83t-39.5 -60t-58.5 -36.5t-81.5 -12.5q-37 0 -64 8l18 78q14 -5 29.5 -8t27.5 -3q25 0 42 6.5t29 22.5t20.5 42t16.5 64l90 471h-218l-86 -452q-23 -122 -80 -175.5
t-148 -53.5q-46 0 -86 9l22 76q17 -5 35.5 -7.5t34.5 -2.5q27 0 48 7.5t37 25t28 46.5t20 73l87 454h-101l15 70h100l3 22q35 218 264 218q41 0 74.5 -5.5t64.5 -13.5z" />
    <glyph glyph-name="f_k" unicode="fk" horiz-adv-x="794" 
d="M588 270l149 -270h-108l-131 263l-51 -263h-88l125 656q-21 4 -41.5 6t-39.5 2q-66 0 -102.5 -28t-48.5 -89l-10 -50h132l-15 -70h-131l-86 -452q-23 -122 -80 -175.5t-147 -53.5q-46 0 -86 9l21 76q18 -5 36.5 -7.5t34.5 -2.5q26 0 47 7.5t37.5 25t28.5 46.5t20 73
l86 454h-100l14 70h100l10 54q18 91 79.5 138.5t168.5 47.5q46 0 90 -4t82 -11l-82 -437l232 237l65 -51z" />
    <glyph glyph-name=".notdef" 
d="M450 100v350h-350v-350h350zM250 350v50h150v-250h-50v100h-100v50h100v50h-100zM50 50v450h450v-450h-450zM150 150v250h50v-200h100v-50h-150z" />
    <glyph glyph-name=".null" horiz-adv-x="0" 
 />
    <glyph glyph-name=".null" horiz-adv-x="0" 
 />
    <glyph glyph-name="nonmarkingreturn" unicode="&#xd;" horiz-adv-x="500" 
 />
    <glyph glyph-name="space" unicode=" " horiz-adv-x="218" 
 />
    <glyph glyph-name="space" unicode="&#xa0;" horiz-adv-x="218" 
 />
    <glyph glyph-name="exclam" unicode="!" horiz-adv-x="314" 
d="M191 52q0 -26 -17.5 -43.5t-43.5 -17.5t-42 17t-16 40q0 26 18 43.5t44 17.5t41.5 -17t15.5 -40zM191 168h-74l86 535h104z" />
    <glyph glyph-name="quotedbl" unicode="&#x22;" horiz-adv-x="358" 
d="M174 469h-64l29 230h93zM338 469h-65l30 230h93z" />
    <glyph glyph-name="numbersign" unicode="#" 
d="M244 412l-49 -168h146l49 168h-146zM552 412h-93l-50 -168h87l-12 -62h-93l-55 -182h-68l54 182h-146l-54 -182h-69l55 182h-88l12 62h94l50 168h-88l12 62h94l52 176h68l-51 -176h146l51 176h69l-52 -176h87z" />
    <glyph glyph-name="dollar" unicode="$" 
d="M471 547q-26 8 -56 12.5t-56 4.5q-68 0 -102 -28t-34 -66q0 -28 17 -46.5t42 -33t55 -28.5t55 -33.5t42 -47t17 -68.5q0 -34 -14.5 -66t-40.5 -58t-63 -44.5t-83 -24.5l-20 -105h-67l19 101q-29 0 -60 4t-57 11l18 84q18 -8 53.5 -15.5t73.5 -7.5q34 0 60.5 8.5t45 23
t28.5 32.5t10 37q0 31 -16.5 51t-41.5 35.5t-54.5 29t-54.5 32.5t-41.5 45.5t-16.5 67.5q0 34 14 64t39 54t60.5 40.5t78.5 21.5l18 96h68l-18 -92q27 -1 52 -4t47 -8z" />
    <glyph glyph-name="percent" unicode="%" horiz-adv-x="735" 
d="M609 186q0 57 -53 57q-20 0 -37.5 -10t-30.5 -28t-21 -42.5t-8 -53.5q0 -58 53 -58q19 0 37 10t31 28t21 42.5t8 54.5zM311 542q0 57 -53 57q-20 0 -37.5 -10t-31 -28t-21 -42.5t-7.5 -53.5q0 -58 52 -58q20 0 37.5 10t31 28t21.5 43t8 54zM681 194q0 -48 -15.5 -86
t-40.5 -64.5t-57 -40t-64 -13.5q-60 0 -89 29.5t-29 80.5q0 48 15.5 86t41 64t57 39.5t63.5 13.5q59 0 88.5 -28t29.5 -81zM102 -21l-49 44l611 646l49 -44zM383 551q0 -49 -15.5 -87t-40.5 -64t-57 -39.5t-64 -13.5q-60 0 -89 29t-29 81q0 48 15.5 85.5t41 64t57 40
t63.5 13.5q59 0 88.5 -28.5t29.5 -80.5z" />
    <glyph glyph-name="ampersand" unicode="&#x26;" horiz-adv-x="779" 
d="M449 139q-47 48 -95.5 102.5t-86.5 107.5q-26 -19 -50 -38.5t-42 -41t-28.5 -45.5t-10.5 -52q0 -21 6.5 -40t20.5 -33.5t36 -23t53 -8.5q47 0 98 17t99 55zM414 606q0 27 -16 44t-48 17q-45 0 -71 -27.5t-26 -68.5q0 -23 12.5 -51.5t32.5 -60.5q23 16 44 32t37 33.5
t25.5 37.5t9.5 44zM718 448q-13 -91 -51.5 -168.5t-92.5 -134.5q30 -29 60 -54.5t58 -47.5l-62 -62q-34 26 -63 51t-59 53q-61 -48 -132.5 -71.5t-143.5 -23.5q-50 0 -86 13t-59 35.5t-34 52t-11 62.5q0 44 16 80.5t41.5 67.5t58 57t66.5 50q-25 40 -42.5 79t-17.5 74
t14 66.5t39.5 55.5t61.5 38.5t80 14.5q76 0 110.5 -33.5t34.5 -84.5q0 -35 -13.5 -64.5t-36.5 -56t-53 -50t-63 -47.5q35 -50 81.5 -101.5t95.5 -100.5q41 43 72 107.5t42 142.5h89v0z" />
    <glyph glyph-name="quotesingle" unicode="'" horiz-adv-x="195" 
d="M174 469h-64l29 230h93z" />
    <glyph glyph-name="parenleft" unicode="(" horiz-adv-x="297" 
d="M375 749q-47 -59 -89 -132.5t-73 -154t-49 -164.5t-18 -163q0 -88 12 -164.5t41 -147.5l-70 -32q-36 84 -52.5 166t-16.5 172q0 83 17.5 168t50 168.5t79.5 163.5t107 153l61 -33v0z" />
    <glyph glyph-name="parenright" unicode=")" horiz-adv-x="297" 
d="M260 444q0 -83 -17.5 -168t-50 -168.5t-79.5 -163.5t-107 -153l-61 33q47 59 89 132.5t73 154t49 164t18 163.5q0 88 -12 164t-41 148l70 32q36 -84 52.5 -166t16.5 -172z" />
    <glyph glyph-name="asterisk" unicode="*" horiz-adv-x="366" 
d="M290 578l91 -51l-42 -54l-78 70l-12 -115l-67 9l33 106l-95 -61l-25 60l109 41l-91 51l41 54l78 -69l12 114l67 -9l-34 -106l98 62l25 -61z" />
    <glyph glyph-name="plus" unicode="+" 
d="M511 260h-191l-38 -201h-85l38 201h-189l14 75h190l38 200h85l-38 -200h191z" />
    <glyph glyph-name="comma" unicode="," horiz-adv-x="224" 
d="M82 113q28 0 45.5 -22.5t13 -59.5t-37 -85t-104.5 -99l-33 38q57 49 70 83.5t-2 60.5q-8 13 -8 28t7 27.5t19.5 20.5t29.5 8z" />
    <glyph glyph-name="hyphen" unicode="-" horiz-adv-x="328" 
d="M283 250h-234l14 74h235z" />
    <glyph glyph-name="hyphen" unicode="&#xad;" horiz-adv-x="328" 
d="M283 250h-234l14 74h235z" />
    <glyph glyph-name="period" unicode="." horiz-adv-x="226" 
d="M144 56q0 -28 -18.5 -46.5t-44.5 -18.5q-25 0 -42 18t-17 42q0 27 18.5 45.5t44.5 18.5t42.5 -18t16.5 -41z" />
    <glyph glyph-name="slash" unicode="/" horiz-adv-x="429" 
d="M6 -161h-89l520 918h88z" />
    <glyph glyph-name="zero" unicode="0" 
d="M438 459q0 61 -20.5 93t-73.5 32q-37 0 -65.5 -21.5t-51 -56t-38 -77.5t-25.5 -86.5t-14.5 -83.5t-4.5 -67q0 -61 20.5 -93t74.5 -32q36 0 65 21.5t51 56t37.5 77.5t25.5 86.5t14.5 83t4.5 67.5zM533 466q0 -44 -7 -97t-22.5 -105.5t-39.5 -102t-58 -87.5t-79 -61
t-101 -23q-91 0 -134 49.5t-43 144.5q0 44 7 97t22.5 105.5t39.5 102t58.5 87.5t79 61t101.5 23q91 0 133.5 -50t42.5 -144z" />
    <glyph glyph-name="one" unicode="1" 
d="M450 0h-421l15 81h174l91 477l-171 -62l-1 84l209 70h74l-108 -569h153z" />
    <glyph glyph-name="two" unicode="2" 
d="M507 504q0 -32 -8 -64t-31 -67.5t-64 -77.5t-107 -95l-144 -115v-1q31 1 85.5 1.5t120.5 0.5h96l-16 -86h-427l14 74l182 149q60 50 98.5 86.5t60.5 66.5t30.5 55.5t8.5 53.5q0 41 -26 67.5t-80 26.5q-44 0 -86 -15.5t-71 -35.5l-13 79q37 20 86 36t110 16q46 0 80 -12
t56.5 -33t33.5 -49.5t11 -60.5z" />
    <glyph glyph-name="three" unicode="3" 
d="M510 527q0 -63 -42 -109.5t-111 -65.5l-2 -1q56 -8 84.5 -42.5t28.5 -85.5q0 -37 -17 -78t-54.5 -75.5t-97.5 -57t-145 -22.5q-35 0 -66 4.5t-53 11.5l20 81q23 -9 53 -14.5t62 -5.5q52 0 89.5 13t61.5 33.5t35.5 46t11.5 51.5q0 42 -34.5 67t-103.5 25q-29 0 -53 -1
t-50 -4l14 72h22q70 0 117.5 12.5t76.5 32.5t42 45t13 51q0 34 -26 54t-77 20q-40 0 -77.5 -10t-72.5 -27l-2 78q38 14 81.5 24t90.5 10q93 0 137 -36.5t44 -96.5z" />
    <glyph glyph-name="four" unicode="4" 
d="M393 557l-276 -328q22 1 53 1.5l62 1t57 0.5h42l63 325h-1zM419 232h108l-16 -82h-108l-28 -150h-89l28 150h-301l7 74l356 426h123z" />
    <glyph glyph-name="five" unicode="5" 
d="M512 564h-267l-33 -170q14 1 28.5 1.5t25.5 0.5q53 0 92 -11.5t64.5 -32t37.5 -48.5t12 -60q0 -53 -22.5 -99t-63.5 -80.5t-98 -54t-126 -19.5q-38 0 -66.5 2.5t-55.5 9.5l16 84q55 -19 117 -19q46 0 83 12t63 33.5t40 51t14 64.5q0 95 -151 95q-30 0 -60 -2.5t-49 -5.5
l64 334h352z" />
    <glyph glyph-name="six" unicode="6" 
d="M410 237q0 45 -26.5 71.5t-80.5 26.5q-37 0 -66.5 -14t-50.5 -36.5t-32.5 -51t-11.5 -58.5q0 -50 27 -80.5t83 -30.5q33 0 61.5 13t50 36.5t34 55t12.5 68.5zM508 577q-14 2 -29.5 3.5t-34.5 1.5q-99 0 -163.5 -54t-102.5 -151q-4 -9 -9.5 -23t-10.5 -29h1
q29 41 75.5 62.5t96.5 21.5q43 0 75.5 -11.5t54 -32t32.5 -48.5t11 -62q0 -56 -20.5 -104.5t-57 -84t-86 -56t-107.5 -20.5q-90 0 -136.5 50.5t-46.5 144.5q0 35 7.5 83.5t26 101.5t49 104.5t76.5 92.5t108 66.5t144 25.5q19 0 35.5 -1t25.5 -3z" />
    <glyph glyph-name="seven" unicode="7" 
d="M558 572q-51 -71 -100.5 -145t-95 -147.5t-86.5 -144.5t-74 -135h-108q38 68 80.5 140t88 144.5t93 143t95.5 136.5q-9 0 -34 -0.5t-59 -1t-73 -0.5h-73h-95l17 88h439z" />
    <glyph glyph-name="eight" unicode="8" 
d="M388 182q0 21 -8.5 37t-23 29t-33.5 24t-40 21q-47 -22 -77 -42.5t-46.5 -39.5t-22.5 -36.5t-6 -34.5q0 -33 28 -55t83 -22q27 0 53.5 7.5t47 22.5t33 37t12.5 52zM437 515q0 35 -25.5 54t-69.5 19q-32 0 -56.5 -9.5t-41.5 -25.5t-26 -36.5t-9 -41.5q0 -17 7.5 -31
t20 -26t29 -22.5t35.5 -20.5q76 37 106 68t30 72zM531 529q0 -33 -10 -59.5t-30 -49.5t-49.5 -43t-68.5 -40q21 -12 41 -25.5t35.5 -31t24.5 -38.5t9 -48q0 -47 -21.5 -85t-57 -64.5t-81.5 -40.5t-94 -14q-93 0 -143 36.5t-50 100.5q0 69 46.5 117t127.5 87q-19 11 -36 23.5
t-30 28.5t-20.5 35t-7.5 43q0 39 18 75t49.5 63.5t75 44t95.5 16.5q87 0 132 -35.5t45 -95.5z" />
    <glyph glyph-name="nine" unicode="9" 
d="M437 476q0 48 -27 79t-80 31q-36 0 -65 -15t-49.5 -39.5t-32 -55.5t-11.5 -63q0 -48 26 -73t75 -25q33 0 63 12.5t52.5 34t35.5 51t13 63.5zM530 470q0 -31 -6.5 -78.5t-23 -100.5t-46 -106.5t-75 -96.5t-109 -70t-149.5 -27q-27 0 -47 1.5t-39 5.5l15 81q18 -5 41 -7.5
t43 -2.5q98 0 162.5 51t99.5 145q5 14 8.5 24t8.5 18h-1q-31 -32 -72.5 -50.5t-91.5 -18.5q-80 0 -124.5 41t-44.5 116q0 49 18.5 97t52.5 85t83 60t111 23q84 0 135 -45t51 -145z" />
    <glyph glyph-name="colon" unicode=":" horiz-adv-x="285" 
d="M185 55q0 -27 -18.5 -45.5t-44.5 -18.5t-43.5 18t-17.5 42q0 27 18.5 45.5t44.5 18.5t43.5 -18t17.5 -42zM241 347q0 -27 -18.5 -45t-44.5 -18t-43.5 17.5t-17.5 42.5q0 27 18.5 45.5t44.5 18.5t43.5 -18t17.5 -43z" />
    <glyph glyph-name="semicolon" unicode=";" horiz-adv-x="285" 
d="M124 113q28 0 45.5 -22.5t13 -59.5t-37 -85t-104.5 -99l-33 38q57 49 70 83.5t-2 60.5q-8 13 -8 28t7 27.5t19.5 20.5t29.5 8zM241 347q0 -27 -18.5 -45t-44.5 -18t-43.5 17.5t-17.5 42.5q0 27 18.5 45.5t44.5 18.5t43.5 -18t17.5 -43z" />
    <glyph glyph-name="semicolon" unicode="&#x37e;" horiz-adv-x="285" 
d="M124 113q28 0 45.5 -22.5t13 -59.5t-37 -85t-104.5 -99l-33 38q57 49 70 83.5t-2 60.5q-8 13 -8 28t7 27.5t19.5 20.5t29.5 8zM241 347q0 -27 -18.5 -45t-44.5 -18t-43.5 17.5t-17.5 42.5q0 27 18.5 45.5t44.5 18.5t43.5 -18t17.5 -43z" />
    <glyph glyph-name="less" unicode="&#x3c;" 
d="M199 302l219 -225l-65 -58l-269 290l362 277l52 -62z" />
    <glyph glyph-name="equal" unicode="=" 
d="M482 175h-439l15 74h438zM515 345h-439l14 75h438z" />
    <glyph glyph-name="greater" unicode="&#x3e;" 
d="M128 19l-52 62l298 222l-218 225l65 58l269 -290z" />
    <glyph glyph-name="question" unicode="?" horiz-adv-x="437" 
d="M212 52q0 -26 -17.5 -43.5t-43.5 -17.5t-42 17t-16 40q0 26 18 43.5t44 17.5q25 0 41 -17t16 -40zM425 529q0 -43 -17 -73t-42 -55t-53.5 -47t-51.5 -48t-36 -59t-7 -79h-88q-7 52 4.5 90t33.5 66.5t49.5 51t51.5 44t40.5 44.5t16.5 53q0 22 -12.5 41t-35 33t-53.5 23.5
t-68 13.5l27 82q59 -5 104 -21.5t75.5 -40.5t46 -55t15.5 -64z" />
    <glyph glyph-name="at" unicode="@" horiz-adv-x="964" 
d="M586 463q-23 6 -53 6t-57.5 -17.5t-49 -47.5t-34 -68.5t-12.5 -80.5q0 -52 34 -52q19 0 40.5 12.5t42.5 38.5t40 64.5t34 91.5l15 53v0zM895 443q0 -67 -18.5 -124.5t-51.5 -99.5t-79 -66t-101 -24q-31 0 -52 9.5t-32.5 24.5t-14 34.5t2.5 40.5h-3q-8 -15 -23.5 -34
t-36.5 -35.5t-46 -28t-50 -11.5q-88 0 -88 107q0 45 13.5 96.5t43.5 96t77.5 74t115.5 29.5q36 0 67.5 -4t54.5 -10l-59 -213q-15 -53 -3 -77.5t49 -24.5q33 0 61 17t48.5 48t32 74t11.5 94q0 43 -13.5 83.5t-44 72t-78.5 50.5t-117 19q-82 0 -152.5 -34t-122 -92
t-81 -133.5t-29.5 -159.5q0 -58 17 -104.5t51.5 -79.5t85.5 -51t119 -18q45 0 86.5 6.5t84.5 19.5l5 -73q-46 -14 -98 -21t-94 -7q-83 0 -146.5 22t-106.5 63t-65.5 100t-22.5 133q0 102 37.5 193t102.5 159.5t152.5 108.5t187.5 40q83 0 144 -23t100.5 -62.5t59 -92
t19.5 -112.5z" />
    <glyph glyph-name="A" unicode="A" horiz-adv-x="605" 
d="M375 479q-4 23 -6.5 47t-4.5 46h-1q-10 -21 -21 -44.5t-24 -46.5l-135 -250h234zM451 0l-24 158h-282l-85 -158h-96l370 675h100l114 -675h-97z" />
    <glyph glyph-name="B" unicode="B" horiz-adv-x="558" 
d="M408 223q0 45 -34.5 68t-109.5 23h-42t-34 -1l-45 -236q28 -5 82 -5q45 0 79 12t57.5 33t35 48.5t11.5 57.5zM447 528q0 17 -5 31t-18 24t-35.5 15.5t-56.5 5.5q-24 0 -46 -0.5t-43 -1.5l-42 -218q14 -1 27 -1h31q41 0 75.5 9.5t59.5 28t39 45.5t14 62zM543 548
q0 -38 -11.5 -69t-31 -55t-44.5 -40.5t-53 -26.5v-1q48 -11 74.5 -45.5t26.5 -79.5q0 -47 -19 -89.5t-56.5 -74.5t-92.5 -51t-126 -19q-29 0 -55.5 0.5t-47.5 1t-68 1.5l128 675q50 1 69 1.5t44 1t76 0.5q97 0 142 -35t45 -95z" />
    <glyph glyph-name="C" unicode="C" horiz-adv-x="562" 
d="M566 578q-69 24 -138 24q-74 0 -126 -32.5t-85 -84.5t-48.5 -116.5t-15.5 -128.5q0 -37 8 -67.5t27.5 -52.5t52 -34t81.5 -12q42 0 82 9.5t73 23.5l3 -80q-41 -16 -89.5 -25.5t-94.5 -9.5q-72 0 -119 19.5t-74.5 52t-38.5 74t-11 86.5q0 89 25 171.5t73.5 146t121 101.5
t168.5 38q43 0 80 -5t70 -15z" />
    <glyph glyph-name="D" unicode="D" horiz-adv-x="664" 
d="M553 424q0 39 -10 71.5t-34 56.5t-63.5 37.5t-98.5 13.5q-29 0 -57 -1t-48 -2l-99 -520q19 -3 42 -4.5t39 -1.5q89 0 151.5 32t102 82.5t57.5 112.5t18 123zM650 433q0 -83 -26.5 -162t-80.5 -140t-137 -98t-195 -37q-53 0 -68 0.5t-41.5 2t-62.5 1.5l128 674q89 2 110 3
t84 1q78 0 132.5 -18t89.5 -50t51 -77t16 -100z" />
    <glyph glyph-name="E" unicode="E" horiz-adv-x="491" 
d="M492 599h-250l-41 -214h239l-14 -74h-239l-44 -234h251l-15 -77h-251h-89l128 675h89h251z" />
    <glyph glyph-name="F" unicode="F" horiz-adv-x="459" 
d="M489 599h-247l-41 -219h234l-14 -74h-235l-58 -306h-89l128 675h89h248z" />
    <glyph glyph-name="G" unicode="G" horiz-adv-x="668" 
d="M633 569q-40 17 -84 26.5t-84 9.5q-70 0 -128 -27.5t-100 -75t-65 -110.5t-23 -134q0 -35 10.5 -68.5t33.5 -59.5t60 -42.5t90 -16.5q38 0 69 5.5t60 14.5l48 253h90l-60 -315q-54 -20 -112.5 -29t-109.5 -9q-70 0 -122 19t-86 53.5t-51 81.5t-17 104q0 96 33 175.5
t90 137.5t134 90t166 32q50 0 96 -7t88 -21z" />
    <glyph glyph-name="H" unicode="H" horiz-adv-x="684" 
d="M554 0h-89l59 311h-337l-60 -311h-90l128 675h90l-54 -286h337l55 286h90z" />
    <glyph glyph-name="I" unicode="I" horiz-adv-x="257" 
d="M128 0h-89l128 675h89z" />
    <glyph glyph-name="J" unicode="J" horiz-adv-x="321" 
d="M227 171q-8 -41 -22.5 -74t-38.5 -56t-57.5 -35.5t-79.5 -12.5q-23 0 -41 2t-33 6l16 80q12 -5 28 -8t33 -3q41 0 68 22.5t39 84.5l94 498h90z" />
    <glyph glyph-name="K" unicode="K" horiz-adv-x="551" 
d="M286 341l197 -341h-113l-179 334l-63 -334h-90l128 675h90l-61 -318l296 318h117z" />
    <glyph glyph-name="L" unicode="L" horiz-adv-x="417" 
d="M365 0h-237h-89l128 675h89l-112 -596h236z" />
    <glyph glyph-name="M" unicode="M" horiz-adv-x="869" 
d="M777 0h-93l18 385q2 51 4.5 92.5t6.5 78.5h-2q-10 -24 -23.5 -55t-32.5 -67l-223 -434h-96l-55 406q-6 40 -9.5 78.5t-3.5 71.5h-1q-11 -40 -23.5 -82.5t-28.5 -92.5l-118 -381h-95l225 675h108l58 -425q5 -36 7.5 -70t3.5 -64h1q26 59 61 128l224 431h116z" />
    <glyph glyph-name="N" unicode="N" horiz-adv-x="682" 
d="M554 0h-89h-16l-173 413q-16 37 -28.5 73.5t-21.5 69.5q-9 -59 -20 -123.5t-22 -127.5l-57 -305h-89l128 675h89h18l170 -404q16 -37 29 -74.5t24 -73.5q9 54 19.5 117.5t21.5 123.5l57 311h89z" />
    <glyph glyph-name="O" unicode="O" horiz-adv-x="691" 
d="M582 429q0 81 -39.5 128t-121.5 47q-60 0 -110.5 -28.5t-86.5 -77.5t-56.5 -113t-20.5 -136q0 -82 39.5 -129.5t117.5 -47.5q57 0 108 27.5t88.5 76t59.5 113.5t22 140zM679 439q0 -96 -30.5 -178.5t-83 -142.5t-123.5 -94t-151 -34q-123 0 -182 65t-59 181
q0 91 29.5 173t81 143t122 97t153.5 36q118 0 180.5 -64t62.5 -182z" />
    <glyph glyph-name="P" unicode="P" horiz-adv-x="512" 
d="M436 503q0 46 -28 73.5t-96 27.5q-23 0 -39 -0.5t-31 -1.5l-50 -265q20 -4 54 -4q38 0 72.5 13t60.5 35.5t41.5 53.5t15.5 68zM531 516q0 -57 -24.5 -105t-66 -82.5t-95.5 -53.5t-113 -19q-12 0 -27 0.5t-28 2.5l-49 -259h-90l128 675q44 2 66.5 2.5t37 1t59.5 0.5
q100 0 151 -44t51 -119z" />
    <glyph glyph-name="Q" unicode="Q" horiz-adv-x="691" 
d="M582 429q0 81 -39.5 128t-121.5 47q-60 0 -110.5 -28.5t-86.5 -77.5t-56.5 -113t-20.5 -136q0 -82 39.5 -129.5t117.5 -47.5q57 0 108 27.5t88.5 76t59.5 113.5t22 140zM609 -181q-43 -6 -77.5 -5t-63.5 6.5t-55 12.5t-52.5 12.5t-55.5 8t-64 -2.5l14 77q61 7 104 0
t82 -16.5t81.5 -16t101.5 1.5zM679 439q0 -96 -30.5 -178.5t-83 -142.5t-123.5 -94t-151 -34q-123 0 -182 65t-59 181q0 92 29 173.5t81 143t122.5 97t153.5 35.5q118 0 180.5 -64t62.5 -182z" />
    <glyph glyph-name="R" unicode="R" horiz-adv-x="542" 
d="M433 517q0 45 -28 66t-91 21q-23 0 -40 -0.5t-31 -1.5l-44 -230q8 -1 21.5 -1.5t32.5 -0.5q38 0 71 9.5t57 28.5t38 46.5t14 62.5zM528 531q0 -48 -19.5 -87t-51.5 -67t-75 -45t-89 -22q11 -18 20 -35t20 -36l133 -239h-108l-160 303h-13l-57 -303h-89l128 675
q44 2 66.5 2.5t42.5 1t52 0.5q104 0 152 -39t48 -109z" />
    <glyph glyph-name="S" unicode="S" horiz-adv-x="454" 
d="M430 593q-25 9 -50 12.5t-44 3.5q-38 0 -65 -10t-45 -25.5t-26.5 -35.5t-8.5 -40q0 -31 15.5 -52.5t38 -40t49.5 -36t49.5 -39t38 -50t15.5 -68.5q0 -47 -19.5 -87.5t-55 -70.5t-84.5 -47t-108 -17q-27 0 -56.5 3.5t-54.5 11.5l17 88q21 -9 48.5 -15.5t53.5 -6.5
q78 0 120.5 34.5t42.5 91.5q0 29 -15 50t-38 38.5t-49.5 34.5t-49.5 38.5t-38 49.5t-15 69q0 42 16 79.5t47.5 66t78 45.5t107.5 17q26 0 49.5 -2t52.5 -8z" />
    <glyph glyph-name="T" unicode="T" horiz-adv-x="506" 
d="M557 598h-190l-115 -598h-89l114 598h-191l14 77h471z" />
    <glyph glyph-name="U" unicode="U" horiz-adv-x="677" 
d="M596 247q-25 -133 -102.5 -195t-205.5 -62q-74 0 -119 19t-67.5 52.5t-26 78t6.5 95.5l83 440h90l-85 -444q-15 -81 13 -123t118 -42q43 0 77 10t60 32.5t43.5 59t27.5 89.5l80 418h88z" />
    <glyph glyph-name="V" unicode="V" horiz-adv-x="605" 
d="M306 0h-102l-110 675h96l66 -434q5 -30 9.5 -68.5t6.5 -71.5h2q15 36 34 73.5t39 73.5l233 427h97z" />
    <glyph glyph-name="W" unicode="W" horiz-adv-x="935" 
d="M682 0h-112l-39 454q-5 59 -3 117h-1q-20 -59 -46 -116l-209 -455h-109l-46 675h92l28 -441q2 -34 2.5 -65.5t-1.5 -63.5h1q12 32 24.5 63.5t26.5 62.5l207 444h103l42 -448q3 -29 4 -59.5t0 -61.5h1q10 29 20 55.5t23 55.5l201 458h94z" />
    <glyph glyph-name="X" unicode="X" horiz-adv-x="586" 
d="M365 347l157 -347h-108l-116 278l-219 -278h-109l286 351l-143 324h101l109 -256l202 256h106z" />
    <glyph glyph-name="Y" unicode="Y" horiz-adv-x="526" 
d="M306 243l-46 -243h-90l46 243l-124 432h94l62 -228q8 -30 15 -59t13 -58h1q17 31 38 63.5t43 66.5l140 215h101z" />
    <glyph glyph-name="Z" unicode="Z" horiz-adv-x="518" 
d="M540 605l-366 -464q-12 -15 -24 -29.5t-26 -29.5q15 2 57 2h108h156l-16 -84h-430l13 68l348 446q18 23 35 42t35 39q-23 -1 -55.5 -1.5t-84.5 -0.5h-168l16 82h416z" />
    <glyph glyph-name="bracketleft" unicode="[" horiz-adv-x="315" 
d="M366 702h-110l-159 -830h112l-14 -71h-194l185 970h194z" />
    <glyph glyph-name="backslash" unicode="\" horiz-adv-x="433" 
d="M283 -161l-171 918h78l174 -918h-81z" />
    <glyph glyph-name="bracketright" unicode="]" horiz-adv-x="315" 
d="M148 -199h-194l14 71h111l158 830h-111l13 69h194z" />
    <glyph glyph-name="asciicircum" unicode="^" 
d="M419 343l-91 265l-185 -265l-57 33l219 299h71l112 -298z" />
    <glyph glyph-name="underscore" unicode="_" 
d="M464 -249h-550l13 71h550z" />
    <glyph glyph-name="grave" unicode="`" horiz-adv-x="362" 
d="M266 570l-137 117l54 57l126 -128z" />
    <glyph glyph-name="a" unicode="a" horiz-adv-x="538" 
d="M403 425q-15 4 -32.5 6.5t-38.5 2.5q-56 0 -95 -26t-63.5 -66t-36 -89t-11.5 -95q0 -49 14 -70t37 -21q35 0 70.5 33t65.5 81.5t52 103.5t31 100l7 40v0zM503 490q-20 -104 -34 -177t-24 -127.5t-18 -97.5t-16 -88h-89q13 63 58 202l-2 1q-14 -29 -34.5 -66t-49.5 -69.5
t-66 -55t-82 -22.5q-54 0 -82.5 36t-28.5 115q0 69 18 134.5t56.5 116.5t97.5 82t140 31q43 0 82 -4t74 -11z" />
    <glyph glyph-name="b" unicode="b" horiz-adv-x="538" 
d="M417 339q0 49 -14 70t-37 21t-47 -15.5t-46 -40.5t-42.5 -58t-37 -68t-28 -70t-17.5 -64l-8 -42q31 -9 71 -9q55 0 94 26t64 66t36.5 89t11.5 95zM508 356q0 -69 -18.5 -134.5t-56.5 -116.5t-97 -82t-141 -31q-45 0 -83 4.5t-72 12.5l137 721h89l-47 -242
q-3 -14 -6.5 -29.5t-10 -37.5t-16 -52t-22.5 -72l2 -1q19 44 43 82.5t53 67t63 45t72 16.5q54 0 82.5 -36t28.5 -115z" />
    <glyph glyph-name="c" unicode="c" horiz-adv-x="412" 
d="M406 412q-20 9 -42.5 14t-48.5 5q-47 0 -82 -24t-58 -61t-34 -82.5t-11 -87.5q0 -20 4 -38.5t15.5 -33.5t31.5 -24t53 -9q29 0 57.5 6t51.5 17v-76q-27 -11 -61.5 -18.5t-72.5 -7.5q-48 0 -81.5 12.5t-53.5 34.5t-29 52t-9 65q0 71 19.5 134.5t56 111t89.5 75.5t120 28
q31 0 56.5 -4t48.5 -11z" />
    <glyph glyph-name="d" unicode="d" horiz-adv-x="538" 
d="M403 425q-15 4 -32.5 6.5t-38.5 2.5q-56 0 -95 -26t-63.5 -66t-36 -89t-11.5 -95q0 -49 14 -70t37 -21q35 0 70.5 33t65.5 81.5t52 103.5t31 100l7 40v0zM444 180q-1 -6 -6 -32.5t-10.5 -57t-10.5 -57t-6 -33.5h-88q6 32 20 82t37 120l-2 1q-14 -29 -34.5 -66
t-49.5 -69.5t-66 -55t-82 -22.5q-54 0 -82.5 36t-28.5 115q0 69 18 134.5t56.5 116.5t97.5 82t140 31q19 0 35 -1.5t35 -4.5l43 231h89z" />
    <glyph glyph-name="e" unicode="e" horiz-adv-x="477" 
d="M367 382q0 27 -18.5 41.5t-48.5 14.5t-54.5 -12t-44 -33t-33.5 -49t-23 -59q116 5 169 28.5t53 68.5zM456 393q0 -162 -322 -174q-2 -11 -3.5 -27.5t-1.5 -30.5q0 -29 5.5 -47.5t18 -29.5t33 -15.5t50.5 -4.5q35 0 71 7.5t68 20.5l3 -70q-38 -15 -81 -23t-92 -8
q-86 0 -126.5 38t-40.5 123q0 72 19.5 136.5t55 113t85.5 76.5t112 28q40 0 67.5 -9.5t45 -25t25.5 -36t8 -42.5z" />
    <glyph glyph-name="f" unicode="f" horiz-adv-x="339" 
d="M446 653q-17 5 -35.5 7.5t-34.5 2.5q-54 0 -85 -31t-43 -101l-6 -34h135l-15 -70h-134l-86 -452q-23 -122 -80 -175.5t-148 -53.5q-46 0 -86 9l22 76q17 -5 36 -7.5t34 -2.5q27 0 48 7.5t37 25t28 46.5t20 73l87 454h-101l15 70h99l7 35q18 103 73 153.5t152 50.5
q41 0 83 -9z" />
    <glyph glyph-name="g" unicode="g" horiz-adv-x="536" 
d="M403 425q-15 4 -32.5 6.5t-38.5 2.5q-56 0 -95 -26t-63.5 -66t-36 -89t-11.5 -95q0 -49 14 -70t37 -21q35 0 70.5 33t65.5 81.5t52 103.5t31 100l7 40v0zM405 -24q-12 -66 -32 -104.5t-54 -66.5t-85 -44t-122 -16q-42 0 -74 5t-60 14l21 87q29 -14 63.5 -21t69.5 -7
q78 0 123.5 34t62.5 119q5 28 10.5 51.5t12 48t15.5 53.5t22 69h-2q-13 -27 -33.5 -63t-49 -68t-65.5 -54.5t-82 -22.5q-54 0 -82.5 36t-28.5 115q0 69 18.5 134.5t56.5 116.5t97 82t140 31q43 0 82 -4t74 -11z" />
    <glyph glyph-name="h" unicode="h" horiz-adv-x="563" 
d="M435 0h-88l61 318q11 59 0.5 85.5t-44.5 26.5q-35 0 -69.5 -32.5t-64.5 -80.5t-52 -103.5t-31 -101.5l-21 -112h-88l139 730h88l-45 -233q-3 -15 -6.5 -32t-10 -40t-16 -53t-23.5 -71h2q18 39 41.5 76.5t52.5 66t63 46t73 17.5q69 0 93.5 -45.5t10.5 -123.5z" />
    <glyph glyph-name="i" unicode="i" horiz-adv-x="254" 
d="M126 0h-88l95 497h88zM266 658q0 -27 -18.5 -44.5t-42.5 -17.5q-26 0 -41.5 16t-15.5 39q0 27 18.5 44.5t43.5 17.5t40.5 -16.5t15.5 -38.5z" />
    <glyph glyph-name="j" unicode="j" horiz-adv-x="258" 
d="M118 -62q-9 -47 -24.5 -83t-39.5 -60t-58.5 -36.5t-81.5 -12.5q-37 0 -64 8l18 78q14 -5 29 -8t27 -3q25 0 42.5 7t29.5 22.5t20.5 41.5t16.5 64l104 541h88zM270 658q0 -27 -18.5 -44.5t-43.5 -17.5t-40.5 16t-15.5 39q0 27 18.5 44.5t42.5 17.5q25 0 41 -16.5t16 -38.5
z" />
    <glyph glyph-name="k" unicode="k" horiz-adv-x="475" 
d="M266 272l150 -272h-108l-132 263l-50 -263h-88l139 730h88l-85 -445l233 237l65 -51z" />
    <glyph glyph-name="l" unicode="l" horiz-adv-x="254" 
d="M126 0h-88l139 730h88z" />
    <glyph glyph-name="m" unicode="m" horiz-adv-x="861" 
d="M733 0h-89l61 318q11 59 1 86t-41 27q-30 0 -63.5 -28t-63.5 -73.5t-53.5 -102.5t-34.5 -115l-21 -112h-88l61 318q11 59 1 86t-42 27q-30 0 -63 -28t-63 -73.5t-53.5 -102.5t-34.5 -115l-21 -112h-88l50 259q1 6 4.5 24t8 43t9.5 52.5t9.5 52t8 42.5t4.5 24h87
q-5 -25 -17 -71t-38 -125h2q17 39 40 76t51.5 66t62.5 46.5t72 17.5q48 0 74 -25t26 -72q0 -23 -6 -47.5t-18 -62.5l2 -1q17 40 40 77.5t51.5 66.5t62.5 46.5t72 17.5q68 0 92 -45.5t9 -123.5z" />
    <glyph glyph-name="n" unicode="n" horiz-adv-x="563" 
d="M435 0h-88l61 318q11 59 0.5 85.5t-44.5 26.5q-35 0 -69.5 -32.5t-64.5 -80.5t-52 -103.5t-31 -101.5l-21 -112h-88l50 259q1 6 4.5 24t8 43t9.5 52.5t9.5 52t8 42.5t4.5 24h87q-5 -25 -17 -70.5t-38 -125.5h2q18 39 41.5 76.5t52.5 66t63 46t73 17.5q69 0 93.5 -45.5
t10.5 -123.5z" />
    <glyph glyph-name="o" unicode="o" horiz-adv-x="539" 
d="M416 317q0 55 -25.5 84t-79.5 29q-41 0 -74.5 -21t-57.5 -55.5t-37 -79t-13 -91.5q0 -56 24 -85.5t81 -29.5q36 0 69 18.5t58 51.5t40 79t15 100zM510 327q0 -77 -24.5 -139t-65 -106t-93 -67.5t-108.5 -23.5q-94 0 -138 45.5t-44 131.5q0 74 22 136t61 107t91.5 70
t113.5 25q49 0 84 -13t57.5 -37t33 -57t10.5 -72z" />
    <glyph glyph-name="p" unicode="p" horiz-adv-x="538" 
d="M417 339q0 49 -14 70t-37 21t-47 -15.5t-46 -40.5t-42.5 -58t-37 -68t-28 -70t-17.5 -64l-8 -38q16 -5 36 -8.5t36 -3.5q55 0 93.5 25.5t63.5 65.5t36.5 89t11.5 95zM508 356q0 -69 -18.5 -134t-56.5 -116t-97 -82t-141 -31q-36 0 -70 6l-46 -246h-88l97 506q1 6 4.5 24
t8 42.5t9.5 52.5t9.5 52.5t8 42.5t4.5 24h88q-3 -16 -7.5 -34t-11 -41.5t-15.5 -53.5t-22 -70l2 -1q19 44 43 82t53 66.5t63 45t72 16.5q54 0 82.5 -36t28.5 -115z" />
    <glyph glyph-name="q" unicode="q" horiz-adv-x="538" 
d="M403 425q-15 4 -32.5 6.5t-38.5 2.5q-56 0 -95 -26t-63.5 -66t-36 -89t-11.5 -95q0 -49 14 -70t37 -21q35 0 70.5 33t65.5 81.5t52 103.5t31 100l7 40v0zM363 -247h-88l44 229q4 24 9 46t12 47.5t16.5 56t23.5 70.5l-2 1q-14 -29 -34.5 -66t-49.5 -69.5t-66 -55
t-82 -22.5q-54 0 -82.5 36t-28.5 115q0 69 18 134.5t56.5 116.5t97.5 82t140 31q43 0 82 -4t74 -11z" />
    <glyph glyph-name="r" unicode="r" horiz-adv-x="349" 
d="M363 419q-35 10 -69 -17.5t-63.5 -74.5t-51.5 -105t-32 -110l-21 -112h-88l50 259q11 60 22 119t22 119h86q-6 -32 -17.5 -75t-33.5 -108l2 -1q21 45 43 83.5t47.5 64.5t55.5 38.5t66 6.5z" />
    <glyph glyph-name="s" unicode="s" horiz-adv-x="381" 
d="M337 426q-36 12 -75 12q-49 0 -74 -20.5t-25 -52.5q0 -20 11 -35.5t28 -29.5t36.5 -28.5t36.5 -31.5t28 -38t11 -49q0 -31 -13.5 -60.5t-40.5 -52t-67 -36t-93 -13.5q-50 0 -85 7l16 81q40 -14 81 -14q49 0 79 19.5t30 58.5q0 20 -11 35t-28 28.5t-36 27t-36 30.5t-28 39
t-11 52q0 32 12.5 59.5t37.5 48t62 32t85 11.5q26 0 46 -2t39 -5z" />
    <glyph glyph-name="t" unicode="t" horiz-adv-x="364" 
d="M362 427h-135l-49 -260q-11 -58 -1.5 -78t46.5 -20q21 0 37.5 2t31.5 6l-6 -75q-22 -5 -46.5 -7.5t-46.5 -2.5q-38 0 -62.5 9.5t-37 29t-14 50t6.5 72.5l53 274h-101l14 70h100l31 161l93 21l-35 -182h135z" />
    <glyph glyph-name="u" unicode="u" horiz-adv-x="563" 
d="M480 238q-1 -6 -4.5 -24t-8.5 -43t-10 -52.5t-9.5 -52t-7.5 -43t-4 -23.5h-88q5 25 17 70.5t38 125.5h-2q-18 -39 -41 -76.5t-52 -66t-63 -46t-73 -17.5q-69 0 -94 45.5t-10 123.5l64 338h89l-61 -318q-11 -59 -0.5 -85.5t43.5 -26.5q34 0 69.5 32.5t65.5 80.5t52 103.5
t31 101.5l21 112h88z" />
    <glyph glyph-name="v" unicode="v" horiz-adv-x="472" 
d="M239 0h-92l-88 497h95l46 -292q8 -49 11 -96h1l210 409l83 -29z" />
    <glyph glyph-name="w" unicode="w" horiz-adv-x="774" 
d="M557 0h-101l-39 282q-3 23 -5 48.5t-3 51.5h-1q-46 -96 -92.5 -191t-95.5 -191h-97l-55 497h94l24 -265q3 -35 5.5 -67t2.5 -57h1q47 98 94 195t96 194h93l36 -264q5 -38 7 -70.5t4 -55.5h1q48 103 96 205t98 205l83 -27z" />
    <glyph glyph-name="x" unicode="x" horiz-adv-x="513" 
d="M313 246l129 -246h-105l-92 187l-196 -213l-70 49l226 232l-123 242h102l88 -185l194 210l67 -47z" />
    <glyph glyph-name="y" unicode="y" horiz-adv-x="486" 
d="M509 492q-100 -232 -193 -397.5t-187 -258.5q-90 -90 -179 -90q-19 0 -37 1.5t-33 5.5l15 81q29 -10 63 -10q26 0 55 15t55 42q29 32 42.5 68.5t13.5 90.5q0 100 -19.5 218t-53.5 239h100q12 -48 22.5 -100.5t18 -103.5t11.5 -98.5t4 -87.5q0 -14 -2 -30.5t-5 -31.5h1
q30 52 57.5 105.5t55 111t55.5 120.5t57 135l83 -25v0z" />
    <glyph glyph-name="z" unicode="z" horiz-adv-x="430" 
d="M413 434l-285 -353q10 0 25 0.5t32 1t35 0.5h35h96l-16 -83h-334l12 63l288 356q-22 -1 -52.5 -1.5t-69.5 -0.5h-93l16 80h324z" />
    <glyph glyph-name="braceleft" unicode="{" horiz-adv-x="335" 
d="M393 702q-26 0 -44.5 -6t-31.5 -20t-21.5 -37.5t-15.5 -58.5l-22 -116q-14 -72 -44.5 -107t-75.5 -41v-2q42 -6 59 -42.5t4 -103.5l-34 -174q-7 -35 -7 -58q0 -24 7.5 -38t23.5 -20t41 -6l-13 -71h-18q-84 0 -109 51.5t-7 143.5l35 175q11 60 -9 83.5t-74 26.5l14 71
q29 1 50 7t35.5 18t24 32.5t15.5 50.5l22 117q8 43 22 79t36.5 61.5t54.5 39.5t76 14h19z" />
    <glyph glyph-name="bar" unicode="|" horiz-adv-x="279" 
d="M82 -247h-70l190 1000h70z" />
    <glyph glyph-name="braceright" unicode="}" horiz-adv-x="335" 
d="M320 281q-29 -2 -50 -7.5t-35.5 -18t-24 -33t-15.5 -51.5l-33 -174q-19 -101 -62.5 -148t-126.5 -47h-19l13 71q26 0 44.5 6t31.5 20t21.5 37t15.5 58l33 174q14 72 44 107.5t76 41.5v2q-42 6 -59.5 42t-3.5 103l23 117q13 70 -1 95.5t-64 25.5l13 70h16q43 0 70 -14
t40.5 -39.5t14.5 -61.5t-8 -79l-23 -118q-12 -60 8 -82.5t75 -25.5z" />
    <glyph glyph-name="asciitilde" unicode="~" 
d="M556 574q-4 -73 -43 -114.5t-101 -41.5q-42 0 -65 17t-39.5 38t-32.5 38t-42 17q-31 0 -48 -25.5t-21 -63.5h-67q4 73 43 115t101 42q42 0 65 -17.5t39.5 -38t32.5 -38t42 -17.5q31 0 48 25.5t21 63.5h67v0z" />
    <glyph glyph-name="Euro" 
d="M548 559q-23 12 -54 20t-61 8q-39 0 -70 -12.5t-55.5 -33.5t-43 -49.5t-31.5 -60.5h190l-11 -60h-201q-7 -23 -11 -45t-6 -44h200l-10 -60h-194q-2 -36 3.5 -65t21.5 -49t43.5 -31t69.5 -11q35 0 69.5 8.5t63.5 20.5l15 -71q-41 -17 -85.5 -25.5t-82.5 -8.5
q-62 0 -103.5 16.5t-66.5 47t-34.5 73t-7.5 95.5h-88l11 60h82q2 21 6.5 43.5t11.5 45.5h-83l11 60h91q18 46 44.5 87.5t64.5 73t88 50t114 18.5q33 0 67.5 -8t61.5 -19z" />
    <glyph glyph-name="Euro" unicode="&#x20ac;" 
d="M548 559q-23 12 -54 20t-61 8q-39 0 -70 -12.5t-55.5 -33.5t-43 -49.5t-31.5 -60.5h190l-11 -60h-201q-7 -23 -11 -45t-6 -44h200l-10 -60h-194q-2 -36 3.5 -65t21.5 -49t43.5 -31t69.5 -11q35 0 69.5 8.5t63.5 20.5l15 -71q-41 -17 -85.5 -25.5t-82.5 -8.5
q-62 0 -103.5 16.5t-66.5 47t-34.5 73t-7.5 95.5h-88l11 60h82q2 21 6.5 43.5t11.5 45.5h-83l11 60h91q18 46 44.5 87.5t64.5 73t88 50t114 18.5q33 0 67.5 -8t61.5 -19z" />
    <glyph glyph-name="Zcaron" horiz-adv-x="518" 
d="M540 605l-366 -464q-12 -15 -24 -29.5t-26 -29.5q15 2 57 2h108h156l-16 -84h-430l13 68l348 446q18 23 35 42t35 39q-23 -1 -55.5 -1.5t-84.5 -0.5h-168l16 82h416zM356 724l-144 83l29 50l121 -63l140 63l21 -48z" />
    <glyph glyph-name="Zcaron" unicode="&#x17d;" horiz-adv-x="518" 
d="M540 605l-366 -464q-12 -15 -24 -29.5t-26 -29.5q15 2 57 2h108h156l-16 -84h-430l13 68l348 446q18 23 35 42t35 39q-23 -1 -55.5 -1.5t-84.5 -0.5h-168l16 82h416zM356 724l-144 83l29 50l121 -63l140 63l21 -48z" />
    <glyph glyph-name="zcaron" horiz-adv-x="430" 
d="M413 434l-285 -353q10 0 25 0.5t32 1t35 0.5h35h96l-16 -83h-334l12 63l288 356q-22 -1 -52.5 -1.5t-69.5 -0.5h-93l16 80h324zM275 570l-114 130l43 44l84 -85l111 85l34 -42z" />
    <glyph glyph-name="zcaron" unicode="&#x17e;" horiz-adv-x="430" 
d="M413 434l-285 -353q10 0 25 0.5t32 1t35 0.5h35h96l-16 -83h-334l12 63l288 356q-22 -1 -52.5 -1.5t-69.5 -0.5h-93l16 80h324zM275 570l-114 130l43 44l84 -85l111 85l34 -42z" />
    <glyph glyph-name="exclamdown" unicode="&#xa1;" horiz-adv-x="314" 
d="M115 -206h-104l116 535h75zM246 449q0 -26 -17.5 -43.5t-43.5 -17.5t-42 17t-16 40q0 26 18 43.5t44 17.5t41.5 -17t15.5 -40z" />
    <glyph glyph-name="cent" unicode="&#xa2;" 
d="M487 465q-50 25 -109 25q-43 0 -78 -15.5t-60.5 -43t-39.5 -65.5t-14 -82q0 -51 29 -78.5t96 -27.5q31 0 63 7t65 23l12 -72q-30 -14 -63.5 -22.5t-65.5 -10.5l-19 -103h-71l20 103q-76 7 -118.5 46t-42.5 118q0 64 19.5 115.5t53 88.5t78.5 59.5t97 29.5l17 90h71
l-18 -87q26 -1 54 -7t55 -17z" />
    <glyph glyph-name="sterling" unicode="&#xa3;" 
d="M501 566q-23 8 -49.5 14t-53.5 6q-45 0 -71.5 -19.5t-40.5 -51.5t-18.5 -73t-4.5 -85h160l-13 -70h-150q0 -37 -6.5 -66t-19 -54t-32.5 -47t-48 -44q17 1 36.5 1.5t42.5 0.5h217l-15 -78h-408l12 62q42 31 67.5 56t39.5 50.5t18.5 53.5t4.5 65h-106l13 70h96q1 55 9 109
t33.5 97t72 70t123.5 27q27 0 59.5 -4.5t59.5 -12.5z" />
    <glyph glyph-name="currency" unicode="&#xa4;" 
d="M398 370q0 34 -18.5 56t-62.5 22q-32 0 -56 -13.5t-40 -35.5t-24.5 -50t-8.5 -56q0 -35 18 -58.5t61 -23.5q30 0 54 14.5t41.5 37.5t26.5 51t9 56zM464 450q15 -23 15 -66q0 -44 -15 -88.5t-52 -83.5l64 -104l-73 -48l-61 108q-44 -24 -90 -24q-41 0 -67 13l-89 -97
l-61 51l90 90q-20 29 -20 79q0 46 17 92t56 83l-59 97l74 46l55 -101q20 10 41.5 14t42.5 4q20 0 40 -3.5t37 -13.5l94 101l57 -52z" />
    <glyph glyph-name="yen" unicode="&#xa5;" 
d="M351 296h143l-11 -61h-166l-13 -70h165l-11 -61h-166l-19 -104h-91l20 104h-164l11 61h165l13 70h-165l12 61h144l-105 354h96l56 -201q8 -31 14.5 -58.5t11.5 -53.5h1q15 27 34.5 58t38.5 60l131 195h100z" />
    <glyph glyph-name="brokenbar" unicode="&#xa6;" horiz-adv-x="279" 
d="M82 -247h-70l71 378h70zM202 385h-70l70 368h70z" />
    <glyph glyph-name="section" unicode="&#xa7;" horiz-adv-x="509" 
d="M342 246q0 23 -9 44.5t-24 44t-34 46t-39 50.5q-34 -22 -48 -49.5t-14 -56.5q0 -22 9 -43.5t24 -43.5t34 -45.5t39 -48.5q34 21 48 48.5t14 53.5zM436 652q-34 10 -63 10q-32 0 -52 -10t-32 -24.5t-16.5 -31t-4.5 -30.5q0 -31 24.5 -62.5t54.5 -67.5t54.5 -78.5
t24.5 -96.5q0 -48 -26.5 -91.5t-78.5 -77.5q9 -17 14.5 -35.5t5.5 -39.5q0 -35 -14 -67.5t-40.5 -58t-65.5 -41t-88 -15.5q-21 0 -43 3t-40 8l18 77q38 -13 72 -13q30 0 51 10t33.5 24.5t18 31.5t5.5 31q0 22 -12 43.5t-29.5 44t-38 46t-38 50t-29.5 56t-12 63.5
q0 100 106 173q-22 41 -22 79q0 24 10.5 54t34.5 57t63 45t96 18q20 0 40 -2t37 -6z" />
    <glyph glyph-name="dieresis" unicode="&#xa8;" horiz-adv-x="535" 
d="M226 657q0 -25 -16 -40.5t-39 -15.5t-38 15t-15 36q0 24 16.5 40t39.5 16t37.5 -15.5t14.5 -35.5zM418 657q0 -25 -16 -40.5t-39 -15.5t-38 15t-15 37q0 23 16.5 39t39.5 16t37.5 -15.5t14.5 -35.5z" />
    <glyph glyph-name="copyright" unicode="&#xa9;" horiz-adv-x="741" 
d="M492 437q-27 15 -68 15q-33 0 -56 -15.5t-37 -39t-20 -51t-6 -52.5q0 -35 16.5 -53.5t52.5 -18.5q20 0 40.5 3.5t40.5 11.5l2 -62q-24 -8 -50 -12.5t-49 -4.5q-68 0 -99.5 33t-31.5 90q0 47 14 89.5t40.5 74t64 50t84.5 18.5q28 0 47.5 -3.5t34.5 -9.5zM652 348
q0 52 -19.5 98t-54 80.5t-81 54.5t-99.5 20q-55 0 -105 -21t-87.5 -58t-60 -88.5t-22.5 -111.5q0 -52 19.5 -98.5t54 -81t81 -54.5t99.5 -20q55 0 105 21t87.5 58.5t60 89t22.5 111.5zM723 351q0 -75 -28.5 -139.5t-76.5 -111.5t-111.5 -73.5t-132.5 -26.5q-70 0 -129 25
t-102 68t-67.5 101t-24.5 125q0 75 28.5 139t76.5 111t111.5 73.5t133.5 26.5q68 0 127 -24.5t102.5 -67.5t68 -101t24.5 -125z" />
    <glyph glyph-name="ordfeminine" unicode="&#xaa;" horiz-adv-x="385" 
d="M325 616q-13 3 -24.5 4t-22.5 1q-30 0 -53 -14.5t-39 -38t-24.5 -53t-8.5 -59.5t8.5 -42t25.5 -12q21 0 42 15.5t39 42t31.5 60t20.5 69.5l5 27v0zM346 211h-289l13 71h289zM407 672q-8 -41 -17 -88.5t-17.5 -92.5t-15.5 -84.5t-11 -63.5h-73q4 18 11.5 43.5t18.5 56.5
h-1q-25 -51 -60.5 -78.5t-79.5 -27.5q-84 0 -84 102q0 48 13.5 91.5t40.5 77t67.5 53.5t93.5 20q28 0 56.5 -2t57.5 -7z" />
    <glyph glyph-name="guillemotleft" unicode="&#xab;" horiz-adv-x="494" 
d="M153 294l71 -145l-73 -35l-87 184l144 177l63 -38zM344 294l79 -142l-72 -36l-96 182l152 175l62 -38z" />
    <glyph glyph-name="logicalnot" unicode="&#xac;" 
d="M456 103h-79l30 157h-361l14 75h361h79z" />
    <glyph glyph-name="registered" unicode="&#xae;" horiz-adv-x="551" 
d="M372 587q0 20 -27 20h-23l-12 -62h14q23 0 35.5 12.5t12.5 29.5zM425 595q0 -31 -19.5 -50.5t-48.5 -26.5q3 -5 7 -13.5t7 -16.5l28 -71h-55l-34 94h-7l-18 -94h-47l43 228h74q37 0 53.5 -13.5t16.5 -36.5zM488 537q0 31 -11.5 59t-31 49.5t-47 34t-58.5 12.5
q-33 0 -62.5 -13t-52.5 -35.5t-36.5 -54t-13.5 -67.5q0 -32 11.5 -60.5t31 -50t46.5 -34t59 -12.5q33 0 62.5 13t52.5 36t36.5 54.5t13.5 68.5zM548 540q0 -49 -19 -91t-50.5 -73t-73 -48.5t-85.5 -17.5t-82 16t-66 43.5t-43.5 65t-15.5 80.5q0 51 19 93.5t51 73t73 48
t86 17.5q44 0 81.5 -15.5t65.5 -43.5t43.5 -65.5t15.5 -82.5z" />
    <glyph glyph-name="macron" unicode="&#xaf;" horiz-adv-x="387" 
d="M374 616h-247l12 68h247z" />
    <glyph glyph-name="macron" unicode="&#x2c9;" horiz-adv-x="387" 
d="M374 616h-247l12 68h247z" />
    <glyph glyph-name="degree" unicode="&#xb0;" horiz-adv-x="368" 
d="M321 613q0 10 -2.5 21t-9.5 20.5t-18 16t-28 6.5q-28 0 -47.5 -19.5t-19.5 -53.5q0 -29 15.5 -46.5t44.5 -17.5q28 0 46.5 19.5t18.5 53.5zM392 619q0 -35 -12.5 -60.5t-32.5 -43t-45.5 -26t-52.5 -8.5q-60 0 -92 33t-32 84q0 34 12.5 59.5t33 42.5t45.5 26t51 9
q65 0 95 -34t30 -82z" />
    <glyph glyph-name="plusminus" unicode="&#xb1;" 
d="M460 0h-462l15 75h462zM526 336h-190l-38 -197h-85l38 197h-191l14 74h190l38 196h85l-37 -196h190z" />
    <glyph glyph-name="twosuperior" unicode="&#xb2;" horiz-adv-x="311" 
d="M314 583q0 -35 -18.5 -63t-62.5 -61l-55 -41h118l-12 -62h-216l10 53l84 65q41 32 55.5 51.5t14.5 40.5q0 14 -9 23t-29 9q-13 0 -29.5 -5t-29.5 -13l-14 55q22 11 46.5 17t48.5 6q51 0 74.5 -21.5t23.5 -53.5z" />
    <glyph glyph-name="threesuperior" unicode="&#xb3;" horiz-adv-x="300" 
d="M303 593q0 -28 -14.5 -49.5t-44.5 -34.5q22 -3 33 -17.5t11 -35.5q0 -45 -39 -76.5t-115 -31.5q-17 0 -34.5 2.5t-28.5 5.5l15 53q11 -3 24 -5.5t25 -2.5q73 0 73 52q0 18 -21 26t-72 1l8 48h19q47 0 65.5 15.5t18.5 36.5q0 11 -8.5 19t-29.5 8q-15 0 -29 -4t-26 -9
l-9 48q18 8 41 12t46 4q49 0 70.5 -19t21.5 -46z" />
    <glyph glyph-name="acute" unicode="&#xb4;" horiz-adv-x="381" 
d="M153 570l-34 50l153 124l43 -62z" />
    <glyph glyph-name="mu" unicode="&#xb5;" horiz-adv-x="616" 
d="M565 65q-22 -35 -50.5 -54.5t-66.5 -19.5t-55 17.5t-17 52.5q0 17 3 34t12 44l-2 1q-10 -24 -30.5 -50.5t-47 -48t-57 -35.5t-60.5 -14q-18 0 -36.5 7t-32.5 23l-37 -269h-94l142 744h88l-61 -318q-11 -58 4 -85t44 -27q26 0 57 20t60 56t53 87t36 113l29 154h88
l-67 -351q-5 -25 -6 -40.5t1 -24.5t7.5 -12.5t13.5 -3.5q14 0 26 9.5t22 25.5l34 -35v0z" />
    <glyph glyph-name="mu" unicode="&#x3bc;" horiz-adv-x="616" 
d="M565 65q-22 -35 -50.5 -54.5t-66.5 -19.5t-55 17.5t-17 52.5q0 17 3 34t12 44l-2 1q-10 -24 -30.5 -50.5t-47 -48t-57 -35.5t-60.5 -14q-18 0 -36.5 7t-32.5 23l-37 -269h-94l142 744h88l-61 -318q-11 -58 4 -85t44 -27q26 0 57 20t60 56t53 87t36 113l29 154h88
l-67 -351q-5 -25 -6 -40.5t1 -24.5t7.5 -12.5t13.5 -3.5q14 0 26 9.5t22 25.5l34 -35v0z" />
    <glyph glyph-name="paragraph" unicode="&#xb6;" horiz-adv-x="565" 
d="M285 247q-47 0 -81.5 12.5t-57 35t-33.5 53.5t-11 68q0 47 17.5 93.5t51 83t83 59.5t112.5 23zM576 605h-70l-133 -701h-79h-72l13 70h72l133 701h79h69z" />
    <glyph glyph-name="periodcentered" unicode="&#xb7;" horiz-adv-x="234" 
d="M193 300q0 -29 -20.5 -48t-46.5 -19t-44 18.5t-18 43.5q0 28 20 47t47 19q26 0 44 -18t18 -43z" />
    <glyph glyph-name="periodcentered" unicode="&#x2219;" horiz-adv-x="234" 
d="M193 300q0 -29 -20.5 -48t-46.5 -19t-44 18.5t-18 43.5q0 28 20 47t47 19q26 0 44 -18t18 -43z" />
    <glyph glyph-name="cedilla" unicode="&#xb8;" horiz-adv-x="392" 
d="M184 -40q29 -51 15 -98.5t-62 -96.5h-77q23 24 38 45t21 41t2.5 39.5t-17.5 41.5l80 28v0z" />
    <glyph glyph-name="onesuperior" unicode="&#xb9;" horiz-adv-x="302" 
d="M226 356h-74l43 229l-75 -32l-4 58l98 39h68z" />
    <glyph glyph-name="ordmasculine" unicode="&#xba;" horiz-adv-x="411" 
d="M338 551q0 26 -12 46.5t-47 20.5q-30 0 -50 -15t-33 -37.5t-18.5 -48t-5.5 -47.5q0 -32 13.5 -49t43.5 -17q24 0 44.5 11.5t34.5 32t22 47t8 56.5zM338 211h-279l14 71h279zM419 562q0 -56 -17 -98t-45.5 -70t-64.5 -42.5t-74 -14.5q-126 0 -126 119q0 45 13.5 86.5
t39 73t62 50t81.5 18.5q71 0 101 -34t30 -88z" />
    <glyph glyph-name="guillemotright" unicode="&#xbb;" horiz-adv-x="494" 
d="M120 117l-62 38l125 141l-79 142l72 36l96 -182zM319 115l-63 38l118 143l-70 145l73 35l86 -184z" />
    <glyph glyph-name="onequarter" unicode="&#xbc;" horiz-adv-x="693" 
d="M416 111h79l26 133zM602 55h-49l-11 -55h-68l11 55h-142l5 52l146 187h104l-35 -183h50zM62 -21l-49 44l610 646l50 -44zM226 356h-74l43 229l-75 -32l-4 58l98 39h68z" />
    <glyph glyph-name="onehalf" unicode="&#xbd;" horiz-adv-x="697" 
d="M226 356h-74l43 229l-75 -32l-4 58l98 39h68zM62 -21l-49 44l610 646l50 -44zM620 226q0 -35 -19 -63t-62 -60l-55 -42h118l-13 -61h-215l10 52l84 66q41 31 55.5 51t14.5 40q0 14 -9 23.5t-29 9.5q-13 0 -29.5 -5.5t-29.5 -13.5l-14 56q22 11 46.5 17t48.5 6
q51 0 74.5 -22t23.5 -54z" />
    <glyph glyph-name="threequarters" unicode="&#xbe;" horiz-adv-x="694" 
d="M304 593q0 -28 -14 -49.5t-44 -34.5q22 -3 33 -17.5t11 -35.5q0 -45 -39 -76.5t-115 -31.5q-17 0 -34.5 2.5t-28.5 5.5l15 53q11 -3 24 -5.5t25 -2.5q73 0 73 52q0 18 -21 26t-72 1l8 48h19q46 0 65 15.5t19 36.5q0 11 -8.5 19t-29.5 8q-15 0 -29.5 -4t-25.5 -9l-9 48
q18 8 40.5 12t45.5 4q50 0 71 -19t21 -46zM63 -21l-49 44l610 646l50 -44zM604 55h-49l-11 -55h-68l11 55h-142l5 52l146 187h104l-35 -183h50zM418 111h79l26 133z" />
    <glyph glyph-name="questiondown" unicode="&#xbf;" horiz-adv-x="437" 
d="M312 329q7 -52 -4.5 -90t-33.5 -66.5t-49.5 -51t-52 -44t-41 -44.5t-16.5 -53q0 -23 12.5 -41.5t35 -32.5t53.5 -23.5t68 -13.5l-26 -82q-60 5 -105 21.5t-75 40.5t-45.5 55t-15.5 64q0 42 17 72.5t42 55.5t53.5 47t51.5 48t36 59t7 79h88v0zM349 449q0 -26 -18 -43.5
t-44 -17.5t-42 17t-16 40q0 26 18 43.5t44 17.5t42 -17t16 -40z" />
    <glyph glyph-name="Agrave" unicode="&#xc0;" horiz-adv-x="605" 
d="M375 479q-4 23 -6.5 47t-4.5 46h-1q-10 -21 -21 -44.5t-24 -46.5l-135 -250h234zM451 0l-24 158h-282l-85 -158h-96l370 675h100l114 -675h-97zM432 725l-189 56l31 70l180 -74z" />
    <glyph glyph-name="Aacute" unicode="&#xc1;" horiz-adv-x="605" 
d="M375 479q-4 23 -6.5 47t-4.5 46h-1q-10 -21 -21 -44.5t-24 -46.5l-135 -250h234zM451 0l-24 158h-282l-85 -158h-96l370 675h100l114 -675h-97zM332 725l-13 52l190 74l17 -70z" />
    <glyph glyph-name="Acircumflex" unicode="&#xc2;" horiz-adv-x="605" 
d="M375 479q-4 23 -6.5 47t-4.5 46h-1q-10 -21 -21 -44.5t-24 -46.5l-135 -250h234zM451 0l-24 158h-282l-85 -158h-96l370 675h100l114 -675h-97zM515 724l-122 63l-140 -63l-20 48l167 85l144 -83z" />
    <glyph glyph-name="Atilde" unicode="&#xc3;" horiz-adv-x="605" 
d="M375 479q-4 23 -6.5 47t-4.5 46h-1q-10 -21 -21 -44.5t-24 -46.5l-135 -250h234zM451 0l-24 158h-282l-85 -158h-96l370 675h100l114 -675h-97zM567 808q-43 -73 -113 -73q-25 0 -42 8t-30.5 18t-26 18t-28.5 8q-36 0 -64 -45l-44 33q21 35 49.5 54.5t63.5 19.5
q25 0 42 -8t30.5 -18t26 -18t28.5 -8q34 0 64 44l44 -33v0z" />
    <glyph glyph-name="Adieresis" unicode="&#xc4;" horiz-adv-x="605" 
d="M375 479q-4 23 -6.5 47t-4.5 46h-1q-10 -21 -21 -44.5t-24 -46.5l-135 -250h234zM451 0l-24 158h-282l-85 -158h-96l370 675h100l114 -675h-97zM339 783q0 -22 -15.5 -37t-35.5 -15q-21 0 -35 14t-14 34q0 22 15.5 37t36.5 15t34.5 -14t13.5 -34zM548 783q0 -22 -15 -37
t-36 -15q-20 0 -34 14t-14 34q0 22 15 37t36 15t34.5 -14t13.5 -34z" />
    <glyph glyph-name="Aring" unicode="&#xc5;" horiz-adv-x="605" 
d="M375 479q-3 23 -6 47t-5 46h-1q-10 -21 -21 -44.5t-24 -46.5l-135 -250h234zM445 734q0 22 -14.5 38t-37.5 16t-40.5 -17.5t-17.5 -42.5q0 -23 14 -38.5t37 -15.5t41 17t18 43zM451 0l-24 158h-282l-85 -158h-96l354 646q-19 12 -30 32t-11 46t10 47.5t26.5 37t38 24
t44.5 8.5q46 0 76 -29.5t30 -74.5q0 -33 -18 -59t-45 -39l109 -639h-97z" />
    <glyph glyph-name="AE" unicode="&#xc6;" horiz-adv-x="757" 
d="M423 599q-17 -29 -37.5 -61.5t-53.5 -78.5l-161 -225h186l69 365h-3zM759 599h-246l-41 -214h236l-14 -74h-236l-45 -234h255l-14 -77h-256h-87l31 161h-218l-113 -161h-99l475 675h53h87h246z" />
    <glyph glyph-name="Ccedilla" unicode="&#xc7;" horiz-adv-x="562" 
d="M566 578q-69 24 -138 24q-74 0 -126 -32.5t-85 -84.5t-48.5 -116.5t-15.5 -128.5q0 -37 8 -67.5t27.5 -52.5t52 -34t81.5 -12q42 0 82 9.5t73 23.5l3 -80q-41 -16 -89.5 -25.5t-94.5 -9.5q-72 0 -119 19.5t-74.5 52t-38.5 74t-11 86.5q0 89 25 171.5t73.5 146t121 101.5
t168.5 38q43 0 80 -5t70 -15zM298 -40q29 -51 15 -98.5t-62 -96.5h-77q23 24 38 45t21 41t2.5 39.5t-17.5 41.5l80 28v0z" />
    <glyph glyph-name="Egrave" unicode="&#xc8;" horiz-adv-x="491" 
d="M492 599h-250l-41 -214h239l-14 -74h-239l-44 -234h251l-15 -77h-251h-89l128 675h89h251zM396 725l-189 56l31 70l180 -74z" />
    <glyph glyph-name="Eacute" unicode="&#xc9;" horiz-adv-x="491" 
d="M492 599h-250l-41 -214h239l-14 -74h-239l-44 -234h251l-15 -77h-251h-89l128 675h89h251zM286 725l-13 52l190 74l17 -70z" />
    <glyph glyph-name="Ecircumflex" unicode="&#xca;" horiz-adv-x="491" 
d="M492 599h-250l-41 -214h239l-14 -74h-239l-44 -234h251l-15 -77h-251h-89l128 675h89h251zM473 724l-122 63l-140 -63l-20 48l167 85l144 -83z" />
    <glyph glyph-name="Edieresis" unicode="&#xcb;" horiz-adv-x="491" 
d="M492 599h-250l-41 -214h239l-14 -74h-239l-44 -234h251l-15 -77h-251h-89l128 675h89h251zM293 783q0 -22 -15.5 -37t-35.5 -15q-21 0 -35 14t-14 34q0 22 15.5 37t36.5 15t34.5 -14t13.5 -34zM502 783q0 -22 -15 -37t-36 -15q-20 0 -34 14t-14 34q0 22 15 37t36 15
t34.5 -14t13.5 -34z" />
    <glyph glyph-name="Igrave" unicode="&#xcc;" horiz-adv-x="256" 
d="M128 0h-89l128 675h89zM267 725l-189 56l31 70l180 -74z" />
    <glyph glyph-name="Iacute" unicode="&#xcd;" horiz-adv-x="256" 
d="M128 0h-89l128 675h89zM165 725l-13 52l190 74l17 -70z" />
    <glyph glyph-name="Icircumflex" unicode="&#xce;" horiz-adv-x="256" 
d="M128 0h-89l128 675h89zM352 724l-122 63l-140 -63l-20 48l167 85l144 -83z" />
    <glyph glyph-name="Idieresis" unicode="&#xcf;" horiz-adv-x="256" 
d="M128 0h-89l128 675h89zM170 783q0 -22 -15.5 -37t-35.5 -15q-21 0 -35 14t-14 34q0 22 15.5 37t36.5 15t34.5 -14t13.5 -34zM379 783q0 -22 -15 -37t-36 -15q-20 0 -34 14t-14 34q0 22 15 37t36 15t34.5 -14t13.5 -34z" />
    <glyph glyph-name="Eth" unicode="&#xd0;" horiz-adv-x="672" 
d="M563 424q0 39 -10 71.5t-34 56.5t-63.5 37.5t-99.5 13.5q-29 0 -56.5 -1t-47.5 -2l-42 -218h140l-14 -70h-139l-44 -232q19 -3 42 -4.5t39 -1.5q89 0 151.5 32t102 82.5t57.5 112.5t18 123zM659 433q0 -83 -26.5 -162t-80.5 -140t-137 -98t-195 -37q-55 0 -95 2t-77 2
l59 312h-95l13 70h96l55 292q39 1 91 2.5t102 1.5q78 0 133 -18t90 -50t51 -77t16 -100z" />
    <glyph glyph-name="Ntilde" unicode="&#xd1;" horiz-adv-x="682" 
d="M554 0h-89h-16l-173 413q-16 37 -28.5 73.5t-21.5 69.5q-9 -59 -20 -123.5t-22 -127.5l-57 -305h-89l128 675h89h18l170 -404q16 -37 29 -74.5t24 -73.5q9 54 19.5 117.5t21.5 123.5l57 311h89zM619 808q-43 -73 -113 -73q-25 0 -42 8t-30.5 18t-26 18t-28.5 8
q-36 0 -64 -45l-44 33q21 35 49.5 54.5t63.5 19.5q25 0 42 -8t30.5 -18t26 -18t28.5 -8q34 0 64 44l44 -33v0z" />
    <glyph glyph-name="Ograve" unicode="&#xd2;" horiz-adv-x="691" 
d="M582 429q0 81 -39.5 128t-121.5 47q-60 0 -110.5 -28.5t-86.5 -77.5t-56.5 -113t-20.5 -136q0 -82 39.5 -129.5t117.5 -47.5q57 0 108 27.5t88.5 76t59.5 113.5t22 140zM679 439q0 -96 -30.5 -178.5t-83 -142.5t-123.5 -94t-151 -34q-123 0 -182 65t-59 181
q0 91 29.5 173t81 143t122 97t153.5 36q118 0 180.5 -64t62.5 -182zM493 725l-189 56l31 70l180 -74z" />
    <glyph glyph-name="Oacute" unicode="&#xd3;" horiz-adv-x="691" 
d="M582 429q0 81 -39.5 128t-121.5 47q-60 0 -110.5 -28.5t-86.5 -77.5t-56.5 -113t-20.5 -136q0 -82 39.5 -129.5t117.5 -47.5q57 0 108 27.5t88.5 76t59.5 113.5t22 140zM679 439q0 -96 -30.5 -178.5t-83 -142.5t-123.5 -94t-151 -34q-123 0 -182 65t-59 181
q0 91 29.5 173t81 143t122 97t153.5 36q118 0 180.5 -64t62.5 -182zM391 725l-13 52l190 74l17 -70z" />
    <glyph glyph-name="Ocircumflex" unicode="&#xd4;" horiz-adv-x="691" 
d="M582 429q0 81 -39.5 128t-121.5 47q-60 0 -110.5 -28.5t-86.5 -77.5t-56.5 -113t-20.5 -136q0 -82 39.5 -129.5t117.5 -47.5q57 0 108 27.5t88.5 76t59.5 113.5t22 140zM679 439q0 -96 -30.5 -178.5t-83 -142.5t-123.5 -94t-151 -34q-123 0 -182 65t-59 181
q0 91 29.5 173t81 143t122 97t153.5 36q118 0 180.5 -64t62.5 -182zM571 724l-122 63l-140 -63l-20 48l167 85l144 -83z" />
    <glyph glyph-name="Otilde" unicode="&#xd5;" horiz-adv-x="691" 
d="M582 429q0 81 -39.5 128t-121.5 47q-60 0 -110.5 -28.5t-86.5 -77.5t-56.5 -113t-20.5 -136q0 -82 39.5 -129.5t117.5 -47.5q57 0 108 27.5t88.5 76t59.5 113.5t22 140zM679 439q0 -96 -30.5 -178.5t-83 -142.5t-123.5 -94t-151 -34q-123 0 -182 65t-59 181
q0 91 29.5 173t81 143t122 97t153.5 36q118 0 180.5 -64t62.5 -182zM628 808q-43 -73 -113 -73q-25 0 -42 8t-30.5 18t-26 18t-28.5 8q-36 0 -64 -45l-44 33q21 35 49.5 54.5t63.5 19.5q25 0 42 -8t30.5 -18t26 -18t28.5 -8q34 0 64 44l44 -33v0z" />
    <glyph glyph-name="Odieresis" unicode="&#xd6;" horiz-adv-x="691" 
d="M582 429q0 81 -39.5 128t-121.5 47q-60 0 -110.5 -28.5t-86.5 -77.5t-56.5 -113t-20.5 -136q0 -82 39.5 -129.5t117.5 -47.5q57 0 108 27.5t88.5 76t59.5 113.5t22 140zM679 439q0 -96 -30.5 -178.5t-83 -142.5t-123.5 -94t-151 -34q-123 0 -182 65t-59 181
q0 91 29.5 173t81 143t122 97t153.5 36q118 0 180.5 -64t62.5 -182zM399 783q0 -22 -15.5 -37t-35.5 -15q-21 0 -35 14t-14 34q0 22 15.5 37t36.5 15t34.5 -14t13.5 -34zM608 783q0 -22 -15 -37t-36 -15q-20 0 -34 14t-14 34q0 22 15 37t36 15t34.5 -14t13.5 -34z" />
    <glyph glyph-name="multiply" unicode="&#xd7;" 
d="M338 295l136 -169l-60 -49l-135 168l-200 -168l-46 54l202 169l-137 169l60 48l136 -167l199 167l45 -54z" />
    <glyph glyph-name="Oslash" unicode="&#xd8;" horiz-adv-x="691" 
d="M464 600q-14 2 -28 3.5t-30 0.5q-57 -4 -105 -34t-82.5 -78t-54 -111t-19.5 -133q0 -45 12.5 -79t38.5 -56l268 487v0zM584 430q0 96 -57 140l-271 -492q28 -7 65 -4q54 4 102 33t83.5 76.5t56.5 110.5t21 136zM679 439q0 -96 -30.5 -178.5t-83 -142.5t-123.5 -94
t-151 -34q-22 0 -41.5 2.5t-36.5 7.5l-54 -101l-65 27l54 98q-50 30 -74 83.5t-24 128.5q0 92 29 173.5t81 143t122.5 97t153.5 35.5q35 0 70 -8l51 93l64 -26l-50 -90q108 -58 108 -215z" />
    <glyph glyph-name="Ugrave" unicode="&#xd9;" horiz-adv-x="677" 
d="M596 247q-25 -133 -102.5 -195t-205.5 -62q-74 0 -119 19t-67.5 52.5t-26 78t6.5 95.5l83 440h90l-85 -444q-15 -81 13 -123t118 -42q43 0 77 10t60 32.5t43.5 59t27.5 89.5l80 418h88zM481 725l-189 56l31 70l180 -74z" />
    <glyph glyph-name="Uacute" unicode="&#xda;" horiz-adv-x="677" 
d="M596 247q-25 -133 -102.5 -195t-205.5 -62q-74 0 -119 19t-67.5 52.5t-26 78t6.5 95.5l83 440h90l-85 -444q-15 -81 13 -123t118 -42q43 0 77 10t60 32.5t43.5 59t27.5 89.5l80 418h88zM384 725l-13 52l190 74l17 -70z" />
    <glyph glyph-name="Ucircumflex" unicode="&#xdb;" horiz-adv-x="677" 
d="M596 247q-25 -133 -102.5 -195t-205.5 -62q-74 0 -119 19t-67.5 52.5t-26 78t6.5 95.5l83 440h90l-85 -444q-15 -81 13 -123t118 -42q43 0 77 10t60 32.5t43.5 59t27.5 89.5l80 418h88zM555 724l-122 63l-140 -63l-20 48l167 85l144 -83z" />
    <glyph glyph-name="Udieresis" unicode="&#xdc;" horiz-adv-x="677" 
d="M596 247q-25 -133 -102.5 -195t-205.5 -62q-74 0 -119 19t-67.5 52.5t-26 78t6.5 95.5l83 440h90l-85 -444q-15 -81 13 -123t118 -42q43 0 77 10t60 32.5t43.5 59t27.5 89.5l80 418h88zM379 783q0 -22 -15.5 -37t-35.5 -15q-21 0 -35 14t-14 34q0 22 15.5 37t36.5 15
t34.5 -14t13.5 -34zM588 783q0 -22 -15 -37t-36 -15q-20 0 -34 14t-14 34q0 22 15 37t36 15t34.5 -14t13.5 -34z" />
    <glyph glyph-name="Yacute" unicode="&#xdd;" horiz-adv-x="526" 
d="M306 243l-46 -243h-90l46 243l-124 432h94l62 -228q8 -30 15 -59t13 -58h1q17 31 38 63.5t43 66.5l140 215h101zM310 725l-13 52l190 74l17 -70z" />
    <glyph glyph-name="Thorn" unicode="&#xde;" horiz-adv-x="517" 
d="M435 393q0 48 -32 77.5t-105 29.5q-15 0 -37 -1t-39 -4l-54 -281q16 -2 31.5 -3t32.5 -1q49 0 87 15t63.5 40t39 58.5t13.5 69.5zM530 408q0 -54 -21 -103.5t-61.5 -87.5t-99 -60.5t-132.5 -22.5q-19 0 -33.5 1t-28.5 3l-26 -138h-90l128 675h90l-19 -102q20 1 41.5 1.5
t44.5 0.5q106 0 156.5 -46t50.5 -121z" />
    <glyph glyph-name="germandbls" unicode="&#xdf;" horiz-adv-x="567" 
d="M540 618q0 -37 -12 -62t-30.5 -43.5t-39.5 -32.5t-39.5 -28.5t-30.5 -32t-12 -42.5q0 -31 19 -54.5t42 -47t42 -52t19 -69.5q0 -33 -14 -63t-41 -52t-65.5 -35t-87.5 -13q-27 0 -45.5 1.5t-37.5 5.5l16 80q20 -7 37.5 -10.5t39.5 -3.5q50 0 77.5 21.5t27.5 58.5
q0 31 -19 54.5t-41.5 46.5t-41 51t-18.5 69q0 35 12 59t30 42t39.5 32t39.5 29t30 33.5t12 45.5q0 26 -18.5 42.5t-55.5 16.5q-57 0 -95.5 -37t-55.5 -123l-101 -532q-12 -64 -32 -107.5t-48.5 -70.5t-65 -38.5t-82.5 -11.5q-17 0 -36 2.5t-35 5.5l20 75q15 -4 30.5 -6
t32.5 -2q26 0 46 7t35 24t26 47t20 75l100 527q24 124 89 179.5t163 55.5q74 0 114.5 -32.5t40.5 -84.5z" />
    <glyph glyph-name="agrave" unicode="&#xe0;" horiz-adv-x="538" 
d="M403 425q-15 4 -32.5 6.5t-38.5 2.5q-56 0 -95 -26t-63.5 -66t-36 -89t-11.5 -95q0 -49 14 -70t37 -21q35 0 70.5 33t65.5 81.5t52 103.5t31 100l7 40v0zM503 490q-20 -104 -34 -177t-24 -127.5t-18 -97.5t-16 -88h-89q13 63 58 202l-2 1q-14 -29 -34.5 -66t-49.5 -69.5
t-66 -55t-82 -22.5q-54 0 -82.5 36t-28.5 115q0 69 18 134.5t56.5 116.5t97.5 82t140 31q43 0 82 -4t74 -11zM382 570l-137 117l54 57l126 -128z" />
    <glyph glyph-name="aacute" unicode="&#xe1;" horiz-adv-x="538" 
d="M403 425q-15 4 -32.5 6.5t-38.5 2.5q-56 0 -95 -26t-63.5 -66t-36 -89t-11.5 -95q0 -49 14 -70t37 -21q35 0 70.5 33t65.5 81.5t52 103.5t31 100l7 40v0zM503 490q-20 -104 -34 -177t-24 -127.5t-18 -97.5t-16 -88h-89q13 63 58 202l-2 1q-14 -29 -34.5 -66t-49.5 -69.5
t-66 -55t-82 -22.5q-54 0 -82.5 36t-28.5 115q0 69 18 134.5t56.5 116.5t97.5 82t140 31q43 0 82 -4t74 -11zM341 570l-34 50l153 124l43 -62z" />
    <glyph glyph-name="acircumflex" unicode="&#xe2;" horiz-adv-x="538" 
d="M403 425q-15 4 -32.5 6.5t-38.5 2.5q-56 0 -95 -26t-63.5 -66t-36 -89t-11.5 -95q0 -49 14 -70t37 -21q35 0 70.5 33t65.5 81.5t52 103.5t31 100l7 40v0zM503 490q-20 -104 -34 -177t-24 -127.5t-18 -97.5t-16 -88h-89q13 63 58 202l-2 1q-14 -29 -34.5 -66t-49.5 -69.5
t-66 -55t-82 -22.5q-54 0 -82.5 36t-28.5 115q0 69 18 134.5t56.5 116.5t97.5 82t140 31q43 0 82 -4t74 -11zM452 570l-83 85l-112 -85l-34 42l158 132l114 -130z" />
    <glyph glyph-name="atilde" unicode="&#xe3;" horiz-adv-x="538" 
d="M403 425q-15 4 -32.5 6.5t-38.5 2.5q-56 0 -95 -26t-63.5 -66t-36 -89t-11.5 -95q0 -49 14 -70t37 -21q35 0 70.5 33t65.5 81.5t52 103.5t31 100l7 40v0zM503 490q-20 -104 -34 -177t-24 -127.5t-18 -97.5t-16 -88h-89q13 63 58 202l-2 1q-14 -29 -34.5 -66t-49.5 -69.5
t-66 -55t-82 -22.5q-54 0 -82.5 36t-28.5 115q0 69 18 134.5t56.5 116.5t97.5 82t140 31q43 0 82 -4t74 -11zM528 672q-20 -38 -49 -58t-63 -20q-24 0 -40 8.5t-29 19t-25 19t-27 8.5q-32 0 -62 -47l-44 36q20 37 48.5 57t62.5 20q24 0 40 -8.5t29.5 -18.5t26 -18.5
t27.5 -8.5q33 0 61 46l44 -35v0z" />
    <glyph glyph-name="adieresis" unicode="&#xe4;" horiz-adv-x="538" 
d="M403 425q-15 4 -32.5 6.5t-38.5 2.5q-56 0 -95 -26t-63.5 -66t-36 -89t-11.5 -95q0 -49 14 -70t37 -21q35 0 70.5 33t65.5 81.5t52 103.5t31 100l7 40v0zM503 490q-20 -104 -34 -177t-24 -127.5t-18 -97.5t-16 -88h-89q13 63 58 202l-2 1q-14 -29 -34.5 -66t-49.5 -69.5
t-66 -55t-82 -22.5q-54 0 -82.5 36t-28.5 115q0 69 18 134.5t56.5 116.5t97.5 82t140 31q43 0 82 -4t74 -11zM310 657q0 -25 -16 -40.5t-39 -15.5t-38 15t-15 36q0 24 16.5 40t39.5 16t37.5 -15.5t14.5 -35.5zM502 657q0 -25 -16 -40.5t-39 -15.5t-38 15t-15 37
q0 23 16.5 39t39.5 16t37.5 -15.5t14.5 -35.5z" />
    <glyph glyph-name="aring" unicode="&#xe5;" horiz-adv-x="538" 
d="M403 425q-15 4 -32.5 6.5t-38.5 2.5q-56 0 -95 -26t-63.5 -66t-36 -89t-11.5 -95q0 -49 14 -70t37 -21q35 0 70.5 33t65.5 81.5t52 103.5t31 100l7 40v0zM503 490q-20 -104 -34 -177t-24 -127.5t-18 -97.5t-16 -88h-89q13 63 58 202l-2 1q-14 -29 -34.5 -66t-49.5 -69.5
t-66 -55t-82 -22.5q-54 0 -82.5 36t-28.5 115q0 69 18 134.5t56.5 116.5t97.5 82t140 31q43 0 82 -4t74 -11zM431 665q0 22 -14 38t-37 16q-24 0 -41.5 -17.5t-17.5 -43.5q0 -23 14.5 -38.5t37.5 -15.5t40.5 17.5t17.5 43.5zM489 668q0 -25 -10 -46.5t-26.5 -37t-38 -24
t-44.5 -8.5q-45 0 -75.5 29t-30.5 74q0 26 10 47.5t26.5 36.5t38 23.5t44.5 8.5q46 0 76 -29t30 -74z" />
    <glyph glyph-name="ae" unicode="&#xe6;" horiz-adv-x="763" 
d="M330 221q-48 -3 -89 -9t-70.5 -17.5t-46 -30.5t-16.5 -49q0 -24 16.5 -38.5t42.5 -14.5q31 0 58 13t48.5 35t36 50.5t20.5 60.5zM653 382q0 27 -18.5 42t-48.5 15q-29 0 -53.5 -12t-44 -33t-33.5 -48.5t-23 -58.5q49 3 89.5 8.5t70 16t45.5 27.5t16 43zM743 393
q0 -35 -15 -64.5t-52 -51.5t-99.5 -36.5t-157.5 -19.5q-2 -11 -3 -28.5t-1 -31.5q0 -29 5.5 -47.5t18.5 -29.5t33 -15.5t50 -4.5q36 0 72.5 7.5t68.5 21.5v-72q-36 -14 -79 -22t-92 -8q-40 0 -67 8.5t-45 23t-28 35t-16 44.5q-12 -21 -31.5 -41t-45 -35.5t-55 -25
t-60.5 -9.5q-66 0 -95.5 30.5t-29.5 75.5q0 52 25 86.5t68.5 56t102.5 31.5t128 14l7 33q11 57 -6 87.5t-78 30.5q-34 0 -75 -11t-75 -31v78q38 16 81.5 25.5t85.5 9.5q36 0 60.5 -6.5t41 -17t25.5 -24.5t15 -29q13 14 31 28t40 24.5t47.5 17t52.5 6.5q40 0 68 -9.5
t45.5 -25t25.5 -36t8 -42.5z" />
    <glyph glyph-name="ccedilla" unicode="&#xe7;" horiz-adv-x="412" 
d="M406 412q-20 9 -42.5 14t-48.5 5q-47 0 -82 -24t-58 -61t-34 -82.5t-11 -87.5q0 -20 4 -38.5t15.5 -33.5t31.5 -24t53 -9q29 0 57.5 6t51.5 17v-76q-27 -11 -61.5 -18.5t-72.5 -7.5q-48 0 -81.5 12.5t-53.5 34.5t-29 52t-9 65q0 71 19.5 134.5t56 111t89.5 75.5t120 28
q31 0 56.5 -4t48.5 -11zM203 -40q29 -51 15 -98.5t-62 -96.5h-77q23 24 38 45t21 41t2.5 39.5t-17.5 41.5l80 28v0z" />
    <glyph glyph-name="egrave" unicode="&#xe8;" horiz-adv-x="477" 
d="M367 382q0 27 -18.5 41.5t-48.5 14.5t-54.5 -12t-44 -33t-33.5 -49t-23 -59q116 5 169 28.5t53 68.5zM456 393q0 -162 -322 -174q-2 -11 -3.5 -27.5t-1.5 -30.5q0 -29 5.5 -47.5t18 -29.5t33 -15.5t50.5 -4.5q35 0 71 7.5t68 20.5l3 -70q-38 -15 -81 -23t-92 -8
q-86 0 -126.5 38t-40.5 123q0 72 19.5 136.5t55 113t85.5 76.5t112 28q40 0 67.5 -9.5t45 -25t25.5 -36t8 -42.5zM354 570l-137 117l54 57l126 -128z" />
    <glyph glyph-name="eacute" unicode="&#xe9;" horiz-adv-x="477" 
d="M367 382q0 27 -18.5 41.5t-48.5 14.5t-54.5 -12t-44 -33t-33.5 -49t-23 -59q116 5 169 28.5t53 68.5zM456 393q0 -162 -322 -174q-2 -11 -3.5 -27.5t-1.5 -30.5q0 -29 5.5 -47.5t18 -29.5t33 -15.5t50.5 -4.5q35 0 71 7.5t68 20.5l3 -70q-38 -15 -81 -23t-92 -8
q-86 0 -126.5 38t-40.5 123q0 72 19.5 136.5t55 113t85.5 76.5t112 28q40 0 67.5 -9.5t45 -25t25.5 -36t8 -42.5zM298 570l-34 50l153 124l43 -62z" />
    <glyph glyph-name="ecircumflex" unicode="&#xea;" horiz-adv-x="477" 
d="M367 382q0 27 -18.5 41.5t-48.5 14.5t-54.5 -12t-44 -33t-33.5 -49t-23 -59q116 5 169 28.5t53 68.5zM456 393q0 -162 -322 -174q-2 -11 -3.5 -27.5t-1.5 -30.5q0 -29 5.5 -47.5t18 -29.5t33 -15.5t50.5 -4.5q35 0 71 7.5t68 20.5l3 -70q-38 -15 -81 -23t-92 -8
q-86 0 -126.5 38t-40.5 123q0 72 19.5 136.5t55 113t85.5 76.5t112 28q40 0 67.5 -9.5t45 -25t25.5 -36t8 -42.5zM416 570l-83 85l-112 -85l-34 42l158 132l114 -130z" />
    <glyph glyph-name="edieresis" unicode="&#xeb;" horiz-adv-x="477" 
d="M367 382q0 27 -18.5 41.5t-48.5 14.5t-54.5 -12t-44 -33t-33.5 -49t-23 -59q116 5 169 28.5t53 68.5zM456 393q0 -162 -322 -174q-2 -11 -3.5 -27.5t-1.5 -30.5q0 -29 5.5 -47.5t18 -29.5t33 -15.5t50.5 -4.5q35 0 71 7.5t68 20.5l3 -70q-38 -15 -81 -23t-92 -8
q-86 0 -126.5 38t-40.5 123q0 72 19.5 136.5t55 113t85.5 76.5t112 28q40 0 67.5 -9.5t45 -25t25.5 -36t8 -42.5zM294 657q0 -25 -16 -40.5t-39 -15.5t-38 15t-15 36q0 24 16.5 40t39.5 16t37.5 -15.5t14.5 -35.5zM486 657q0 -25 -16 -40.5t-39 -15.5t-38 15t-15 37
q0 23 16.5 39t39.5 16t37.5 -15.5t14.5 -35.5z" />
    <glyph glyph-name="igrave" unicode="&#xec;" horiz-adv-x="254" 
d="M126 0h-88l95 497h88zM224 570l-137 117l54 57l126 -128z" />
    <glyph glyph-name="iacute" unicode="&#xed;" horiz-adv-x="254" 
d="M126 0h-88l95 497h88zM151 570l-34 50l153 124l43 -62z" />
    <glyph glyph-name="icircumflex" unicode="&#xee;" horiz-adv-x="254" 
d="M126 0h-88l95 497h88zM290 570l-83 85l-112 -85l-34 42l158 132l114 -130z" />
    <glyph glyph-name="idieresis" unicode="&#xef;" horiz-adv-x="254" 
d="M126 0h-88l95 497h88zM158 657q0 -25 -16 -40.5t-39 -15.5t-38 15t-15 36q0 24 16.5 40t39.5 16t37.5 -15.5t14.5 -35.5zM350 657q0 -25 -16 -40.5t-39 -15.5t-38 15t-15 37q0 23 16.5 39t39.5 16t37.5 -15.5t14.5 -35.5z" />
    <glyph glyph-name="eth" unicode="&#xf0;" horiz-adv-x="535" 
d="M413 321q0 50 -25.5 80t-78.5 30q-43 0 -76.5 -21t-57 -55t-36 -77t-12.5 -87q0 -60 27.5 -92t78.5 -32q52 0 86.5 28.5t55.5 69t29.5 83.5t8.5 73zM433 630q39 -61 57.5 -127t18.5 -135q0 -79 -20.5 -148t-58.5 -120t-91 -80t-117 -29q-88 0 -138 43.5t-50 136.5
q0 66 20.5 126.5t57.5 106.5t89 73.5t115 27.5q34 0 62 -10.5t39 -34.5q-5 16 -10.5 29.5t-9.5 21.5q-11 25 -21.5 45.5t-24.5 39.5l-111 -46l-29 49l103 43q-14 16 -30 31t-34 32l88 39q17 -16 32 -32.5t29 -33.5l110 45l27 -50z" />
    <glyph glyph-name="ntilde" unicode="&#xf1;" horiz-adv-x="563" 
d="M435 0h-88l61 318q11 59 0.5 85.5t-44.5 26.5q-35 0 -69.5 -32.5t-64.5 -80.5t-52 -103.5t-31 -101.5l-21 -112h-88l50 259q1 6 4.5 24t8 43t9.5 52.5t9.5 52t8 42.5t4.5 24h87q-5 -25 -17 -70.5t-38 -125.5h2q18 39 41.5 76.5t52.5 66t63 46t73 17.5q69 0 93.5 -45.5
t10.5 -123.5zM520 672q-20 -38 -49 -58t-63 -20q-24 0 -40 8.5t-29 19t-25 19t-27 8.5q-32 0 -62 -47l-44 36q20 37 48.5 57t62.5 20q24 0 40 -8.5t29.5 -18.5t26 -18.5t27.5 -8.5q33 0 61 46l44 -35v0z" />
    <glyph glyph-name="ograve" unicode="&#xf2;" horiz-adv-x="539" 
d="M416 317q0 55 -25.5 84t-79.5 29q-41 0 -74.5 -21t-57.5 -55.5t-37 -79t-13 -91.5q0 -56 24 -85.5t81 -29.5q36 0 69 18.5t58 51.5t40 79t15 100zM510 327q0 -77 -24.5 -139t-65 -106t-93 -67.5t-108.5 -23.5q-94 0 -138 45.5t-44 131.5q0 74 22 136t61 107t91.5 70
t113.5 25q49 0 84 -13t57.5 -37t33 -57t10.5 -72zM372 570l-137 117l54 57l126 -128z" />
    <glyph glyph-name="oacute" unicode="&#xf3;" horiz-adv-x="539" 
d="M416 317q0 55 -25.5 84t-79.5 29q-41 0 -74.5 -21t-57.5 -55.5t-37 -79t-13 -91.5q0 -56 24 -85.5t81 -29.5q36 0 69 18.5t58 51.5t40 79t15 100zM510 327q0 -77 -24.5 -139t-65 -106t-93 -67.5t-108.5 -23.5q-94 0 -138 45.5t-44 131.5q0 74 22 136t61 107t91.5 70
t113.5 25q49 0 84 -13t57.5 -37t33 -57t10.5 -72zM321 570l-34 50l153 124l43 -62z" />
    <glyph glyph-name="ocircumflex" unicode="&#xf4;" horiz-adv-x="539" 
d="M416 317q0 55 -25.5 84t-79.5 29q-41 0 -74.5 -21t-57.5 -55.5t-37 -79t-13 -91.5q0 -56 24 -85.5t81 -29.5q36 0 69 18.5t58 51.5t40 79t15 100zM510 327q0 -77 -24.5 -139t-65 -106t-93 -67.5t-108.5 -23.5q-94 0 -138 45.5t-44 131.5q0 74 22 136t61 107t91.5 70
t113.5 25q49 0 84 -13t57.5 -37t33 -57t10.5 -72zM444 570l-83 85l-112 -85l-34 42l158 132l114 -130z" />
    <glyph glyph-name="otilde" unicode="&#xf5;" horiz-adv-x="539" 
d="M416 317q0 55 -25.5 84t-79.5 29q-41 0 -74.5 -21t-57.5 -55.5t-37 -79t-13 -91.5q0 -56 24 -85.5t81 -29.5q36 0 69 18.5t58 51.5t40 79t15 100zM510 327q0 -77 -24.5 -139t-65 -106t-93 -67.5t-108.5 -23.5q-94 0 -138 45.5t-44 131.5q0 74 22 136t61 107t91.5 70
t113.5 25q49 0 84 -13t57.5 -37t33 -57t10.5 -72zM517 672q-20 -38 -49 -58t-63 -20q-24 0 -40 8.5t-29 19t-25 19t-27 8.5q-32 0 -62 -47l-44 36q20 37 48.5 57t62.5 20q24 0 40 -8.5t29.5 -18.5t26 -18.5t27.5 -8.5q33 0 61 46l44 -35v0z" />
    <glyph glyph-name="odieresis" unicode="&#xf6;" horiz-adv-x="539" 
d="M416 317q0 55 -25.5 84t-79.5 29q-41 0 -74.5 -21t-57.5 -55.5t-37 -79t-13 -91.5q0 -56 24 -85.5t81 -29.5q36 0 69 18.5t58 51.5t40 79t15 100zM510 327q0 -77 -24.5 -139t-65 -106t-93 -67.5t-108.5 -23.5q-94 0 -138 45.5t-44 131.5q0 74 22 136t61 107t91.5 70
t113.5 25q49 0 84 -13t57.5 -37t33 -57t10.5 -72zM310 657q0 -25 -16 -40.5t-39 -15.5t-38 15t-15 36q0 24 16.5 40t39.5 16t37.5 -15.5t14.5 -35.5zM502 657q0 -25 -16 -40.5t-39 -15.5t-38 15t-15 37q0 23 16.5 39t39.5 16t37.5 -15.5t14.5 -35.5z" />
    <glyph glyph-name="divide" unicode="&#xf7;" 
d="M304 97q0 -26 -17.5 -44t-42.5 -18q-26 0 -42.5 17.5t-16.5 41.5q0 26 17.5 44t43.5 18q25 0 41.5 -17.5t16.5 -41.5zM511 260h-465l14 75h466zM382 500q0 -26 -17.5 -44t-42.5 -18q-26 0 -42.5 17.5t-16.5 41.5q0 26 18 44t43 18t41.5 -17.5t16.5 -41.5z" />
    <glyph glyph-name="oslash" unicode="&#xf8;" horiz-adv-x="539" 
d="M334 431q-7 2 -15 2h-17q-39 -2 -71.5 -22.5t-56 -54t-37 -78t-13.5 -92.5q0 -56 24 -84l186 329v0zM421 317q0 30 -8.5 52.5t-26.5 36.5l-189 -336q21 -6 46 -5q36 2 68.5 22t57 53.5t38.5 79t14 97.5zM510 327q0 -77 -24.5 -139t-65 -106t-93 -67.5t-108.5 -23.5
q-17 0 -32 1.5t-29 6.5l-58 -102l-53 27l54 97q-32 21 -48 58.5t-16 88.5q0 72 21 134t59 107t91 71t117 26q24 0 49 -5l56 100l53 -26l-52 -92q41 -23 60 -63t19 -93z" />
    <glyph glyph-name="ugrave" unicode="&#xf9;" horiz-adv-x="563" 
d="M480 238q-1 -6 -4.5 -24t-8.5 -43t-10 -52.5t-9.5 -52t-7.5 -43t-4 -23.5h-88q5 25 17 70.5t38 125.5h-2q-18 -39 -41 -76.5t-52 -66t-63 -46t-73 -17.5q-69 0 -94 45.5t-10 123.5l64 338h89l-61 -318q-11 -59 -0.5 -85.5t43.5 -26.5q34 0 69.5 32.5t65.5 80.5t52 103.5
t31 101.5l21 112h88zM360 570l-137 117l54 57l126 -128z" />
    <glyph glyph-name="uacute" unicode="&#xfa;" horiz-adv-x="563" 
d="M480 238q-1 -6 -4.5 -24t-8.5 -43t-10 -52.5t-9.5 -52t-7.5 -43t-4 -23.5h-88q5 25 17 70.5t38 125.5h-2q-18 -39 -41 -76.5t-52 -66t-63 -46t-73 -17.5q-69 0 -94 45.5t-10 123.5l64 338h89l-61 -318q-11 -59 -0.5 -85.5t43.5 -26.5q34 0 69.5 32.5t65.5 80.5t52 103.5
t31 101.5l21 112h88zM325 570l-34 50l153 124l43 -62z" />
    <glyph glyph-name="ucircumflex" unicode="&#xfb;" horiz-adv-x="563" 
d="M480 238q-1 -6 -4.5 -24t-8.5 -43t-10 -52.5t-9.5 -52t-7.5 -43t-4 -23.5h-88q5 25 17 70.5t38 125.5h-2q-18 -39 -41 -76.5t-52 -66t-63 -46t-73 -17.5q-69 0 -94 45.5t-10 123.5l64 338h89l-61 -318q-11 -59 -0.5 -85.5t43.5 -26.5q34 0 69.5 32.5t65.5 80.5t52 103.5
t31 101.5l21 112h88zM443 570l-83 85l-112 -85l-34 42l158 132l114 -130z" />
    <glyph glyph-name="udieresis" unicode="&#xfc;" horiz-adv-x="563" 
d="M480 238q-1 -6 -4.5 -24t-8.5 -43t-10 -52.5t-9.5 -52t-7.5 -43t-4 -23.5h-88q5 25 17 70.5t38 125.5h-2q-18 -39 -41 -76.5t-52 -66t-63 -46t-73 -17.5q-69 0 -94 45.5t-10 123.5l64 338h89l-61 -318q-11 -59 -0.5 -85.5t43.5 -26.5q34 0 69.5 32.5t65.5 80.5t52 103.5
t31 101.5l21 112h88zM311 657q0 -25 -16 -40.5t-39 -15.5t-38 15t-15 36q0 24 16.5 40t39.5 16t37.5 -15.5t14.5 -35.5zM503 657q0 -25 -16 -40.5t-39 -15.5t-38 15t-15 37q0 23 16.5 39t39.5 16t37.5 -15.5t14.5 -35.5z" />
    <glyph glyph-name="yacute" unicode="&#xfd;" horiz-adv-x="486" 
d="M509 492q-100 -232 -193 -397.5t-187 -258.5q-90 -90 -179 -90q-19 0 -37 1.5t-33 5.5l15 81q29 -10 63 -10q26 0 55 15t55 42q29 32 42.5 68.5t13.5 90.5q0 100 -19.5 218t-53.5 239h100q12 -48 22.5 -100.5t18 -103.5t11.5 -98.5t4 -87.5q0 -14 -2 -30.5t-5 -31.5h1
q30 52 57.5 105.5t55 111t55.5 120.5t57 135l83 -25v0zM275 570l-34 50l153 124l43 -62z" />
    <glyph glyph-name="thorn" unicode="&#xfe;" horiz-adv-x="538" 
d="M417 339q0 49 -14 70t-37 21t-47 -15.5t-46 -40.5t-42.5 -58t-37 -68t-28 -70t-17.5 -64l-8 -38q16 -5 36 -8.5t36 -3.5q55 0 93.5 25.5t63.5 65.5t36.5 89t11.5 95zM508 356q0 -69 -18.5 -134t-56.5 -116t-97 -82t-141 -31q-36 0 -70 6l-46 -246h-88l186 977h89
l-38 -199l-10 -46t-12 -50t-17 -59.5t-24 -75.5l3 -1q19 43 43 81t52.5 66t62 44.5t71.5 16.5q54 0 82.5 -36t28.5 -115z" />
    <glyph glyph-name="ydieresis" unicode="&#xff;" horiz-adv-x="486" 
d="M509 492q-100 -232 -193 -397.5t-187 -258.5q-90 -90 -179 -90q-19 0 -37 1.5t-33 5.5l15 81q29 -10 63 -10q26 0 55 15t55 42q29 32 42.5 68.5t13.5 90.5q0 100 -19.5 218t-53.5 239h100q12 -48 22.5 -100.5t18 -103.5t11.5 -98.5t4 -87.5q0 -14 -2 -30.5t-5 -31.5h1
q30 52 57.5 105.5t55 111t55.5 120.5t57 135l83 -25v0zM262 657q0 -25 -16 -40.5t-39 -15.5t-38 15t-15 36q0 24 16.5 40t39.5 16t37.5 -15.5t14.5 -35.5zM454 657q0 -25 -16 -40.5t-39 -15.5t-38 15t-15 37q0 23 16.5 39t39.5 16t37.5 -15.5t14.5 -35.5z" />
    <glyph glyph-name="dotlessi" unicode="&#x131;" horiz-adv-x="254" 
d="M126 0h-88l95 497h88z" />
    <glyph glyph-name="Lslash" unicode="&#x141;" horiz-adv-x="425" 
d="M371 0h-236h-90l65 342l-74 -27l-16 68l105 40l48 252h90l-41 -214l110 41l17 -70l-142 -52l-57 -301h237z" />
    <glyph glyph-name="lslash" unicode="&#x142;" horiz-adv-x="290" 
d="M237 478l-90 -478h-89l84 443l-66 -25l-17 66l98 36l40 210h89l-35 -174l77 28l17 -67z" />
    <glyph glyph-name="OE" unicode="&#x152;" horiz-adv-x="846" 
d="M505 590q-20 7 -40.5 10.5t-43.5 3.5q-60 0 -110.5 -28.5t-86.5 -77.5t-56.5 -113t-20.5 -136q0 -82 39.5 -129.5t117.5 -47.5q56 0 106 14l95 504v0zM847 599h-250l-41 -214h238l-14 -74h-238l-44 -234h250l-15 -77h-334q-27 -5 -54 -7.5t-54 -2.5q-123 0 -182 65
t-59 181q0 91 29.5 173t81 143t122 97t153.5 36q28 0 52.5 -2.5t46.5 -7.5h327z" />
    <glyph glyph-name="oe" unicode="&#x153;" horiz-adv-x="837" 
d="M416 317q0 55 -25.5 84t-79.5 29q-41 0 -74.5 -21t-57.5 -55.5t-37 -79t-13 -91.5q0 -56 24 -85.5t81 -29.5q36 0 69 18.5t58 51.5t40 79t15 100zM728 382q0 27 -18.5 41.5t-48.5 14.5t-54.5 -12t-44 -33t-33.5 -49t-23 -59q116 5 169 28.5t53 68.5zM817 393
q0 -81 -81 -124.5t-241 -49.5q-2 -11 -3.5 -27.5t-1.5 -30.5q0 -29 5.5 -47.5t18 -29.5t33 -15.5t50.5 -4.5q35 0 70.5 7.5t67.5 20.5l4 -70q-38 -15 -81 -23t-92 -8q-63 0 -101 22t-50 73q-36 -45 -87.5 -70t-108.5 -25q-94 0 -138 45.5t-44 131.5q0 74 22 136t61 107
t91.5 70t113.5 25q64 0 104 -25t58 -70q32 43 77.5 69t106.5 26q40 0 67.5 -9.5t45 -25t25.5 -36t8 -42.5z" />
    <glyph glyph-name="Scaron" unicode="&#x160;" horiz-adv-x="454" 
d="M430 593q-25 9 -50 12.5t-44 3.5q-38 0 -65 -10t-45 -25.5t-26.5 -35.5t-8.5 -40q0 -31 15.5 -52.5t38 -40t49.5 -36t49.5 -39t38 -50t15.5 -68.5q0 -47 -19.5 -87.5t-55 -70.5t-84.5 -47t-108 -17q-27 0 -56.5 3.5t-54.5 11.5l17 88q21 -9 48.5 -15.5t53.5 -6.5
q78 0 120.5 34.5t42.5 91.5q0 29 -15 50t-38 38.5t-49.5 34.5t-49.5 38.5t-38 49.5t-15 69q0 42 16 79.5t47.5 66t78 45.5t107.5 17q26 0 49.5 -2t52.5 -8zM323 724l-144 83l29 50l121 -63l140 63l21 -48z" />
    <glyph glyph-name="scaron" unicode="&#x161;" horiz-adv-x="381" 
d="M337 426q-36 12 -75 12q-49 0 -74 -20.5t-25 -52.5q0 -20 11 -35.5t28 -29.5t36.5 -28.5t36.5 -31.5t28 -38t11 -49q0 -31 -13.5 -60.5t-40.5 -52t-67 -36t-93 -13.5q-50 0 -85 7l16 81q40 -14 81 -14q49 0 79 19.5t30 58.5q0 20 -11 35t-28 28.5t-36 27t-36 30.5t-28 39
t-11 52q0 32 12.5 59.5t37.5 48t62 32t85 11.5q26 0 46 -2t39 -5zM249 570l-114 130l43 44l84 -85l111 85l34 -42z" />
    <glyph glyph-name="Ydieresis" unicode="&#x178;" horiz-adv-x="526" 
d="M306 243l-46 -243h-90l46 243l-124 432h94l62 -228q8 -30 15 -59t13 -58h1q17 31 38 63.5t43 66.5l140 215h101zM302 783q0 -22 -15.5 -37t-35.5 -15q-21 0 -35 14t-14 34q0 22 15.5 37t36.5 15t34.5 -14t13.5 -34zM511 783q0 -22 -15 -37t-36 -15q-20 0 -34 14t-14 34
q0 22 15 37t36 15t34.5 -14t13.5 -34z" />
    <glyph glyph-name="florin" unicode="&#x192;" 
d="M576 613q-21 7 -43.5 11t-42.5 4q-48 0 -79 -28.5t-50 -95.5l-42 -147h149l-11 -70h-156l-70 -253q-29 -102 -86.5 -148t-148.5 -46q-20 0 -43.5 3.5t-45.5 9.5l18 76q21 -7 44 -11t43 -4q48 0 79 28t49 93l71 252h-115l11 70h122l43 151q29 100 85 146.5t149 46.5
q21 0 44 -3t45 -9z" />
    <glyph glyph-name="circumflex" unicode="&#x2c6;" horiz-adv-x="424" 
d="M333 570l-83 85l-112 -85l-34 42l158 132l114 -130z" />
    <glyph glyph-name="caron" unicode="&#x2c7;" horiz-adv-x="424" 
d="M223 570l-114 130l43 44l84 -85l111 85l34 -42z" />
    <glyph glyph-name="breve" unicode="&#x2d8;" horiz-adv-x="392" 
d="M407 719q-4 -26 -15 -50.5t-29.5 -43t-43.5 -29.5t-58 -11t-54 11t-33 30t-15 43t2 50h59q-4 -27 8 -46.5t42 -19.5q29 0 48.5 17t24.5 49h64v0z" />
    <glyph glyph-name="dotaccent" unicode="&#x2d9;" horiz-adv-x="277" 
d="M280 658q0 -27 -18 -44.5t-43 -17.5t-40.5 16t-15.5 39q0 27 18 44.5t43 17.5t40.5 -16.5t15.5 -38.5z" />
    <glyph glyph-name="ring" unicode="&#x2da;" horiz-adv-x="375" 
d="M324 664q0 22 -14 38t-37 16q-24 0 -41.5 -17.5t-17.5 -43.5q0 -23 14.5 -38.5t37.5 -15.5t40.5 17.5t17.5 43.5zM382 667q0 -25 -10 -46.5t-26.5 -37t-38 -24t-44.5 -8.5q-45 0 -75.5 29t-30.5 74q0 26 10 47.5t26.5 36.5t38 23.5t44.5 8.5q46 0 76 -29t30 -74z" />
    <glyph glyph-name="ogonek" unicode="&#x2db;" horiz-adv-x="334" 
d="M126 0q-52 -29 -75 -60t-23 -54q0 -25 28 -25q13 0 27 7t26 21l36 -40q-23 -29 -54.5 -45t-66.5 -16q-45 0 -65.5 21t-20.5 53q0 34 25.5 71.5t76.5 71.5z" />
    <glyph glyph-name="tilde" unicode="&#x2dc;" horiz-adv-x="486" 
d="M441 672q-20 -38 -49 -58t-63 -20q-24 0 -40 8.5t-29 19t-25 19t-27 8.5q-32 0 -62 -47l-44 36q20 37 48.5 57t62.5 20q24 0 40 -8.5t29.5 -18.5t26 -18.5t27.5 -8.5q33 0 61 46l44 -35v0z" />
    <glyph glyph-name="hungarumlaut" unicode="&#x2dd;" horiz-adv-x="483" 
d="M164 570l-42 39l136 141l51 -49zM335 570l-41 40l145 134l48 -52z" />
    <glyph glyph-name="Delta" unicode="&#x394;" horiz-adv-x="716" 
d="M430 594l-295 -513h399zM-7 0l411 700h93l148 -700h-652z" />
    <glyph glyph-name="Delta" unicode="&#x2206;" horiz-adv-x="716" 
d="M430 594l-295 -513h399zM-7 0l411 700h93l148 -700h-652z" />
    <glyph glyph-name="Omega" unicode="&#x3a9;" horiz-adv-x="705" 
d="M380 0l14 75q102 70 147.5 160.5t45.5 195.5q0 82 -39 127.5t-121 45.5q-65 0 -114.5 -32t-84 -81.5t-52 -108.5t-17.5 -114q0 -60 21.5 -104t69.5 -89l-14 -75h-239l15 77h143q-42 34 -66.5 82.5t-24.5 113.5q0 45 11 93t33 93.5t54 86.5t74 72t94 49t113 18
q112 0 177 -60.5t65 -179.5q0 -116 -50.5 -211t-142.5 -157h141l-15 -77h-238z" />
    <glyph glyph-name="Omega" unicode="&#x2126;" horiz-adv-x="705" 
d="M380 0l14 75q102 70 147.5 160.5t45.5 195.5q0 82 -39 127.5t-121 45.5q-65 0 -114.5 -32t-84 -81.5t-52 -108.5t-17.5 -114q0 -60 21.5 -104t69.5 -89l-14 -75h-239l15 77h143q-42 34 -66.5 82.5t-24.5 113.5q0 45 11 93t33 93.5t54 86.5t74 72t94 49t113 18
q112 0 177 -60.5t65 -179.5q0 -116 -50.5 -211t-142.5 -157h141l-15 -77h-238z" />
    <glyph glyph-name="pi" unicode="&#x3c0;" horiz-adv-x="620" 
d="M501 423q-18 -97 -26 -163.5t-8 -108.5q0 -48 9.5 -65.5t29.5 -17.5q21 0 42 6l-4 -73q-13 -4 -30.5 -6.5t-35.5 -2.5q-55 0 -78.5 31.5t-23.5 108.5q0 49 10 121.5t27 169.5h-164q-18 -106 -53.5 -217t-93.5 -218l-88 24q60 107 96 206t54 205h-119l15 74h577l-15 -74
h-121z" />
    <glyph glyph-name="endash" unicode="&#x2013;" 
d="M553 259h-550l15 78h550z" />
    <glyph glyph-name="emdash" unicode="&#x2014;" horiz-adv-x="1000" 
d="M886 259h-765l15 78h765z" />
    <glyph glyph-name="quoteleft" unicode="&#x2018;" horiz-adv-x="239" 
d="M289 709q-58 -48 -71 -82.5t2 -60.5q8 -13 8 -28t-6.5 -27.5t-19.5 -21t-30 -8.5q-29 0 -46 22.5t-12.5 60t37 85.5t104.5 99l34 -39v0z" />
    <glyph glyph-name="quoteright" unicode="&#x2019;" horiz-adv-x="239" 
d="M207 741q28 0 45.5 -22.5t13 -60t-37.5 -85.5t-105 -99l-33 39q58 48 70.5 82.5t-2.5 60.5q-8 13 -7.5 28t7 27.5t19.5 21t30 8.5z" />
    <glyph glyph-name="quotesinglbase" unicode="&#x201a;" horiz-adv-x="239" 
d="M83 113q28 0 45.5 -22.5t13 -59.5t-37 -85t-104.5 -99l-34 38q58 49 71 83.5t-2 60.5q-8 13 -8 28t7 27.5t19.5 20.5t29.5 8z" />
    <glyph glyph-name="quotedblleft" unicode="&#x201c;" horiz-adv-x="425" 
d="M289 710q-58 -48 -71 -82.5t2 -60.5q8 -13 8 -28t-7 -27.5t-19.5 -21t-29.5 -8.5q-29 0 -46 22.5t-12.5 60t37 85.5t104.5 99l34 -39v0zM478 710q-57 -48 -70 -82.5t2 -60.5q8 -13 7.5 -28t-7 -27.5t-19 -21t-29.5 -8.5q-29 0 -46 22.5t-12.5 60t37 85.5t104.5 99l33 -39
v0z" />
    <glyph glyph-name="quotedblright" unicode="&#x201d;" horiz-adv-x="425" 
d="M207 743q28 0 45.5 -22.5t13 -60t-37.5 -85.5t-105 -99l-33 39q58 48 71 82.5t-3 60.5q-8 13 -7.5 28t7 28t19.5 21t30 8zM396 743q28 0 45.5 -22.5t13 -60t-37.5 -85.5t-105 -99l-33 39q58 48 71 82.5t-3 60.5q-8 13 -7.5 28t7 28t19.5 21t30 8z" />
    <glyph glyph-name="quotedblbase" unicode="&#x201e;" horiz-adv-x="425" 
d="M83 113q28 0 45.5 -22.5t13 -59.5t-37 -85t-104.5 -99l-34 38q58 49 71 83.5t-2 60.5q-8 13 -8 28t7 27.5t19.5 20.5t29.5 8zM273 113q28 0 45.5 -22.5t13 -59.5t-37.5 -85t-105 -99l-33 38q58 49 71 83.5t-3 60.5q-8 13 -7.5 28t7 27.5t19.5 20.5t30 8z" />
    <glyph glyph-name="dagger" unicode="&#x2020;" horiz-adv-x="440" 
d="M454 557h-137l-3 -98l-66 -251h-66l29 251l35 98h-137l13 70h137l10 137h103l-42 -137h137z" />
    <glyph glyph-name="daggerdbl" unicode="&#x2021;" horiz-adv-x="440" 
d="M455 564h-136l-4 -99l-35 -100h136l-13 -70h-136l-9 -130h-103l41 130h-137l13 70h137l3 100l35 99h-136l12 70h137l9 130h103l-40 -130h136z" />
    <glyph glyph-name="bullet" unicode="&#x2022;" horiz-adv-x="420" 
d="M342 301q0 -26 -10 -49t-27 -40t-39 -26.5t-47 -9.5t-46.5 9.5t-37.5 25.5t-25 37t-9 45q0 26 10 49t26.5 40t39 26.5t47.5 9.5t46.5 -9.5t37.5 -25.5t25 -37t9 -45z" />
    <glyph glyph-name="ellipsis" unicode="&#x2026;" horiz-adv-x="652" 
d="M141 54q0 -27 -18.5 -45t-43.5 -18t-40.5 17t-15.5 40q0 28 18 46t44 18q25 0 40.5 -17.5t15.5 -40.5zM352 54q0 -27 -18.5 -45t-43.5 -18t-41 17t-16 40q0 28 18.5 46t43.5 18t41 -17.5t16 -40.5zM562 54q0 -27 -18.5 -45t-43.5 -18t-40.5 17t-15.5 40q0 28 18.5 46
t43.5 18t40.5 -17.5t15.5 -40.5z" />
    <glyph glyph-name="perthousand" unicode="&#x2030;" horiz-adv-x="1009" 
d="M559 183q0 26 -11 39t-37 13q-24 0 -41 -13.5t-28 -33.5t-16 -43t-5 -43q0 -51 48 -51q24 0 41.5 13t28 33t15.5 43t5 43zM301 548q0 51 -48 51q-24 0 -41 -13.5t-28 -33t-16 -43t-5 -42.5q0 -52 48 -52q24 0 41 13t28 33t16 43.5t5 43.5zM872 183q0 26 -11 39t-37 13
q-24 0 -41 -13.5t-28 -33.5t-16 -43t-5 -43q0 -51 48 -51q24 0 41.5 13t28 33t15.5 43t5 43zM629 190q0 -40 -12.5 -76.5t-34.5 -64t-53 -43.5t-68 -16q-51 0 -80.5 25t-29.5 81q0 38 12 74t34.5 63.5t53 44.5t68.5 17q50 0 80 -24t30 -81zM64 -16l-46 45l639 637l46 -46z
M371 554q0 -40 -12.5 -76t-34.5 -63.5t-53.5 -43.5t-68.5 -16q-51 0 -80 24.5t-29 80.5q0 38 12 74t34.5 64t53 45t68.5 17q50 0 80 -24.5t30 -81.5zM942 190q0 -40 -12.5 -76.5t-34.5 -64t-53 -43.5t-68 -16q-51 0 -80.5 25t-29.5 81q0 38 12 74t34.5 63.5t53 44.5t68.5 17
q50 0 80 -24t30 -81z" />
    <glyph glyph-name="guilsinglleft" unicode="&#x2039;" horiz-adv-x="307" 
d="M152 294l72 -142l-71 -37l-89 184l148 175l62 -39z" />
    <glyph glyph-name="guilsinglright" unicode="&#x203a;" horiz-adv-x="307" 
d="M121 115l-63 39l122 141l-72 142l71 37l90 -184z" />
    <glyph glyph-name="fraction" unicode="&#x2044;" horiz-adv-x="410" 
d="M-12 -27l-57 49l557 676l57 -48z" />
    <glyph glyph-name="fraction" unicode="&#x2215;" horiz-adv-x="410" 
d="M-12 -27l-57 49l557 676l57 -48z" />
    <glyph glyph-name="trademark" unicode="&#x2122;" horiz-adv-x="685" 
d="M327 620h-71l-43 -226h-68l44 226h-73l10 55h211zM664 394h-68l6 147l4 54l-20 -46l-74 -155h-67l-14 157l-3 44l-10 -37l-54 -164h-63l96 281h85l14 -154l2 -46l16 42l76 158h84z" />
    <glyph glyph-name="partialdiff" unicode="&#x2202;" horiz-adv-x="628" 
d="M443 256q0 21 -7 40.5t-21 34.5t-37 24t-54 9q-35 0 -64.5 -14t-51 -38.5t-34 -57.5t-12.5 -72q0 -52 28 -82t81 -30q34 0 65 14t55 39t38 59t14 74zM589 468q0 -53 -9.5 -109t-28 -109t-46.5 -100t-65.5 -82t-84 -55.5t-101.5 -20.5q-48 0 -82.5 13.5t-56.5 37t-32.5 55
t-10.5 67.5q0 59 20.5 109.5t56.5 87t85 57t105 20.5q51 0 93 -24t56 -69q1 23 6 55t4 65q-4 91 -55 143t-142 52l25 74q64 -2 113.5 -22.5t82.5 -56t50 -83.5t17 -105z" />
    <glyph glyph-name="product" unicode="&#x220f;" horiz-adv-x="835" 
d="M805 653h-104l-173 -900h-85l174 900h-304l-173 -900h-85l174 900h-104l15 77h679z" />
    <glyph glyph-name="summation" unicode="&#x2211;" horiz-adv-x="664" 
d="M610 653h-372l209 -410l-371 -410h392l-16 -80h-506l13 70l384 427l-206 410l13 70h474z" />
    <glyph glyph-name="minus" unicode="&#x2212;" 
d="M511 259h-465l15 78h465z" />
    <glyph glyph-name="radical" unicode="&#x221a;" horiz-adv-x="604" 
d="M294 0h-102l-65 429h-89l14 68h159l37 -289q4 -28 7 -56.5t5 -57.5h2q12 29 23 53.5t24 52.5l260 558h98z" />
    <glyph glyph-name="infinity" unicode="&#x221e;" horiz-adv-x="980" 
d="M418 300q-40 35 -77.5 61.5t-75.5 26.5q-24 0 -45 -9t-36 -24t-23.5 -35t-8.5 -42q0 -29 18.5 -48.5t55.5 -19.5q38 0 87 27t105 63zM827 321q0 28 -18.5 47.5t-56.5 19.5t-87 -27.5t-104 -63.5q39 -35 76.5 -61t75.5 -26q51 0 82.5 32t31.5 79zM916 335q0 -37 -14 -73.5
t-41 -65.5t-66.5 -47t-90.5 -18q-30 0 -59 9.5t-56.5 25t-54 36t-51.5 43.5q-34 -22 -68 -42.5t-68 -36.5t-66.5 -25.5t-62.5 -9.5q-81 0 -117.5 37.5t-36.5 94.5q0 45 17 82t46 64t66.5 42t78.5 15q31 0 61 -9.5t58 -25.5t54.5 -36.5t52.5 -42.5q34 22 68.5 42.5t68 36.5
t65.5 25.5t62 9.5q41 0 70 -10.5t48 -28t27.5 -41.5t8.5 -51z" />
    <glyph glyph-name="integral" unicode="&#x222b;" horiz-adv-x="337" 
d="M392 651q-9 3 -21.5 5.5t-25.5 2.5q-18 0 -32.5 -7t-27 -25t-23 -50t-19.5 -81q-11 -59 -20 -113.5t-18 -112t-19.5 -122.5t-25.5 -144q-14 -74 -32 -124t-42 -80t-55 -43t-71 -13q-13 0 -26 2t-24 5l15 79q21 -8 46 -8q18 0 33 7t27 25t22.5 49t19.5 79
q11 57 19.5 111.5t17.5 113t20 124t26 145.5q14 75 32.5 125t43 80t56 42.5t71.5 12.5q25 0 48 -6z" />
    <glyph glyph-name="approxequal" unicode="&#x2248;" 
d="M498 197q-26 -23 -61.5 -39.5t-73.5 -16.5q-36 0 -59 9.5t-42.5 20.5t-39.5 20.5t-49 9.5q-30 0 -56.5 -14t-45.5 -28l-31 62q25 20 59.5 38t74.5 18q34 0 57 -9.5t43.5 -21t41.5 -21t51 -9.5q26 0 50.5 11t50.5 33l30 -63v0zM531 373q-25 -23 -58.5 -40.5t-74.5 -17.5
q-35 0 -58 9.5t-42.5 20.5t-40 20.5t-50.5 9.5t-57 -14t-46 -28l-30 62q26 22 61.5 39.5t75.5 17.5q34 0 57.5 -9.5t43.5 -21t40.5 -21t47.5 -9.5q26 0 50.5 12t50.5 32l30 -62v0z" />
    <glyph glyph-name="notequal" unicode="&#x2260;" 
d="M518 345h-164l-57 -96h203l-15 -74h-231l-82 -139h-81l82 139h-133l14 74h162l57 96h-200l13 75h229l84 141h82l-84 -141h135z" />
    <glyph glyph-name="lessequal" unicode="&#x2264;" 
d="M436 0h-414l15 75h414zM208 375l255 -187l-60 -61l-320 253l399 243l46 -64z" />
    <glyph glyph-name="greaterequal" unicode="&#x2265;" 
d="M436 0h-414l15 75h414zM117 127l-45 63l319 185l-256 187l60 61l322 -253z" />
    <glyph glyph-name="lozenge" unicode="&#x25ca;" horiz-adv-x="607" 
d="M372 585l-217 -245l129 -249l218 241zM293 -9h-56l-178 350l306 343h54l179 -349z" />
    <glyph glyph-name="Acute" unicode="&#xf6c9;" horiz-adv-x="381" 
d="M286 725l-13 52l190 74l17 -70z" />
    <glyph glyph-name="Caron" unicode="&#xf6ca;" horiz-adv-x="424" 
d="M343 724l-144 83l29 50l121 -63l140 63l21 -48z" />
    <glyph glyph-name="Dieresis" unicode="&#xf6cb;" horiz-adv-x="535" 
d="M295 783q0 -22 -15.5 -37t-35.5 -15q-21 0 -35 14t-14 34q0 22 15.5 37t36.5 15t34.5 -14t13.5 -34zM504 783q0 -22 -15 -37t-36 -15q-20 0 -34 14t-14 34q0 22 15 37t36 15t34.5 -14t13.5 -34z" />
    <glyph glyph-name="Grave" unicode="&#xf6ce;" horiz-adv-x="362" 
d="M398 725l-189 56l31 70l180 -74z" />
    <glyph glyph-name="apple" unicode="&#xf8ff;" horiz-adv-x="1041" 
d="M150 360q-2 -22 0 -44l-128 -9q-2 32 0 62zM529 355q2 0 3.5 5t-0.5 5q2 -5 -3 -10zM527 357q5 0 2.5 2t0.5 2v1q-4 0 -2 -2t-1 -2v-1v0zM525 361q-2 2 -2.5 -2t2.5 2zM524 357h1l1 5q-4 1 -4.5 -3.5t3.5 0.5zM520 355q-2 5 3 10q-2 0 -3.5 -5t0.5 -5zM517 358
q-2 -1 -1.5 1.5t2.5 1.5v1q-2 1 -3.5 -2.5t2.5 -2.5v1zM513 362l-1 -3q-1 -2 -1 0l1 3h-1l-1 -3q-1 -2 0 -2q2 0 3 2l1 3h-1zM509 358h-2l2 6h-1l-2 -6q0 -1 1 -1h2v1zM634 -6l-242 -61l26 -62h207l14 32l-7 14l-74 -19l-12 33l104 26zM633 77l-241 -62l16 -39l241 60z
M395 151v-54l16 -38l235 59v33h-251zM564 335q-13 2 -22.5 2.5t-20.5 0.5q-10 0 -21 -0.5t-24 -2.5l15 -143h60l13 143v0zM455 192l-16 137q-13 -3 -21 -6.5t-15 -5.5t-11 4t-4.5 15t1 17t6.5 10q29 8 61.5 14t64.5 6q34 0 66.5 -6t61.5 -14q4 -1 5.5 -9t1 -17t-4.5 -15.5
t-11 -4.5q-8 4 -17 6.5t-22 5.5l-14 -137h59q26 23 46 60.5t20 85.5q0 40 -15 75t-41 61t-61 41t-74 15q-40 0 -75 -15t-61 -41t-41 -61t-15 -75q0 -42 17.5 -80.5t50.5 -65.5h58zM763 338q0 -52 -19.5 -95.5t-48.5 -72.5v-77l-16 -5l32 -74l-30 -8l30 -72l-31 -7l10 -25
l-29 -68h-51q-3 -18 -28.5 -31t-60.5 -13q-36 0 -61 13t-27 31h-52l-50 122l31 8l-31 74l34 9l-19 46v78q-29 30 -48 73t-19 94q0 50 19 94t51.5 77t76.5 52t95 19q50 0 94 -19t77 -52t52 -77t19 -94zM1019 369q3 -31 0 -61l-126 9q2 21 0 43l126 9v0zM846 706
q24 -19 43 -43l-94 -81q-7 8 -15 16t-16 14zM543 696q-23 2 -44 0l-8 124q31 2 60 0l-8 -124v0zM152 665q11 11 21 21.5t22 20.5l83 -96q-8 -6 -15.5 -14t-15.5 -15l-95 83v0z" />
    <glyph glyph-name="Circumflex" horiz-adv-x="424" 
d="M474 724l-122 63l-140 -63l-20 48l167 85l144 -83z" />
    <glyph glyph-name="Tilde" horiz-adv-x="486" 
d="M529 808q-43 -73 -113 -73q-25 0 -42 8t-30.5 18t-26 18t-28.5 8q-36 0 -64 -45l-44 33q21 35 49.5 54.5t63.5 19.5q25 0 42 -8t30.5 -18t26 -18t28.5 -8q34 0 64 44l44 -33v0z" />
    </font>
</defs>
</svg>
