<?xml version="1.0" standalone="no"?>
<!DOCTYPE svg PUBLIC "-//W3C//DTD SVG 1.1//EN" "http://www.w3.org/Graphics/SVG/1.1/DTD/svg11.dtd" >
<svg xmlns="http://www.w3.org/2000/svg" xmlns:xlink="http://www.w3.org/1999/xlink" version="1.1">
<metadata>
Created by FontForge 20161013 at Thu Jun  1 17:01:23 2006
 By ,,,
Copyright (c) 2000-2006, Luc[as] de Groot. All rights reserved. Published by LucasFonts.com
</metadata>
<defs>
<font id="JumboTheSans-BoldItalic" horiz-adv-x="550" >
  <font-face 
    font-family="Jumbo TheSans"
    font-weight="700"
    font-style="italic"
    font-stretch="normal"
    units-per-em="1000"
    panose-1="2 11 8 0 4 3 3 13 2 4"
    ascent="740"
    descent="-260"
    x-height="497"
    cap-height="675"
    bbox="-165 -251 1030.6 864"
    underline-thickness="102"
    underline-position="-297"
    slope="-11"
    unicode-range="U+000D-FB04"
  />
<missing-glyph 
d="M450 100v350h-350v-350h350zM250 350v50h150v-250h-50v100h-100v50h100v50h-100zM50 50v450h450v-450h-450zM150 150v250h50v-200h100v-50h-150z" />
    <glyph glyph-name="fi" unicode="fi" horiz-adv-x="583" 
d="M537 614q-26 8 -57 13.5t-58 5.5q-67 0 -102 -27.5t-46 -82.5l-4 -26h297l-95 -497h-124l75 398h-173l-78 -416q-23 -121 -81.5 -175.5t-152.5 -54.5q-21 0 -43.5 2t-43.5 7l30 105q14 -4 29.5 -6t29.5 -2q21 0 37.5 5.5t29.5 20t23 38.5t17 61l79 415h-85l20 99h84l3 18
q17 109 84.5 166t195.5 57q45 0 80 -5t71 -14z" />
    <glyph glyph-name="fl" unicode="fl" horiz-adv-x="582" 
d="M473 0h-125l120 628q-17 3 -35 4.5t-33 1.5q-52 0 -82.5 -22.5t-39.5 -71.5l-8 -43h106l-20 -99h-106l-78 -416q-23 -121 -81.5 -175.5t-152.5 -54.5q-21 0 -43.5 2t-43.5 7l30 105q14 -4 29.5 -6t29.5 -2q21 0 37.5 5.5t29.5 20t23 38.5t17 61l79 415h-85l20 99h84l9 52
q18 94 84.5 141.5t179.5 47.5q48 0 97 -4.5t95 -12.5z" />
    <glyph glyph-name="ff" unicode="ff" horiz-adv-x="645" 
d="M250 398l-78 -416q-12 -61 -34 -103q17 -8 39.5 -12t42.5 -4q54 0 83.5 26.5t41.5 91.5l79 417h-174zM478 614q-20 8 -39 11.5t-36 3.5q-57 0 -88.5 -26.5t-39.5 -75.5l-5 -30h173l7 37q4 24 11 43.5t17 36.5zM735 626q-14 4 -30 6t-30 2q-44 0 -67 -23.5t-34 -80.5
l-6 -33h114l-20 -99h-113l-77 -409q-12 -64 -35.5 -108t-57 -71.5t-77.5 -39.5t-98 -12q-38 0 -74 7t-68 20q-28 -18 -57.5 -25.5t-66.5 -7.5q-21 0 -43.5 2t-43.5 7l30 105q14 -4 29.5 -6t29.5 -2q21 0 37.5 5.5t29.5 20t23 38.5t17 61l78 415h-85l20 99h85l6 35
q17 99 82.5 150t178.5 51q38 0 74.5 -6t68.5 -18q50 29 128 29q20 0 40.5 -1.5t40.5 -6.5z" />
    <glyph glyph-name="ffi" unicode="ffi" horiz-adv-x="881" 
d="M250 398l-78 -416q-12 -61 -34 -103q17 -8 39.5 -12t42.5 -4q54 0 83.5 26.5t41.5 91.5l79 417h-174zM483 612q-21 9 -42 13t-38 4q-57 0 -88.5 -26.5t-39.5 -75.5l-5 -30h172l4 21q11 58 37 94zM835 615q-26 8 -57 13.5t-58 5.5q-66 0 -101.5 -27t-46.5 -86l-4 -24h297
l-95 -497h-125l76 398h-172l-77 -409q-12 -64 -35.5 -108t-57 -71.5t-77.5 -39.5t-98 -12q-38 0 -74 7t-68 20q-28 -18 -57.5 -25.5t-66.5 -7.5q-21 0 -43.5 2t-43.5 7l30 105q14 -4 29.5 -6t29.5 -2q21 0 37.5 5.5t29.5 20t23 38.5t17 61l78 415h-85l20 99h85l6 35
q17 99 82.5 150t178.5 51q39 0 79.5 -7t75.5 -21q62 34 159 34q45 0 80 -5t71 -13z" />
    <glyph glyph-name="ffl" unicode="ffl" horiz-adv-x="882" 
d="M251 398l-79 -416q-12 -61 -34 -103q17 -8 39.5 -12t42.5 -4q54 0 83.5 26.5t41.5 91.5l79 417h-173zM478 614q-20 8 -39 11.5t-36 3.5q-57 0 -88 -26.5t-39 -75.5l-6 -30h173l10 52q8 39 25 65zM771 0h-124l119 629q-17 3 -34.5 4.5t-32.5 1.5q-104 0 -123 -95l-7 -43
h113l-19 -99h-114l-77 -409q-12 -64 -35.5 -108t-57 -71.5t-77.5 -39.5t-98 -12q-38 0 -74 7t-68 20q-28 -18 -57.5 -25.5t-66.5 -7.5q-21 0 -43.5 2t-43.5 7l30 105q14 -4 29.5 -6t29.5 -2q21 0 37.5 5.5t29.5 20t23 38.5t17 61l79 415h-85l20 99h84l6 35q18 99 83.5 150
t178.5 51q38 0 78 -7.5t72 -19.5q60 33 154 33q48 0 97 -4.5t95 -12.5z" />
    <glyph glyph-name="f_b" unicode="fb" horiz-adv-x="865" 
d="M716 329q0 36 -10 52.5t-28 16.5q-27 0 -55.5 -27t-53.5 -67.5t-43.5 -86.5t-26.5 -85l-7 -34q13 -3 26 -5t30 -2q43 0 74.5 22.5t52.5 57.5t31 77t10 81zM845 353q0 -70 -19 -135.5t-58.5 -116t-99.5 -80.5t-142 -30q-95 0 -176 18l118 620q-17 3 -34.5 4.5t-32.5 1.5
q-104 0 -122 -95l-9 -43h107l-20 -99h-106l-79 -416q-23 -121 -81.5 -175.5t-152.5 -54.5q-21 0 -43.5 2t-43.5 7l30 105q14 -4 29.5 -6t29.5 -2q21 0 37.5 5.5t29.5 20t23 38.5t17 61l79 415h-85l20 99h84l10 52q18 94 84.5 142t179.5 48q48 0 97 -4.5t95 -12.5l-39 -204
q-3 -17 -7.5 -35t-11 -39t-15 -46.5t-20.5 -58.5h2q19 37 41.5 68t48.5 53.5t55.5 35t62.5 12.5q57 0 87 -37.5t30 -117.5z" />
    <glyph glyph-name="f_h" unicode="fh" horiz-adv-x="882" 
d="M771 0h-125l60 312q8 46 1 66t-31 20q-25 0 -53 -26t-53.5 -66.5t-45 -88t-27.5 -91.5l-24 -126h-125l120 629q-17 3 -34.5 4.5t-32.5 1.5q-104 0 -122 -95l-9 -43h107l-20 -99h-106l-79 -416q-23 -121 -81.5 -175.5t-152.5 -54.5q-21 0 -43.5 2t-43.5 7l30 105
q14 -4 29.5 -6t29.5 -2q21 0 37.5 5.5t29.5 20t23 38.5t17 61l79 415h-85l20 99h84l10 52q18 94 84.5 142t179.5 48q48 0 97 -4.5t95 -12.5l-38 -202q-7 -33 -19 -74t-35 -103h2q17 33 38.5 63t47.5 52.5t56.5 36t66.5 13.5t60 -12t36.5 -34t15 -52.5t-4.5 -66.5z" />
    <glyph glyph-name="f_j" unicode="fj" horiz-adv-x="595" 
d="M537 615q-25 8 -56 13.5t-58 5.5q-68 0 -103 -28t-45 -83l-5 -26h312l-103 -539q-9 -49 -26.5 -87t-44.5 -64.5t-65.5 -40.5t-91.5 -14q-37 0 -67 8l26 109q13 -5 28 -8t27 -3q20 0 34.5 5.5t25 19t18 35t13.5 54.5l81 426h-186l-79 -416q-23 -121 -81.5 -175.5
t-152.5 -54.5q-21 0 -43.5 2t-43.5 7l30 105q14 -4 29.5 -6t29.5 -2q21 0 37.5 5.5t29.5 20t23 38.5t17 61l79 415h-85l20 99h85l2 18q36 224 281 224q45 0 80 -5t71 -13z" />
    <glyph glyph-name="f_k" unicode="fk" horiz-adv-x="829" 
d="M645 265l132 -265h-152l-104 250l-48 -250h-125l120 629q-17 3 -35 4.5t-33 1.5q-103 0 -122 -95l-8 -43h106l-20 -99h-106l-78 -416q-23 -120 -82.5 -175t-151.5 -55q-22 0 -44.5 2t-42.5 7l29 105q14 -4 30 -6t29 -2q21 0 38 5.5t30 20t23 38.5t17 61l79 415h-85l20 99
h84l9 52q18 94 84.5 142t179.5 48q48 0 97 -4.5t95 -12.5l-81 -428l216 232l98 -65z" />
    <glyph glyph-name=".notdef" 
d="M450 100v350h-350v-350h350zM250 350v50h150v-250h-50v100h-100v50h100v50h-100zM50 50v450h450v-450h-450zM150 150v250h50v-200h100v-50h-150z" />
    <glyph glyph-name=".null" horiz-adv-x="0" 
 />
    <glyph glyph-name=".null" horiz-adv-x="0" 
 />
    <glyph glyph-name="nonmarkingreturn" unicode="&#xd;" horiz-adv-x="500" 
 />
    <glyph glyph-name="space" unicode=" " horiz-adv-x="218" 
 />
    <glyph glyph-name="space" unicode="&#xa0;" horiz-adv-x="218" 
 />
    <glyph glyph-name="exclam" unicode="!" horiz-adv-x="315" 
d="M214 69q0 -35 -24.5 -57.5t-57.5 -22.5t-53.5 21t-20.5 50q0 35 24.5 58t57.5 23t53.5 -21.5t20.5 -50.5zM214 188h-108l79 520h147z" />
    <glyph glyph-name="quotedbl" unicode="&#x22;" horiz-adv-x="397" 
d="M195 448h-93l32 254h126zM380 448h-93l32 254h125z" />
    <glyph glyph-name="numbersign" unicode="#" 
d="M251 396l-40 -137h127l40 137h-127zM555 396h-84l-40 -137h75l-16 -88h-85l-51 -171h-93l51 171h-127l-51 -171h-93l51 171h-76l17 88h85l40 137h-76l17 87h85l49 167h93l-49 -167h127l48 167h93l-48 -167h75z" />
    <glyph glyph-name="dollar" unicode="$" 
d="M473 521q-28 9 -57 13t-54 4q-54 0 -82 -20.5t-28 -51.5q0 -23 16 -38t40 -27.5t52.5 -25.5t52.5 -32t40 -46.5t16 -69.5q0 -39 -15.5 -73t-42.5 -61.5t-64 -46.5t-80 -26l-20 -105h-91l20 100q-28 0 -58 4t-56 9l23 115q25 -9 58.5 -15.5t67.5 -6.5q55 0 87.5 23
t32.5 55q0 26 -16 42t-39.5 29t-51.5 26t-51.5 31.5t-39.5 46.5t-16 71q0 35 14 67t39 57.5t60.5 43.5t77.5 24l17 93h92l-17 -88q25 -2 48.5 -4t46.5 -7z" />
    <glyph glyph-name="percent" unicode="%" horiz-adv-x="745" 
d="M604 182q0 24 -9.5 34.5t-29.5 10.5q-17 0 -31 -9t-24.5 -24.5t-16.5 -36t-6 -42.5q0 -26 10 -36t29 -10q17 0 31 9t24.5 24.5t16.5 36t6 43.5zM297 536q0 24 -10 34.5t-30 10.5q-17 0 -31 -9t-24.5 -25t-16.5 -36.5t-6 -42.5q0 -25 10.5 -35t29.5 -10q16 0 30.5 9
t25 24.5t16.5 36t6 43.5zM699 192q0 -50 -16.5 -87.5t-42.5 -63.5t-58 -39t-64 -13q-63 0 -94.5 30.5t-31.5 86.5q0 49 16.5 86.5t42.5 63t58 39t63 13.5q61 0 94 -29.5t33 -86.5zM118 -22l-68 61l612 631l68 -61zM392 546q0 -50 -16.5 -88t-42.5 -64t-58.5 -39t-64.5 -13
q-63 0 -94 31t-31 87q0 49 16.5 86.5t42 63t57.5 38.5t64 13q61 0 94 -29t33 -86z" />
    <glyph glyph-name="ampersand" unicode="&#x26;" horiz-adv-x="781" 
d="M418 150q-40 41 -80 84.5t-70 84.5q-41 -30 -69.5 -62t-28.5 -73q0 -35 22.5 -60.5t71.5 -25.5q37 0 76.5 12.5t77.5 39.5zM403 592q0 23 -13 36.5t-39 13.5q-32 0 -53 -22t-21 -55q0 -20 9.5 -43t23.5 -49q18 13 35 26.5t29.5 27.5t20.5 30t8 35zM743 458
q-12 -87 -50.5 -164t-92.5 -137q27 -24 56 -47.5t58 -44.5l-88 -87q-33 23 -62.5 47t-58.5 50q-57 -41 -125 -63.5t-142 -22.5q-53 0 -91 13.5t-62.5 36.5t-36 54.5t-11.5 66.5q0 41 15 76t39 64.5t54.5 55t62.5 47.5q-22 34 -39.5 74t-17.5 75q0 36 15.5 69.5t43.5 59.5
t67 41.5t87 15.5q86 0 125.5 -36t39.5 -94q0 -33 -13 -62.5t-34.5 -56t-50.5 -50.5t-61 -48q29 -38 65.5 -78.5t78.5 -80.5q38 45 66 103.5t39 122.5h124v0z" />
    <glyph glyph-name="quotesingle" unicode="'" horiz-adv-x="211" 
d="M195 448h-93l32 254h126z" />
    <glyph glyph-name="parenleft" unicode="(" horiz-adv-x="300" 
d="M389 742q-48 -62 -89 -137.5t-70 -155.5t-45.5 -161t-16.5 -154q0 -88 11 -162t37 -144l-101 -43q-35 80 -52.5 164.5t-17.5 178.5q0 80 16.5 164t48.5 168t80.5 166.5t111.5 159.5l87 -44v0z" />
    <glyph glyph-name="parenright" unicode=")" horiz-adv-x="300" 
d="M280 443q0 -80 -16 -163.5t-48.5 -167.5t-80.5 -167t-111 -160l-87 44q48 62 88.5 137.5t70 156t46 161.5t16.5 153q0 89 -11.5 163t-36.5 143l100 43q35 -79 52.5 -164t17.5 -179z" />
    <glyph glyph-name="asterisk" unicode="*" horiz-adv-x="377" 
d="M312 566l91 -47l-59 -74l-71 74l-8 -110l-89 12l38 102l-94 -60l-30 82l108 32l-92 48l60 73l71 -74l7 111l89 -12l-38 -103l95 61l30 -82z" />
    <glyph glyph-name="plus" unicode="+" 
d="M514 244h-176l-35 -186h-122l36 186h-175l21 107h174l35 185h122l-35 -185h175z" />
    <glyph glyph-name="comma" unicode="," horiz-adv-x="253" 
d="M101 149q35 0 58.5 -27.5t20.5 -72.5t-41 -102.5t-126 -118.5l-46 53q31 25 49 46t25.5 39t5.5 34t-12 31q-11 17 -11.5 37.5t8.5 38.5t27 30t42 12z" />
    <glyph glyph-name="hyphen" unicode="-" horiz-adv-x="330" 
d="M286 226h-242l20 103h242z" />
    <glyph glyph-name="hyphen" unicode="&#xad;" horiz-adv-x="330" 
d="M286 226h-242l20 103h242z" />
    <glyph glyph-name="period" unicode="." horiz-adv-x="256" 
d="M183 74q0 -36 -25 -60.5t-59 -24.5t-56.5 23.5t-22.5 54.5q0 36 25 60.5t59 24.5t56.5 -23.5t22.5 -54.5z" />
    <glyph glyph-name="slash" unicode="/" horiz-adv-x="454" 
d="M37 -161h-128l521 918h127z" />
    <glyph glyph-name="zero" unicode="0" 
d="M412 454q0 51 -15.5 75t-56.5 24q-30 0 -54 -20t-42 -52.5t-31.5 -72t-21.5 -79t-12 -74.5t-4 -57q0 -51 15.5 -75t57.5 -24q30 0 53.5 20t42 52.5t31.5 72t21 79t12 74.5t4 57zM547 460q0 -48 -7.5 -101.5t-23 -105.5t-40.5 -100t-60 -84.5t-81 -58t-103 -21.5
q-93 0 -142 47t-49 154q0 48 7.5 101.5t23 105.5t40.5 100t60 84.5t81 58t104 21.5q94 0 142 -48t48 -153z" />
    <glyph glyph-name="one" unicode="1" 
d="M461 0h-439l22 115h164l76 401l-154 -56l-1 122l211 68h102l-102 -535h143z" />
    <glyph glyph-name="two" unicode="2" 
d="M518 499q0 -33 -8.5 -64.5t-31.5 -67t-64.5 -77t-107.5 -93.5l-93 -75v-1q33 1 81 1.5t102 0.5h77l-24 -123h-442l21 106l125 103q67 55 109.5 93.5t66.5 68t33 53t9 47.5q0 31 -21.5 52t-68.5 21q-40 0 -79 -14t-68 -32l-7 115q39 20 89 34t109 14q49 0 85.5 -12.5
t60.5 -34.5t35.5 -51.5t11.5 -63.5z" />
    <glyph glyph-name="three" unicode="3" 
d="M522 520q0 -57 -36.5 -102t-105.5 -63l-1 -3q50 -8 76.5 -41.5t26.5 -82.5q0 -37 -17.5 -79t-56.5 -77.5t-103 -59t-157 -23.5q-39 0 -71.5 4.5t-51.5 9.5l30 111q21 -8 51 -13t62 -5q44 0 76.5 10t54 26t32 37t10.5 42q0 33 -29 53.5t-91 20.5q-32 0 -57.5 -1.5
t-52.5 -4.5l19 99h30q111 0 167 34t56 83q0 27 -22 43.5t-70 16.5q-38 0 -74.5 -9.5t-69.5 -23.5l-1 107q40 14 86.5 23t91.5 9q104 0 151 -38.5t47 -102.5z" />
    <glyph glyph-name="four" unicode="4" 
d="M371 520l-217 -266q17 0 40.5 0.5t47.5 1t45 0.5h34l51 264h-1zM444 256h91l-23 -115h-90l-27 -141h-125l26 141h-283l9 108l322 401h175z" />
    <glyph glyph-name="five" unicode="5" 
d="M519 530h-253l-24 -128q9 1 19 1h19q55 0 94 -12t64.5 -33t37.5 -49t12 -61q0 -58 -25 -106t-69 -82t-103 -52.5t-127 -18.5q-42 0 -71.5 3t-57.5 9l23 116q27 -8 58 -13t60 -5q76 0 122.5 34.5t46.5 92.5q0 39 -33.5 57.5t-105.5 18.5q-29 0 -57.5 -2t-48.5 -6l68 356
h374z" />
    <glyph glyph-name="six" unicode="6" 
d="M384 231q0 37 -21 57.5t-63 20.5q-30 0 -54 -10.5t-41 -28t-26.5 -41t-9.5 -48.5q0 -39 21.5 -63.5t65.5 -24.5q27 0 50.5 10.5t40.5 29t27 44t10 54.5zM517 545q-18 3 -37.5 5t-39.5 2q-81 0 -135.5 -40t-89.5 -113q-5 -11 -11 -23.5t-11 -23.5h1q26 29 64.5 45.5
t83.5 16.5q87 0 130.5 -43t43.5 -114q0 -58 -21 -107t-58.5 -85t-88.5 -56t-112 -20q-96 0 -145.5 50t-49.5 149q0 46 9.5 99t30.5 105.5t54 101t79 85.5t106 59t136 22q53 0 81 -5z" />
    <glyph glyph-name="seven" unicode="7" 
d="M559 540q-47 -65 -92 -135.5t-86 -140.5t-77 -137t-66 -127h-152q34 65 73.5 135.5t81 139.5t83 133.5t80.5 118.5q-11 0 -33.5 -0.5t-51.5 -1t-61 -0.5h-61h-90l24 125h449z" />
    <glyph glyph-name="eight" unicode="8" 
d="M367 188q0 32 -26 52t-61 37q-36 -18 -59.5 -34t-37 -31t-18.5 -29.5t-5 -29.5q0 -26 22 -44t67 -18q24 0 45 6.5t37.5 18.5t26 30t9.5 42zM415 505q0 26 -19 41.5t-57 15.5q-51 0 -78.5 -27t-27.5 -63q0 -28 21.5 -46t53.5 -35q59 29 83 54.5t24 59.5zM547 523
q0 -61 -35.5 -104.5t-102.5 -79.5q18 -11 35 -24t29.5 -29.5t20 -36t7.5 -44.5q0 -50 -23 -90t-60.5 -68t-85.5 -43t-99 -15q-101 0 -154 38t-53 106q0 37 12 66.5t33 53t48.5 42t59.5 34.5q-32 21 -54.5 49.5t-22.5 72.5q0 43 19.5 81.5t53.5 67t80 45t99 16.5
q96 0 144.5 -37.5t48.5 -100.5z" />
    <glyph glyph-name="nine" unicode="9" 
d="M413 472q0 38 -21 61.5t-63 23.5q-29 0 -53 -11.5t-40.5 -31t-25.5 -44.5t-9 -52q0 -78 82 -78q26 0 49.5 9.5t41.5 27t28.5 41.5t10.5 54zM544 463q0 -39 -7.5 -89t-25.5 -102.5t-48.5 -103t-76.5 -90t-109 -64t-146 -24.5q-31 0 -54.5 1.5t-44.5 5.5l22 114
q18 -6 43.5 -9.5t48.5 -3.5q81 0 139 42.5t87 111.5q4 11 7 19t6 15h-1q-57 -51 -139 -51q-80 0 -127.5 40.5t-47.5 118.5q0 51 19 99t54.5 85.5t86.5 60t116 22.5q45 0 81.5 -11t62.5 -35t40 -61.5t14 -90.5z" />
    <glyph glyph-name="colon" unicode=":" horiz-adv-x="295" 
d="M212 74q0 -36 -25 -60.5t-58 -24.5q-34 0 -57 23.5t-23 54.5q0 36 25 60.5t59 24.5q33 0 56 -23.5t23 -54.5zM266 357q0 -36 -25 -60.5t-58 -24.5q-34 0 -57 23.5t-23 54.5q0 36 25 60.5t59 24.5q33 0 56 -23.5t23 -54.5z" />
    <glyph glyph-name="semicolon" unicode=";" horiz-adv-x="295" 
d="M132 149q35 0 58.5 -27.5t20 -72.5t-41.5 -102.5t-125 -118.5l-46 53q30 25 48 46t25.5 39t5.5 34t-12 31q-11 17 -11 37q0 21 9 39t27 30t42 12zM266 357q0 -36 -25 -60.5t-58 -24.5q-34 0 -57 23.5t-23 54.5q0 36 25 60.5t59 24.5q33 0 56 -23.5t23 -54.5z" />
    <glyph glyph-name="semicolon" unicode="&#x37e;" horiz-adv-x="295" 
d="M132 149q35 0 58.5 -27.5t20 -72.5t-41.5 -102.5t-125 -118.5l-46 53q30 25 48 46t25.5 39t5.5 34t-12 31q-11 17 -11 37q0 21 9 39t27 30t42 12zM266 357q0 -36 -25 -60.5t-58 -24.5q-34 0 -57 23.5t-23 54.5q0 36 25 60.5t59 24.5q33 0 56 -23.5t23 -54.5z" />
    <glyph glyph-name="less" unicode="&#x3c;" 
d="M242 299l199 -212l-93 -81l-271 302l366 287l75 -88z" />
    <glyph glyph-name="equal" unicode="=" 
d="M482 150h-443l19 103h443zM518 341h-443l19 103h443z" />
    <glyph glyph-name="greater" unicode="&#x3e;" 
d="M134 6l-74 88l276 208l-200 212l94 81l270 -302z" />
    <glyph glyph-name="question" unicode="?" horiz-adv-x="442" 
d="M237 69q0 -35 -24.5 -57.5t-57.5 -22.5t-53 21t-20 50q0 35 24 58t57 23t53.5 -21.5t20.5 -50.5zM449 532q0 -45 -17 -77t-41.5 -57t-53 -46t-51.5 -44.5t-36 -51.5t-8 -68h-123q-8 49 3.5 85t32.5 63t47.5 47.5t50 39.5t39.5 39.5t16 46.5q0 21 -13 37t-36 27t-54 18
t-67 10l37 116q70 -4 121.5 -20t85.5 -40.5t50.5 -56.5t16.5 -68z" />
    <glyph glyph-name="at" unicode="@" horiz-adv-x="962" 
d="M560 449q-17 6 -40 6q-25 0 -47.5 -17t-39.5 -43.5t-27 -59.5t-10 -66q0 -40 25 -40q14 0 31 10.5t34 32t33 54.5t29 79l12 44v0zM899 451q0 -66 -18 -124.5t-52.5 -102t-84.5 -69t-113 -25.5q-56 0 -79 27.5t-17 68.5h-3q-9 -16 -24.5 -33t-35 -31t-42 -23t-46.5 -9
q-42 0 -66 28t-24 85q0 46 14 98t44.5 96t80.5 73.5t122 29.5q35 0 67.5 -6t53.5 -14l-55 -198q-14 -49 -6 -70.5t38 -21.5q28 0 52 15t42 42t28 65t10 85q0 39 -12 74.5t-39 63t-70.5 43.5t-105.5 16q-81 0 -146.5 -33t-111.5 -87.5t-71 -124t-25 -142.5q0 -104 62 -164
t193 -60q87 0 177 29l9 -100q-51 -17 -108.5 -25.5t-103.5 -8.5q-86 0 -150.5 21.5t-108 62t-65.5 98.5t-22 130q0 100 36.5 191.5t101 161.5t154 111.5t196.5 41.5q82 0 143 -22t101 -60t60 -90.5t20 -112.5z" />
    <glyph glyph-name="A" unicode="A" horiz-adv-x="614" 
d="M371 432q-4 24 -6 48t-4 46h-1q-9 -22 -19.5 -45.5t-23.5 -47.5l-102 -192h185zM433 0l-20 138h-250l-72 -138h-133l360 675h144l108 -675h-137z" />
    <glyph glyph-name="B" unicode="B" horiz-adv-x="568" 
d="M390 225q0 73 -111 73q-40 0 -69 -1l-35 -189q11 -2 28 -3t37 -1q37 0 65 10t47 26.5t28.5 38.5t9.5 46zM427 512q0 28 -20 45t-73 17q-19 0 -36.5 -0.5t-34.5 -1.5l-34 -176q18 -1 46 -1q70 0 111 31t41 86zM566 542q0 -71 -36.5 -116t-91.5 -68v-1q42 -11 65.5 -45.5
t23.5 -77.5q0 -48 -20.5 -91t-59.5 -75t-95.5 -51t-127.5 -19q-33 0 -51.5 0.5t-51 1t-95.5 0.5l128 674q42 2 85.5 3t57.5 1.5t70 0.5q97 0 148 -34t51 -103z" />
    <glyph glyph-name="C" unicode="C" horiz-adv-x="549" 
d="M552 543q-61 22 -121 22q-67 0 -112.5 -30t-73.5 -76t-40.5 -101.5t-12.5 -105.5q0 -32 7 -58.5t23.5 -45t44.5 -28.5t69 -10q38 0 72.5 7.5t64.5 20.5l-1 -118q-38 -13 -85 -20.5t-89 -7.5q-77 0 -126 21.5t-76.5 55t-38 75.5t-10.5 84q0 86 25 167.5t75 145t124.5 102
t172.5 38.5q42 0 77.5 -5.5t65.5 -13.5z" />
    <glyph glyph-name="D" unicode="D" horiz-adv-x="654" 
d="M512 422q0 33 -8 60.5t-27.5 47t-51.5 30t-80 10.5q-53 0 -84 -3l-86 -455q13 -2 30 -3.5t31 -1.5q76 0 129 31t85.5 78t47 102t14.5 104zM651 435q0 -85 -27 -164t-81 -140t-135.5 -98t-190.5 -37q-59 0 -104 1.5t-87 3.5l128 673q19 1 44 1.5t53 1.5t57 1.5t57 0.5
q144 0 215 -62.5t71 -181.5z" />
    <glyph glyph-name="E" unicode="E" horiz-adv-x="482" 
d="M493 566h-232l-32 -166h221l-21 -106h-220l-34 -183h231l-21 -111h-359l128 675h359z" />
    <glyph glyph-name="F" unicode="F" horiz-adv-x="456" 
d="M487 565h-226l-33 -174h214l-21 -107h-213l-54 -284h-128l128 675h354z" />
    <glyph glyph-name="G" unicode="G" horiz-adv-x="661" 
d="M633 535q-39 17 -83 25.5t-84 8.5q-66 0 -118 -25t-88 -67t-55 -97t-19 -116q0 -31 9 -59.5t28.5 -50t51 -34.5t77.5 -13q26 0 50 3.5t46 9.5l45 234h127l-62 -324q-53 -20 -113 -30t-116 -10q-72 0 -125 19t-87.5 53t-51.5 81.5t-17 104.5q0 94 32 174t89.5 138.5
t136.5 91.5t172 33q51 0 99.5 -6.5t93.5 -20.5z" />
    <glyph glyph-name="H" unicode="H" horiz-adv-x="673" 
d="M561 0h-128l56 293h-280l-56 -293h-128l128 675h128l-51 -270h280l51 270h128z" />
    <glyph glyph-name="I" unicode="I" horiz-adv-x="265" 
d="M154 0h-128l128 675h128z" />
    <glyph glyph-name="J" unicode="J" horiz-adv-x="327" 
d="M251 177q-7 -39 -22 -72.5t-40.5 -59t-63 -40t-88.5 -14.5q-26 0 -45 2.5t-35 5.5l22 112q23 -10 54 -10q36 0 60 19.5t34 70.5l92 484h127z" />
    <glyph glyph-name="K" unicode="K" horiz-adv-x="573" 
d="M344 339l169 -339h-159l-139 324l-62 -324h-127l128 675h127l-58 -306l253 306h163z" />
    <glyph glyph-name="L" unicode="L" horiz-adv-x="420" 
d="M368 0h-342l128 675h128l-107 -561h215z" />
    <glyph glyph-name="M" unicode="M" horiz-adv-x="862" 
d="M790 0h-133l13 320q2 44 4.5 84t6.5 79h-2q-24 -65 -63 -144l-170 -339h-125l-40 315q-5 42 -8 84.5t-2 83.5h-1q-13 -45 -25.5 -86t-26.5 -86l-97 -311h-133l230 675h147l44 -347q5 -36 6.5 -71t2.5 -71h2q14 35 29.5 69.5t34.5 70.5l178 349h152z" />
    <glyph glyph-name="N" unicode="N" horiz-adv-x="672" 
d="M561 0h-149l-130 337q-14 38 -26 75.5t-20 71.5q-6 -48 -13.5 -95t-17.5 -98l-55 -291h-124l128 675h151l126 -319q16 -40 28 -81t23 -79q6 47 14.5 99.5t17.5 100.5l51 279h125z" />
    <glyph glyph-name="O" unicode="O" horiz-adv-x="689" 
d="M551 424q0 66 -32 105.5t-101 39.5q-54 0 -98 -26t-74.5 -69.5t-47.5 -100t-17 -116.5q0 -72 33.5 -111t97.5 -39q51 0 95 25.5t76 68.5t50 100.5t18 122.5zM688 439q0 -98 -31 -180.5t-85 -142.5t-125.5 -93.5t-152.5 -33.5q-128 0 -189 65.5t-61 180.5q0 91 30 173
t83.5 144t125.5 98t156 36q123 0 186 -64.5t63 -182.5z" />
    <glyph glyph-name="P" unicode="P" horiz-adv-x="520" 
d="M414 490q0 37 -22.5 60t-77.5 23h-29t-23 -1l-42 -224q8 -2 17 -2.5t19 -0.5q33 0 61.5 11.5t50 31t34 46t12.5 56.5zM547 507q0 -57 -23.5 -106.5t-65 -86t-97 -57.5t-118.5 -21q-9 0 -21 0.5t-24 1.5l-45 -238h-127l128 675q42 2 86.5 3t95.5 1q99 0 155 -43.5
t56 -128.5z" />
    <glyph glyph-name="Q" unicode="Q" horiz-adv-x="690" 
d="M551 424q0 66 -32 105.5t-101 39.5q-54 0 -98 -26t-74.5 -69.5t-47.5 -100t-17 -116.5q0 -72 33.5 -111t97.5 -39q51 0 95 25.5t76 68.5t50 100.5t18 122.5zM606 -199q-46 -7 -82 -6.5t-66 5t-56.5 11t-54 12t-58 7.5t-68.5 -3l20 111q66 8 111 1.5t85 -16t83.5 -15.5
t106.5 3zM688 439q0 -98 -31 -180.5t-85 -142.5t-125.5 -93.5t-152.5 -33.5q-128 0 -189 65.5t-61 180.5q0 92 29.5 174t82 143.5t124.5 97.5t157 36q124 0 187.5 -64.5t63.5 -182.5z" />
    <glyph glyph-name="R" unicode="R" horiz-adv-x="555" 
d="M417 501q0 35 -23 53.5t-74 18.5q-18 0 -33 -0.5t-25 -2.5l-37 -195q7 -1 18.5 -1.5t25.5 -0.5q32 0 59.5 9.5t47 26t30.5 40t11 52.5zM553 525q0 -45 -15.5 -82.5t-43 -67t-65 -49.5t-82.5 -30q9 -18 18 -36.5t18 -37.5l110 -222h-150l-126 279h-10l-53 -279h-128
l128 675q40 2 86.5 3t100.5 1q111 0 161.5 -40t50.5 -114z" />
    <glyph glyph-name="S" unicode="S" horiz-adv-x="460" 
d="M441 562q-24 8 -49 12t-46 4q-32 0 -55 -7.5t-38 -19.5t-22 -28t-7 -33q0 -25 14.5 -43.5t36 -35t47 -32.5t47 -37.5t36 -50t14.5 -68.5q0 -49 -20.5 -91.5t-58 -74t-89 -50t-113.5 -18.5q-32 0 -64 3.5t-58 11.5l23 123q24 -11 52.5 -17.5t55.5 -6.5q65 0 98.5 26
t33.5 72q0 25 -14.5 42.5t-35.5 32.5t-46.5 30.5t-46.5 36.5t-35.5 49t-14.5 68q0 46 17 87t50 72t83 49t116 18q29 0 55.5 -2t55.5 -7z" />
    <glyph glyph-name="T" unicode="T" horiz-adv-x="500" 
d="M550 564h-171l-108 -564h-127l107 564h-171l21 111h469z" />
    <glyph glyph-name="U" unicode="U" horiz-adv-x="667" 
d="M602 248q-26 -134 -107 -196.5t-209 -62.5q-76 0 -123 20t-70.5 55t-27 82t6.5 101l81 428h128l-84 -438q-13 -69 10.5 -104.5t96.5 -35.5q75 0 116 37.5t58 124.5l80 416h126z" />
    <glyph glyph-name="V" unicode="V" horiz-adv-x="616" 
d="M338 0h-148l-101 675h134l55 -395q4 -29 7 -64.5t5 -67.5h2q14 35 31.5 70.5t35.5 69.5l203 387h136z" />
    <glyph glyph-name="W" unicode="W" horiz-adv-x="934" 
d="M698 0h-157l-26 372q-2 32 -1 67.5t3 71.5h-1q-21 -71 -50 -136l-168 -375h-149l-39 675h130l21 -374q2 -33 0.5 -67t-3.5 -69h1q12 34 24 67.5t27 65.5l172 377h136l32 -375q2 -29 2.5 -63t-1.5 -69h1q11 35 22.5 66.5t25.5 63.5l162 377h133z" />
    <glyph glyph-name="X" unicode="X" horiz-adv-x="615" 
d="M408 342l152 -342h-154l-96 248l-189 -248h-155l279 348l-135 327h142l91 -233l176 233h150z" />
    <glyph glyph-name="Y" unicode="Y" 
d="M339 239l-45 -239h-127l45 238l-124 437h134l51 -194q15 -61 24 -112h2q16 29 36 61t41 64l116 181h141z" />
    <glyph glyph-name="Z" unicode="Z" horiz-adv-x="520" 
d="M539 571l-318 -406q-9 -12 -18.5 -23.5t-20.5 -23.5q12 2 47 2h95h133l-23 -120h-433l19 100l303 396q13 17 26.5 32.5t28.5 31.5q-18 -1 -43.5 -1.5t-74.5 -0.5h-144l21 117h421z" />
    <glyph glyph-name="bracketleft" unicode="[" horiz-adv-x="321" 
d="M371 676h-97l-149 -778h98l-19 -103h-215l187 982h215z" />
    <glyph glyph-name="backslash" unicode="\" horiz-adv-x="470" 
d="M286 -161l-176 918h114l177 -918h-115z" />
    <glyph glyph-name="bracketright" unicode="]" horiz-adv-x="321" 
d="M170 -205h-216l19 103h98l148 778h-98l20 101h216z" />
    <glyph glyph-name="asciicircum" unicode="^" 
d="M408 337l-80 247l-171 -247l-78 45l217 293h97l111 -292z" />
    <glyph glyph-name="underscore" unicode="_" 
d="M464 -246h-550l20 102h550z" />
    <glyph glyph-name="grave" unicode="`" horiz-adv-x="366" 
d="M273 560l-172 111l62 83l162 -126z" />
    <glyph glyph-name="a" unicode="a" horiz-adv-x="542" 
d="M383 399q-12 3 -25.5 5t-30.5 2q-43 0 -74.5 -22.5t-52.5 -57.5t-31 -77t-10 -81q0 -37 9.5 -53t28.5 -16q27 0 55.5 27t53.5 67.5t44 87.5t27 86l6 32v0zM525 491q-17 -87 -30 -156t-24 -127t-20 -108.5t-17 -99.5h-124q7 29 18.5 67.5t28.5 90.5h-2q-15 -27 -35.5 -57
t-46.5 -55t-57.5 -41t-68.5 -16q-57 0 -87 37.5t-30 117.5q0 70 19 135.5t58.5 116t99.5 80.5t142 30q45 0 89.5 -3.5t86.5 -11.5z" />
    <glyph glyph-name="b" unicode="b" horiz-adv-x="542" 
d="M393 329q0 37 -10 53t-28 16q-27 0 -55.5 -27t-53.5 -67.5t-44 -86.5t-26 -85l-7 -34q13 -3 26 -5t30 -2q43 0 74.5 22.5t52.5 57.5t31 77t10 81zM522 353q0 -71 -19 -136t-58.5 -115.5t-99.5 -80.5t-142 -30q-95 0 -176 18l138 721h125l-41 -212q-3 -17 -7.5 -35
t-11 -39t-15 -46.5t-20.5 -58.5h2q19 37 41.5 68t48.5 53.5t55.5 35t62.5 12.5q57 0 87 -37.5t30 -117.5z" />
    <glyph glyph-name="c" unicode="c" horiz-adv-x="404" 
d="M393 384q-33 15 -77 15q-39 0 -67.5 -19.5t-47.5 -50t-28 -67.5t-9 -72q0 -18 4 -34t14.5 -28t27 -19t42.5 -7q24 0 48 5t44 13l-8 -109q-26 -10 -57.5 -15.5t-63.5 -5.5q-50 0 -85 12t-57 34.5t-32 54.5t-10 71q0 71 20.5 134t58.5 110t92 74t122 27q27 0 51.5 -3.5
t47.5 -9.5z" />
    <glyph glyph-name="d" unicode="d" horiz-adv-x="542" 
d="M383 399q-12 3 -25.5 5t-30.5 2q-43 0 -74.5 -22.5t-52.5 -57.5t-31 -77t-10 -81q0 -37 9.5 -53t28.5 -16q27 0 55.5 27t53.5 67.5t44 87.5t27 86l6 32v0zM466 179q-3 -13 -7.5 -37.5t-9 -51.5t-9 -52t-6.5 -38h-123q5 29 17 67.5t29 90.5h-2q-15 -27 -35.5 -57
t-46.5 -55t-57.5 -41t-68.5 -16q-57 0 -87 37.5t-30 117.5q0 70 19 135.5t58.5 116t99.5 80.5t142 30q13 0 25 -1t28 -3l43 228h126z" />
    <glyph glyph-name="e" unicode="e" horiz-adv-x="485" 
d="M350 369q0 21 -13.5 32.5t-37.5 11.5t-44 -10.5t-35.5 -27.5t-26.5 -40t-18 -47q87 3 131 22t44 59zM474 386q0 -45 -21.5 -78t-62 -55.5t-98.5 -35t-131 -14.5q-1 -8 -2 -19.5t-1 -19.5q0 -43 19.5 -58.5t71.5 -15.5q36 0 72.5 8t71.5 22l2 -98q-42 -16 -89.5 -24
t-97.5 -8q-95 0 -135.5 42.5t-40.5 125.5q0 78 22 142.5t60.5 110t89.5 71t109 25.5q46 0 77 -10.5t49.5 -27.5t26.5 -39t8 -44z" />
    <glyph glyph-name="f" unicode="f" horiz-adv-x="347" 
d="M436 626q-14 4 -29.5 6t-29.5 2q-44 0 -67 -23.5t-34 -80.5l-6 -33h113l-19 -99h-114l-78 -416q-23 -121 -82 -175.5t-152 -54.5q-45 0 -87 9l30 105q14 -4 29.5 -6t28.5 -2q21 0 37.5 5.5t29.5 20t23 38.5t17 61l79 415h-85l20 99h85l6 37q18 100 73 152t160 52
q21 0 41 -1.5t40 -6.5z" />
    <glyph glyph-name="g" unicode="g" horiz-adv-x="539" 
d="M383 399q-12 3 -25.5 5t-30.5 2q-43 0 -74.5 -22.5t-52.5 -57.5t-31 -77t-10 -81q0 -37 9.5 -53t28.5 -16q27 0 55.5 27t53.5 67.5t44 87.5t27 86l6 32v0zM425 -31q-10 -51 -32 -92t-58.5 -69t-90 -43t-126.5 -15q-42 0 -78.5 5.5t-65.5 15.5l29 117q30 -14 66 -21.5
t71 -7.5q71 0 111.5 29t53.5 96q4 21 8.5 39.5t10.5 38t13.5 42t18.5 51.5l-2 1q-15 -27 -35 -56t-46 -54t-57.5 -41t-68.5 -16q-57 0 -87 37.5t-30 117.5q0 70 19 135.5t58.5 116t99.5 80.5t142 30q45 0 89.5 -3.5t86.5 -11.5z" />
    <glyph glyph-name="h" unicode="h" horiz-adv-x="559" 
d="M449 0h-126l60 312q9 46 1.5 66t-31.5 20q-25 0 -53 -26t-53.5 -66.5t-45 -88.5t-27.5 -91l-24 -126h-125l139 730h125l-39 -210q-7 -33 -19.5 -74t-34.5 -103l2 -1q17 33 38.5 63.5t47.5 53t56.5 36t66.5 13.5t59.5 -12t36.5 -34t15.5 -52.5t-4.5 -66.5z" />
    <glyph glyph-name="i" unicode="i" horiz-adv-x="262" 
d="M150 0h-125l95 497h125zM291 655q0 -37 -25.5 -60.5t-58.5 -23.5t-54 22t-21 51q0 18 7 33t18.5 26t26.5 17t32 6q33 0 54 -21.5t21 -49.5z" />
    <glyph glyph-name="j" unicode="j" horiz-adv-x="265" 
d="M147 -42q-9 -48 -26.5 -86.5t-44.5 -65t-66 -40.5t-91 -14q-38 0 -68 8l27 109q13 -5 27.5 -7.5t25.5 -2.5q41 0 60.5 25t32.5 88l101 525h125zM294 655q0 -37 -25.5 -60.5t-58.5 -23.5t-54 22t-21 51q0 18 7 33t18.5 26t26.5 17t32 6q33 0 54 -21.5t21 -49.5z" />
    <glyph glyph-name="k" unicode="k" horiz-adv-x="503" 
d="M322 268l132 -268h-151l-105 249l-48 -249h-125l139 730h125l-83 -436l216 232l98 -65z" />
    <glyph glyph-name="l" unicode="l" horiz-adv-x="261" 
d="M150 0h-125l139 730h125z" />
    <glyph glyph-name="m" unicode="m" horiz-adv-x="850" 
d="M739 0h-125l60 312q8 46 1 66.5t-29 20.5q-23 0 -50 -24t-52.5 -62.5t-46 -87.5t-29.5 -99l-23 -126h-125l60 312q8 46 1 66.5t-30 20.5q-22 0 -49 -24t-52.5 -62.5t-46 -87.5t-29.5 -99l-24 -126h-125l50 260q3 17 9.5 50t13 69t12 68.5t8.5 49.5h123q-5 -23 -15 -60
t-30 -94l2 -1q17 33 38 63.5t46.5 53t56 36t65.5 13.5q46 0 73.5 -24.5t27.5 -72.5q0 -15 -3.5 -31t-11.5 -41h2q17 34 38.5 65t47.5 54t56.5 36.5t65.5 13.5q70 0 94.5 -46t10.5 -119z" />
    <glyph glyph-name="n" unicode="n" horiz-adv-x="559" 
d="M449 0h-126l60 312q9 46 1.5 66t-31.5 20q-25 0 -53 -26t-53.5 -66.5t-45 -88.5t-27.5 -91l-24 -126h-125l50 260q3 17 9.5 50t13 69t12 68.5t8.5 49.5h123q-5 -23 -15 -59t-30 -95l2 -1q17 33 38.5 63.5t47.5 53t56.5 36t66.5 13.5t59.5 -12t36.5 -34t15.5 -52.5
t-4.5 -66.5z" />
    <glyph glyph-name="o" unicode="o" horiz-adv-x="545" 
d="M393 310q0 43 -19 65.5t-63 22.5q-35 0 -62.5 -19t-47 -49t-29.5 -67.5t-10 -74.5q0 -41 18 -64.5t62 -23.5q33 0 61 17t48 46t31 67t11 80zM525 326q0 -77 -25 -139t-66.5 -106t-96 -67.5t-112.5 -23.5q-104 0 -149 47t-45 131q0 78 24.5 140.5t65.5 107t95 68t114 23.5
q53 0 90 -13.5t60.5 -37.5t34 -57.5t10.5 -72.5z" />
    <glyph glyph-name="p" unicode="p" horiz-adv-x="542" 
d="M393 329q0 37 -10 53t-28 16q-27 0 -55.5 -27t-53.5 -67.5t-44 -86.5t-26 -85l-6 -32q12 -4 27 -6.5t29 -2.5q43 0 74.5 22.5t52 57.5t30.5 77t10 81zM522 353q0 -71 -19 -136t-58.5 -115.5t-99.5 -80.5t-142 -30q-14 0 -26 1t-28 3l-44 -236h-125l95 500q3 17 9.5 50
t13 69t12 69t8.5 50h123q-3 -15 -7 -30t-9 -33.5t-12.5 -41t-16.5 -51.5l2 -1q18 37 40.5 67.5t48.5 53t55.5 35t62.5 12.5q57 0 87 -37.5t30 -117.5z" />
    <glyph glyph-name="q" unicode="q" horiz-adv-x="542" 
d="M383 399q-12 3 -25.5 5t-30.5 2q-43 0 -74.5 -22.5t-52.5 -57.5t-31 -77t-10 -81q0 -37 9.5 -53t28.5 -16q27 0 55.5 27t53.5 67.5t44 87.5t27 86l6 32v0zM386 -241h-125l39 205q4 23 9 44.5t12 44.5t15.5 48.5t20.5 56.5h-2q-15 -27 -35.5 -57t-46.5 -55t-57.5 -41
t-68.5 -16q-57 0 -87 37.5t-30 117.5q0 70 19 135.5t58.5 116t99.5 80.5t142 30q45 0 89.5 -4t86.5 -12z" />
    <glyph glyph-name="r" unicode="r" horiz-adv-x="351" 
d="M364 384q-27 9 -56.5 -9.5t-56 -57t-47.5 -92.5t-33 -117l-21 -108h-125l50 260q3 17 9.5 50t13 69t12 68.5t8.5 49.5h121q-5 -29 -15 -64t-28 -86h2q20 39 40.5 71t43.5 53.5t50 31t59 4.5z" />
    <glyph glyph-name="s" unicode="s" horiz-adv-x="377" 
d="M338 402q-17 5 -33.5 7.5t-33.5 2.5q-39 0 -58 -14.5t-19 -38.5q0 -23 20 -41.5t44.5 -40t44.5 -49.5t20 -69q0 -31 -13.5 -61.5t-41.5 -54.5t-71 -38.5t-101 -14.5q-50 0 -87 9l23 107q17 -7 37 -11t39 -4q38 0 60.5 14.5t22.5 41.5q0 25 -20 43t-44 38t-44 47t-20 71
q0 34 13.5 63.5t40 51t66.5 34t94 12.5q49 0 84 -7z" />
    <glyph glyph-name="t" unicode="t" horiz-adv-x="367" 
d="M365 398h-117l-42 -224q-8 -45 -0.5 -60.5t38.5 -15.5q19 0 33.5 2t28.5 5l-12 -102q-25 -6 -52 -9.5t-50 -3.5q-81 0 -106 40t-8 130l45 238h-85l20 99h84l29 153l130 26l-34 -179h118z" />
    <glyph glyph-name="u" unicode="u" horiz-adv-x="558" 
d="M493 237q-3 -17 -9.5 -50t-13 -69t-12 -68.5t-8.5 -49.5h-122q4 23 14 59t30 95l-2 1q-17 -33 -38.5 -63.5t-47.5 -53t-56.5 -36t-66.5 -13.5t-60 12t-36.5 34t-15 52.5t4.5 66.5l66 343h125l-60 -312q-8 -46 -1 -66t31 -20q25 0 53 26t53.5 66.5t45 88t27.5 91.5l24 126
h125z" />
    <glyph glyph-name="v" unicode="v" horiz-adv-x="492" 
d="M273 0h-132l-85 497h133l33 -216q5 -29 7.5 -59t4.5 -59h2l175 356l122 -37z" />
    <glyph glyph-name="w" unicode="w" horiz-adv-x="781" 
d="M578 0h-141l-27 214q-3 26 -5 53t-2 59h-1q-38 -82 -76.5 -163t-79.5 -163h-129l-53 497h131l16 -188q3 -37 5.5 -73.5t3.5 -72.5h1q38 85 77.5 167.5t80.5 166.5h121l24 -188q5 -41 7.5 -78t3.5 -69h1q39 90 79 178.5t82 177.5l121 -35z" />
    <glyph glyph-name="x" unicode="x" horiz-adv-x="523" 
d="M347 242l117 -242h-147l-69 164l-169 -194l-104 62l214 227l-113 238h140l70 -163l166 192l101 -60z" />
    <glyph glyph-name="y" unicode="y" horiz-adv-x="512" 
d="M544 484q-54 -124 -102.5 -223t-94 -177t-89.5 -137t-88 -103q-50 -49 -96.5 -71t-95.5 -22q-40 0 -74 8l21 110q27 -10 61 -10q24 0 48.5 10.5t44.5 30.5q23 23 34.5 52.5t11.5 75.5q0 107 -21.5 226.5t-55.5 242.5h140q10 -41 19.5 -87t16 -92.5t10.5 -91.5t4 -84
q0 -20 -5 -42h2q50 92 95.5 192.5t94.5 225.5l119 -34v0z" />
    <glyph glyph-name="z" unicode="z" horiz-adv-x="437" 
d="M421 406l-235 -290q16 1 47 1h59h78l-22 -117h-346l17 91l239 294q-14 -1 -39.5 -1.5t-60.5 -0.5h-78l22 114h337z" />
    <glyph glyph-name="braceleft" unicode="{" horiz-adv-x="355" 
d="M411 676q-24 0 -41 -5t-29 -18t-20.5 -36t-15.5 -59l-16 -86q-8 -41 -20 -70t-27.5 -48t-34 -28.5t-39.5 -12.5v-2q38 -6 56.5 -43.5t2.5 -116.5l-26 -134q-7 -36 -7.5 -59.5t6.5 -36.5t22 -18t39 -5l-20 -103h-20q-96 0 -127.5 55t-8.5 168l26 135q13 63 -8.5 86
t-68.5 26l19 96q25 1 44.5 6.5t34 17.5t24.5 32t16 52l16 87q20 109 71 165t149 56h22z" />
    <glyph glyph-name="bar" unicode="|" horiz-adv-x="282" 
d="M100 -241h-99l190 1000h100z" />
    <glyph glyph-name="braceright" unicode="}" horiz-adv-x="355" 
d="M340 265q-26 -2 -45.5 -7.5t-34 -18t-24.5 -33.5t-16 -53l-26 -134q-11 -59 -29 -101t-44.5 -69t-62.5 -40t-84 -13h-21l19 102q24 0 41 5t29 18.5t20 37t15 59.5l26 133q16 83 48 120t74 42v2q-20 3 -34.5 13t-23 28.5t-9.5 47t7 68.5l17 86q7 36 7 59t-7 36t-21.5 18
t-38.5 5l19 101h20q97 0 128 -55t9 -166l-18 -87q-6 -32 -3.5 -52t12.5 -32t27.5 -17.5t41.5 -6.5z" />
    <glyph glyph-name="asciitilde" unicode="~" 
d="M571 584q-4 -87 -48 -132.5t-114 -45.5q-28 0 -48 7.5t-34.5 19.5t-24.5 25t-19.5 25t-20 19.5t-24.5 7.5q-25 0 -38.5 -21t-18.5 -59h-95q5 86 48.5 132t113.5 46q43 0 67 -16.5t40 -36t29.5 -36t34.5 -16.5q25 0 38.5 21t18.5 60h95v0z" />
    <glyph glyph-name="Euro" 
d="M547 533q-22 12 -51.5 19.5t-58.5 7.5q-61 0 -101 -34t-64 -84h163l-15 -79h-180q-5 -18 -8.5 -37.5t-5.5 -36.5h180l-14 -79h-170q2 -58 28 -88t92 -30q32 0 64 7.5t61 19.5l17 -98q-39 -16 -84.5 -24t-87.5 -8q-119 0 -171.5 57t-51.5 164h-81l14 79h74q2 17 5.5 36.5
t8.5 37.5h-73l15 79h85q19 45 47 85t67.5 69.5t90.5 47t115 17.5q34 0 69 -7t64 -19z" />
    <glyph glyph-name="Euro" unicode="&#x20ac;" 
d="M547 533q-22 12 -51.5 19.5t-58.5 7.5q-61 0 -101 -34t-64 -84h163l-15 -79h-180q-5 -18 -8.5 -37.5t-5.5 -36.5h180l-14 -79h-170q2 -58 28 -88t92 -30q32 0 64 7.5t61 19.5l17 -98q-39 -16 -84.5 -24t-87.5 -8q-119 0 -171.5 57t-51.5 164h-81l14 79h74q2 17 5.5 36.5
t8.5 37.5h-73l15 79h85q19 45 47 85t67.5 69.5t90.5 47t115 17.5q34 0 69 -7t64 -19z" />
    <glyph glyph-name="Zcaron" horiz-adv-x="520" 
d="M539 571l-318 -406q-9 -12 -18.5 -23.5t-20.5 -23.5q12 2 47 2h95h133l-23 -120h-433l19 100l303 396q13 17 26.5 32.5t28.5 31.5q-18 -1 -43.5 -1.5t-74.5 -0.5h-144l21 117h421zM357 715l-152 86l35 63l126 -59l140 59l24 -62z" />
    <glyph glyph-name="Zcaron" unicode="&#x17d;" horiz-adv-x="520" 
d="M539 571l-318 -406q-9 -12 -18.5 -23.5t-20.5 -23.5q12 2 47 2h95h133l-23 -120h-433l19 100l303 396q13 17 26.5 32.5t28.5 31.5q-18 -1 -43.5 -1.5t-74.5 -0.5h-144l21 117h421zM357 715l-152 86l35 63l126 -59l140 59l24 -62z" />
    <glyph glyph-name="zcaron" horiz-adv-x="437" 
d="M421 406l-235 -290q16 1 47 1h59h78l-22 -117h-346l17 91l239 294q-14 -1 -39.5 -1.5t-60.5 -0.5h-78l22 114h337zM280 560l-126 134l55 60l87 -82l116 82l42 -59z" />
    <glyph glyph-name="zcaron" unicode="&#x17e;" horiz-adv-x="437" 
d="M421 406l-235 -290q16 1 47 1h59h78l-22 -117h-346l17 91l239 294q-14 -1 -39.5 -1.5t-60.5 -0.5h-78l22 114h337zM280 560l-126 134l55 60l87 -82l116 82l42 -59z" />
    <glyph glyph-name="exclamdown" unicode="&#xa1;" horiz-adv-x="315" 
d="M139 -211h-146l118 520h107zM266 437q0 -35 -24 -58t-58 -23q-33 0 -53 21.5t-20 50.5q0 35 24 57.5t57 22.5q34 0 54 -21t20 -50z" />
    <glyph glyph-name="cent" unicode="&#xa2;" 
d="M481 443q-44 22 -97 22q-36 0 -66 -13.5t-51 -37t-32.5 -54.5t-11.5 -66q0 -90 107 -90q28 0 55 5.5t56 18.5l17 -99q-27 -12 -59 -20.5t-59 -10.5l-19 -98h-97l19 99q-74 8 -115 50t-41 122q0 58 18 108t50 87.5t77.5 62.5t99.5 34l16 87h97l-17 -83q23 -2 49 -7.5
t49 -14.5z" />
    <glyph glyph-name="sterling" unicode="&#xa3;" 
d="M503 538q-20 8 -46 13.5t-54 5.5q-36 0 -58.5 -14t-35 -39t-17 -58.5t-5.5 -72.5h151l-18 -99h-139q-1 -54 -20 -93t-60 -73q16 1 34.5 1.5t38.5 0.5h194l-21 -110h-422l16 87q33 24 54.5 45t34 43t17.5 46t6 53h-96l18 99h83q1 49 10.5 100.5t37 93t77.5 68t134 26.5
q28 0 62 -4t63 -12z" />
    <glyph glyph-name="currency" unicode="&#xa4;" 
d="M385 367q0 30 -16 48t-52 18q-26 0 -47 -11.5t-35.5 -30.5t-22 -43.5t-7.5 -49.5q0 -31 15 -51t50 -20q29 0 50.5 13.5t36 34t21.5 45t7 47.5zM486 448q6 -11 9 -26.5t3 -33.5q0 -46 -14.5 -89t-49.5 -85l60 -98l-109 -69l-57 103q-40 -16 -77 -16q-17 0 -30 2.5t-24 6.5
l-87 -95l-88 73l85 86q-16 26 -16 72q0 45 15.5 89.5t51.5 82.5l-55 92l108 67l53 -97q36 13 74 13q17 0 32.5 -2.5t29.5 -8.5l89 96l85 -74z" />
    <glyph glyph-name="yen" unicode="&#xa5;" 
d="M386 320h125l-16 -82h-155l-11 -59h155l-15 -81h-155l-19 -98h-129l19 98h-155l16 81h154l11 59h-155l16 82h125l-96 330h137l43 -167q7 -27 11.5 -53.5t8.5 -46.5h2q11 22 28 50t33 53l106 164h142z" />
    <glyph glyph-name="brokenbar" unicode="&#xa6;" horiz-adv-x="282" 
d="M100 -241h-99l72 378h99zM221 391h-99l69 368h100z" />
    <glyph glyph-name="section" unicode="&#xa7;" horiz-adv-x="519" 
d="M339 250q0 18 -7 35t-19.5 35t-31 38.5t-41.5 46.5q-25 -17 -36 -39t-11 -47q0 -34 26.5 -68t72.5 -84q25 17 36 39t11 44zM457 624q-34 10 -68 10q-28 0 -46 -7.5t-28.5 -18.5t-14.5 -25t-4 -26q0 -27 24.5 -53.5t54.5 -58.5t54.5 -74t24.5 -99q0 -51 -28 -96.5
t-75 -75.5q9 -14 14.5 -33t5.5 -40q0 -37 -16 -72t-46.5 -62t-76.5 -43.5t-106 -16.5q-25 0 -48.5 2.5t-43.5 7.5l27 108q20 -6 38 -9.5t36 -3.5q30 0 49 8t30.5 20t16 26t4.5 25q0 19 -11.5 37.5t-29.5 38t-38 40.5t-38 45t-29.5 53t-11.5 64q0 54 27 99t77 79
q-11 20 -16.5 38t-5.5 40q0 27 12 59.5t40 61t73.5 47.5t111.5 19q23 0 45 -2t42 -6z" />
    <glyph glyph-name="dieresis" unicode="&#xa8;" horiz-adv-x="535" 
d="M215 651q0 -31 -21 -51.5t-50 -20.5t-48 20t-19 47q0 31 21 51t50 20t48 -19.5t19 -46.5zM417 651q0 -31 -21 -51.5t-50 -20.5t-48 20t-19 48q0 30 21.5 50t50.5 20t47.5 -19.5t18.5 -46.5z" />
    <glyph glyph-name="copyright" unicode="&#xa9;" horiz-adv-x="747" 
d="M488 413q-21 16 -59 16q-26 0 -44 -12t-29 -30.5t-16.5 -41t-5.5 -44.5q0 -56 54 -56q17 0 36 3t36 11l3 -82q-24 -11 -50 -15.5t-50 -4.5q-64 0 -98.5 34t-34.5 95q0 44 14 85t40 72.5t64 50t85 18.5q29 0 49.5 -4t35.5 -11zM639 346q0 48 -18 91t-49.5 75t-74.5 50.5
t-92 18.5q-51 0 -97.5 -19.5t-81.5 -54.5t-56 -82.5t-21 -103.5q0 -48 18 -91t50 -75t74.5 -50.5t92.5 -18.5q51 0 97 19.5t81 54.5t56 82.5t21 103.5zM737 352q0 -78 -29.5 -144t-79 -114t-114 -75t-135.5 -27q-70 0 -130 25.5t-103.5 69t-68.5 102.5t-25 127q0 76 29 142
t78.5 114t114.5 75.5t136 27.5q69 0 128.5 -25t104 -69t69.5 -103t25 -126z" />
    <glyph glyph-name="ordfeminine" unicode="&#xaa;" horiz-adv-x="402" 
d="M315 597q-22 5 -38 5q-26 0 -45.5 -13.5t-33.5 -35t-21 -48.5t-7 -53q0 -24 6 -34.5t19 -10.5q17 0 35.5 14.5t35 38.5t28.5 54t17 61l4 22v0zM357 176h-314l19 99h313zM429 673q-8 -43 -17.5 -91t-18.5 -94.5t-16.5 -89t-11.5 -73.5h-98q4 18 11 40.5t16 48.5h-1
q-26 -47 -60.5 -72t-76.5 -25q-90 0 -90 112q0 51 14.5 97t43.5 81t72 56t100 21q32 0 65.5 -2.5t67.5 -8.5z" />
    <glyph glyph-name="guillemotleft" unicode="&#xab;" horiz-adv-x="520" 
d="M176 293l60 -150l-104 -45l-78 201l141 190l93 -49zM391 293l69 -144l-103 -46l-88 195l149 186l90 -49z" />
    <glyph glyph-name="logicalnot" unicode="&#xac;" 
d="M464 95h-113l28 149h-337l21 107h450z" />
    <glyph glyph-name="registered" unicode="&#xae;" horiz-adv-x="553" 
d="M366 582q0 17 -23 17h-17l-9 -51h10q18 0 28.5 9.5t10.5 24.5zM433 594q0 -55 -58 -75q7 -12 12 -29l20 -68h-69l-21 85h-9l-16 -85h-58l42 223h86q38 0 54.5 -13.5t16.5 -37.5zM487 540q0 30 -11 57t-30.5 48t-46 33t-57.5 12q-32 0 -61 -12.5t-51.5 -35t-35.5 -53
t-13 -66.5q0 -31 11 -58.5t30.5 -48.5t46 -33t57.5 -12t60.5 13t51.5 35.5t35.5 53.5t13.5 67zM565 543q0 -53 -20.5 -97.5t-54 -77t-77.5 -50.5t-91 -18t-87 16.5t-69 45.5t-46 68.5t-17 85.5q0 54 20 99t53.5 77.5t77.5 50.5t91 18q46 0 86.5 -16.5t70 -45.5t46.5 -69
t17 -87z" />
    <glyph glyph-name="macron" unicode="&#xaf;" horiz-adv-x="387" 
d="M365 600h-264l17 92h264z" />
    <glyph glyph-name="macron" unicode="&#x2c9;" horiz-adv-x="387" 
d="M365 600h-264l17 92h264z" />
    <glyph glyph-name="degree" unicode="&#xb0;" horiz-adv-x="380" 
d="M317 604q0 9 -2.5 18.5t-8.5 17.5t-15.5 13t-23.5 5q-24 0 -41.5 -17t-17.5 -47q0 -25 13.5 -40t38.5 -15q24 0 40.5 17.5t16.5 47.5zM412 612q0 -39 -14.5 -68t-37.5 -48t-52 -28.5t-58 -9.5q-68 0 -102.5 35.5t-34.5 91.5q0 38 14.5 66.5t37.5 48t51.5 29t56.5 9.5
q38 0 64.5 -10.5t43 -28t24 -40t7.5 -47.5z" />
    <glyph glyph-name="plusminus" unicode="&#xb1;" 
d="M464 0h-465l21 107h464zM533 346h-175l-34 -183h-122l35 183h-175l19 106h175l36 182h121l-35 -182h175z" />
    <glyph glyph-name="twosuperior" unicode="&#xb2;" horiz-adv-x="316" 
d="M330 582q0 -34 -19 -61t-64 -60l-38 -28h103l-16 -79h-230l14 71l66 50q41 30 55.5 47t14.5 33q0 25 -31 25q-12 0 -27.5 -4.5t-29.5 -11.5l-8 75q23 9 49.5 15t52.5 6q57 0 82.5 -22t25.5 -56z" />
    <glyph glyph-name="threesuperior" unicode="&#xb3;" horiz-adv-x="466" 
d="M320 591q0 -26 -13.5 -48.5t-44.5 -35.5q21 -3 32.5 -18t11.5 -36t-9 -40.5t-29 -34.5t-51.5 -24.5t-76.5 -9.5q-19 0 -40 3t-32 5l18 65q10 -3 23 -5t25 -2q62 0 62 40q0 17 -20.5 23t-66.5 -1l11 59h12q46 0 64 12t18 31q0 8 -7 14.5t-25 6.5q-29 0 -55 -13l-5 62
q17 7 43 11.5t52 4.5q56 0 79.5 -20.5t23.5 -48.5z" />
    <glyph glyph-name="acute" unicode="&#xb4;" horiz-adv-x="385" 
d="M140 560l-42 70l179 124l52 -87z" />
    <glyph glyph-name="mu" unicode="&#xb5;" horiz-adv-x="621" 
d="M581 60q-26 -32 -58.5 -51t-77.5 -19q-44 0 -63.5 18t-19.5 56q0 13 2.5 25.5t7.5 31.5h-1q-12 -25 -31 -48.5t-42 -41.5t-48.5 -28.5t-50.5 -10.5q-14 0 -28 5t-24 16l-29 -254h-132l141 738h124l-59 -312q-9 -46 1.5 -66t31.5 -20t46.5 18.5t50 50.5t44.5 76.5t29 95.5
l30 157h125l-64 -335q-5 -23 -6 -37.5t1 -22.5t6.5 -11t11.5 -3q13 0 23.5 7.5t20.5 20.5l38 -56v0z" />
    <glyph glyph-name="mu" unicode="&#x3bc;" horiz-adv-x="621" 
d="M581 60q-26 -32 -58.5 -51t-77.5 -19q-44 0 -63.5 18t-19.5 56q0 13 2.5 25.5t7.5 31.5h-1q-12 -25 -31 -48.5t-42 -41.5t-48.5 -28.5t-50.5 -10.5q-14 0 -28 5t-24 16l-29 -254h-132l141 738h124l-59 -312q-9 -46 1.5 -66t31.5 -20t46.5 18.5t50 50.5t44.5 76.5t29 95.5
l30 157h125l-64 -335q-5 -23 -6 -37.5t1 -22.5t6.5 -11t11.5 -3q13 0 23.5 7.5t20.5 20.5l38 -56v0z" />
    <glyph glyph-name="paragraph" unicode="&#xb6;" horiz-adv-x="583" 
d="M288 231q-50 0 -87 12.5t-61 36t-36 56.5t-12 73q0 51 18.5 98.5t54.5 85t88 60t119 22.5zM600 573h-64l-128 -669h-175l20 102h68l128 669h169z" />
    <glyph glyph-name="periodcentered" unicode="&#xb7;" horiz-adv-x="269" 
d="M232 300q0 -18 -7 -33.5t-19 -27t-28 -18t-33 -6.5q-35 0 -57.5 24t-22.5 57q0 18 7 33t19 26.5t27.5 18t32.5 6.5t32 -6.5t26 -17.5t17 -25.5t6 -30.5z" />
    <glyph glyph-name="periodcentered" unicode="&#x2219;" horiz-adv-x="269" 
d="M232 300q0 -18 -7 -33.5t-19 -27t-28 -18t-33 -6.5q-35 0 -57.5 24t-22.5 57q0 18 7 33t19 26.5t27.5 18t32.5 6.5t32 -6.5t26 -17.5t17 -25.5t6 -30.5z" />
    <glyph glyph-name="cedilla" unicode="&#xb8;" horiz-adv-x="392" 
d="M170 -40q29 -54 15 -102t-62 -92h-101q43 44 55 80.5t-15 81.5l108 32v0z" />
    <glyph glyph-name="onesuperior" unicode="&#xb9;" horiz-adv-x="311" 
d="M248 354h-101l40 213l-70 -28l-2 75l96 36h93z" />
    <glyph glyph-name="ordmasculine" unicode="&#xba;" horiz-adv-x="417" 
d="M332 540q0 24 -10.5 40t-39.5 16q-26 0 -44 -13.5t-29 -33.5t-16 -43.5t-5 -42.5q0 -26 11.5 -41.5t37.5 -15.5q22 0 39.5 11.5t30 30t19 42.5t6.5 50zM352 176h-307l18 99h308zM437 554q0 -56 -17.5 -100t-47.5 -74.5t-69 -46.5t-82 -16q-71 0 -104.5 34.5t-33.5 94.5
q0 49 15 93t42.5 76.5t67 51.5t88.5 19q40 0 67 -10.5t43.5 -28.5t23.5 -42t7 -51z" />
    <glyph glyph-name="guillemotright" unicode="&#xbb;" horiz-adv-x="520" 
d="M134 103l-90 49l118 143l-69 144l103 45l88 -195zM358 99l-93 48l112 148l-61 149l105 45l77 -201z" />
    <glyph glyph-name="onequarter" unicode="&#xbc;" horiz-adv-x="710" 
d="M443 119h66l22 117zM628 49h-44l-9 -49h-90l10 49h-139l6 66l135 181h134l-33 -176h44zM84 -22l-67 61l612 631l68 -61zM248 354h-102l40 213l-69 -28l-3 75l96 36h94z" />
    <glyph glyph-name="onehalf" unicode="&#xbd;" horiz-adv-x="713" 
d="M248 354h-102l40 213l-69 -28l-3 75l96 36h94zM84 -22l-67 61l612 631l68 -61zM650 229q0 -35 -19 -62t-64 -60l-38 -28h103l-15 -79h-231l14 72l67 49q41 30 55 47t14 33q0 25 -30 25q-13 0 -28.5 -4t-28.5 -12l-8 75q23 9 49 15t52 6q57 0 82.5 -22t25.5 -55z" />
    <glyph glyph-name="threequarters" unicode="&#xbe;" horiz-adv-x="715" 
d="M323 591q0 -26 -13.5 -48.5t-44.5 -35.5q21 -3 32.5 -18t11.5 -36t-9 -40.5t-29 -34.5t-51.5 -24.5t-76.5 -9.5q-19 0 -40 3t-32 5l18 65q10 -3 23 -5t26 -2q62 0 62 40q0 17 -20.5 23t-67.5 -1l11 59h13q46 0 63.5 12t17.5 31q0 8 -7 14.5t-24 6.5q-28 0 -56 -13l-5 62
q18 7 44 11.5t52 4.5q56 0 79 -20.5t23 -48.5zM89 -22l-67 61l611 631l68 -61zM634 49h-44l-10 -49h-89l9 49h-139l6 66l135 181h135l-34 -176h44zM448 119h66l23 117z" />
    <glyph glyph-name="questiondown" unicode="&#xbf;" horiz-adv-x="442" 
d="M333 309q8 -50 -3.5 -85.5t-32.5 -62.5t-47.5 -47.5t-50.5 -39.5t-40 -39.5t-16 -46.5q0 -21 13 -37t36 -27t54.5 -18t67.5 -10l-38 -116q-69 4 -120.5 20t-85.5 40.5t-50.5 56.5t-16.5 68q0 45 17 77t41.5 57t53 46t51.5 44.5t36 51.5t8 68h123v0zM370 437
q0 -35 -24.5 -58t-57.5 -23t-53 21.5t-20 50.5q0 35 24 57.5t57 22.5q34 0 54 -21t20 -50z" />
    <glyph glyph-name="Agrave" unicode="&#xc0;" horiz-adv-x="614" 
d="M371 432q-4 24 -6 48t-4 46h-1q-9 -22 -19.5 -45.5t-23.5 -47.5l-102 -192h185zM433 0l-20 138h-250l-72 -138h-133l360 675h144l108 -675h-137zM454 716l-209 53l40 92l197 -75z" />
    <glyph glyph-name="Aacute" unicode="&#xc1;" horiz-adv-x="614" 
d="M371 432q-4 24 -6 48t-4 46h-1q-9 -22 -19.5 -45.5t-23.5 -47.5l-102 -192h185zM433 0l-20 138h-250l-72 -138h-133l360 675h144l108 -675h-137zM323 716l-14 70l212 75l19 -92z" />
    <glyph glyph-name="Acircumflex" unicode="&#xc2;" horiz-adv-x="614" 
d="M371 432q-4 24 -6 48t-4 46h-1q-9 -22 -19.5 -45.5t-23.5 -47.5l-102 -192h185zM433 0l-20 138h-250l-72 -138h-133l360 675h144l108 -675h-137zM525 715l-125 60l-141 -60l-24 62l173 87l152 -85z" />
    <glyph glyph-name="Atilde" unicode="&#xc3;" horiz-adv-x="614" 
d="M371 432q-4 24 -6 48t-4 46h-1q-9 -22 -19.5 -45.5t-23.5 -47.5l-102 -192h185zM433 0l-20 138h-250l-72 -138h-133l360 675h144l108 -675h-137zM586 810q-24 -40 -56 -61t-71 -21q-25 0 -42 7.5t-30 16t-24.5 16t-25.5 7.5q-34 0 -59 -43l-61 44q24 40 55 61t71 21
q25 0 42 -7.5t30.5 -16t25 -16t25.5 -7.5q32 0 59 42l61 -43v0z" />
    <glyph glyph-name="Adieresis" unicode="&#xc4;" horiz-adv-x="614" 
d="M371 432q-4 24 -6 48t-4 46h-1q-9 -22 -19.5 -45.5t-23.5 -47.5l-102 -192h185zM433 0l-20 138h-250l-72 -138h-133l360 675h144l108 -675h-137zM361 787q0 -30 -20.5 -49t-47.5 -19t-45 18t-18 44q0 30 20 50t47 20q28 0 46 -19t18 -45zM570 787q0 -30 -20 -49t-47 -19
t-45 18t-18 44q0 30 20 50t47 20t45 -19t18 -45z" />
    <glyph glyph-name="Aring" unicode="&#xc5;" horiz-adv-x="614" 
d="M371 418q-4 26 -6.5 53t-4.5 54h-1q-11 -26 -24 -54.5t-29 -57.5l-92 -172h186zM446 726q0 20 -13.5 35t-36.5 15t-39 -16.5t-16 -39.5q0 -21 14 -36t36 -15q23 0 39 16.5t16 40.5zM433 0l-20 138h-250l-72 -138h-133l342 641q-33 28 -33 75q0 29 11 52.5t29 40.5t42 26
t50 9t48 -8.5t38.5 -24t25.5 -36.5t9 -46q0 -32 -14.5 -57t-36.5 -40l101 -632h-137z" />
    <glyph glyph-name="AE" unicode="&#xc6;" horiz-adv-x="763" 
d="M422 567q-20 -34 -41 -70t-50 -78l-117 -171h149l60 319h-1zM773 566h-228l-31 -166h220l-21 -106h-219l-36 -183h236l-21 -111h-359l29 145h-192l-96 -145h-137l447 675h429z" />
    <glyph glyph-name="Ccedilla" unicode="&#xc7;" horiz-adv-x="549" 
d="M552 543q-61 22 -121 22q-67 0 -112.5 -30t-73.5 -76t-40.5 -101.5t-12.5 -105.5q0 -32 7 -58.5t23.5 -45t44.5 -28.5t69 -10q38 0 72.5 7.5t64.5 20.5l-1 -118q-38 -13 -85 -20.5t-89 -7.5q-77 0 -126 21.5t-76.5 55t-38 75.5t-10.5 84q0 86 25 167.5t75 145t124.5 102
t172.5 38.5q42 0 77.5 -5.5t65.5 -13.5zM306 -40q29 -54 15 -102t-62 -92h-101q43 44 55 80.5t-15 81.5l108 32v0z" />
    <glyph glyph-name="Egrave" unicode="&#xc8;" horiz-adv-x="482" 
d="M493 566h-232l-32 -166h221l-21 -106h-220l-34 -183h231l-21 -111h-359l128 675h359zM405 716l-209 53l40 92l197 -75z" />
    <glyph glyph-name="Eacute" unicode="&#xc9;" horiz-adv-x="482" 
d="M493 566h-232l-32 -166h221l-21 -106h-220l-34 -183h231l-21 -111h-359l128 675h359zM267 716l-14 70l212 75l19 -92z" />
    <glyph glyph-name="Ecircumflex" unicode="&#xca;" horiz-adv-x="482" 
d="M493 566h-232l-32 -166h221l-21 -106h-220l-34 -183h231l-21 -111h-359l128 675h359zM471 715l-125 60l-141 -60l-24 62l173 87l152 -85z" />
    <glyph glyph-name="Edieresis" unicode="&#xcb;" horiz-adv-x="482" 
d="M493 566h-232l-32 -166h221l-21 -106h-220l-34 -183h231l-21 -111h-359l128 675h359zM304 787q0 -30 -20.5 -49t-47.5 -19t-45 18t-18 44q0 30 20 50t47 20q28 0 46 -19t18 -45zM513 787q0 -30 -20 -49t-47 -19t-45 18t-18 44q0 30 20 50t47 20t45 -19t18 -45z" />
    <glyph glyph-name="Igrave" unicode="&#xcc;" horiz-adv-x="265" 
d="M154 0h-128l128 675h128zM291 716l-209 53l40 92l197 -75z" />
    <glyph glyph-name="Iacute" unicode="&#xcd;" horiz-adv-x="265" 
d="M154 0h-128l128 675h128zM155 716l-14 70l212 75l19 -92z" />
    <glyph glyph-name="Icircumflex" unicode="&#xce;" horiz-adv-x="265" 
d="M154 0h-128l128 675h128zM358 715l-125 60l-141 -60l-24 62l173 87l152 -85z" />
    <glyph glyph-name="Idieresis" unicode="&#xcf;" horiz-adv-x="265" 
d="M154 0h-128l128 675h128zM192 787q0 -30 -20.5 -49t-47.5 -19t-45 18t-18 44q0 30 20 50t47 20q28 0 46 -19t18 -45zM401 787q0 -30 -20 -49t-47 -19t-45 18t-18 44q0 30 20 50t47 20t45 -19t18 -45z" />
    <glyph glyph-name="Eth" unicode="&#xd0;" horiz-adv-x="668" 
d="M521 422q0 33 -8 60.5t-27.5 47t-51.5 30t-79 10.5q-53 0 -84 -3l-33 -175h118l-19 -98h-118l-35 -182q14 -2 31 -3.5t31 -1.5q76 0 129 31t85 78t46.5 102t14.5 104zM657 435q0 -85 -26.5 -164t-80 -140t-134.5 -98t-189 -37q-60 0 -104.5 1.5t-86.5 3.5l55 293h-78
l19 98h78l54 282q38 1 95 3t113 2q143 0 214 -62.5t71 -181.5z" />
    <glyph glyph-name="Ntilde" unicode="&#xd1;" horiz-adv-x="672" 
d="M561 0h-149l-130 337q-14 38 -26 75.5t-20 71.5q-6 -48 -13.5 -95t-17.5 -98l-55 -291h-124l128 675h151l126 -319q16 -40 28 -81t23 -79q6 47 14.5 99.5t17.5 100.5l51 279h125zM628 810q-24 -40 -56 -61t-71 -21q-25 0 -42 7.5t-30 16t-24.5 16t-25.5 7.5
q-34 0 -59 -43l-61 44q24 40 55 61t71 21q25 0 42 -7.5t30.5 -16t25 -16t25.5 -7.5q32 0 59 42l61 -43v0z" />
    <glyph glyph-name="Ograve" unicode="&#xd2;" horiz-adv-x="689" 
d="M551 424q0 66 -32 105.5t-101 39.5q-54 0 -98 -26t-74.5 -69.5t-47.5 -100t-17 -116.5q0 -72 33.5 -111t97.5 -39q51 0 95 25.5t76 68.5t50 100.5t18 122.5zM688 439q0 -98 -31 -180.5t-85 -142.5t-125.5 -93.5t-152.5 -33.5q-128 0 -189 65.5t-61 180.5q0 91 30 173
t83.5 144t125.5 98t156 36q123 0 186 -64.5t63 -182.5zM511 716l-209 53l40 92l197 -75z" />
    <glyph glyph-name="Oacute" unicode="&#xd3;" horiz-adv-x="689" 
d="M551 424q0 66 -32 105.5t-101 39.5q-54 0 -98 -26t-74.5 -69.5t-47.5 -100t-17 -116.5q0 -72 33.5 -111t97.5 -39q51 0 95 25.5t76 68.5t50 100.5t18 122.5zM688 439q0 -98 -31 -180.5t-85 -142.5t-125.5 -93.5t-152.5 -33.5q-128 0 -189 65.5t-61 180.5q0 91 30 173
t83.5 144t125.5 98t156 36q123 0 186 -64.5t63 -182.5zM376 716l-14 70l212 75l19 -92z" />
    <glyph glyph-name="Ocircumflex" unicode="&#xd4;" horiz-adv-x="689" 
d="M551 424q0 66 -32 105.5t-101 39.5q-54 0 -98 -26t-74.5 -69.5t-47.5 -100t-17 -116.5q0 -72 33.5 -111t97.5 -39q51 0 95 25.5t76 68.5t50 100.5t18 122.5zM688 439q0 -98 -31 -180.5t-85 -142.5t-125.5 -93.5t-152.5 -33.5q-128 0 -189 65.5t-61 180.5q0 91 30 173
t83.5 144t125.5 98t156 36q123 0 186 -64.5t63 -182.5zM577 715l-125 60l-141 -60l-24 62l173 87l152 -85z" />
    <glyph glyph-name="Otilde" unicode="&#xd5;" horiz-adv-x="689" 
d="M551 424q0 66 -32 105.5t-101 39.5q-54 0 -98 -26t-74.5 -69.5t-47.5 -100t-17 -116.5q0 -72 33.5 -111t97.5 -39q51 0 95 25.5t76 68.5t50 100.5t18 122.5zM688 439q0 -98 -31 -180.5t-85 -142.5t-125.5 -93.5t-152.5 -33.5q-128 0 -189 65.5t-61 180.5q0 91 30 173
t83.5 144t125.5 98t156 36q123 0 186 -64.5t63 -182.5zM641 810q-24 -40 -56 -61t-71 -21q-25 0 -42 7.5t-30 16t-24.5 16t-25.5 7.5q-34 0 -59 -43l-61 44q24 40 55 61t71 21q25 0 42 -7.5t30.5 -16t25 -16t25.5 -7.5q32 0 59 42l61 -43v0z" />
    <glyph glyph-name="Odieresis" unicode="&#xd6;" horiz-adv-x="689" 
d="M551 424q0 66 -32 105.5t-101 39.5q-54 0 -98 -26t-74.5 -69.5t-47.5 -100t-17 -116.5q0 -72 33.5 -111t97.5 -39q51 0 95 25.5t76 68.5t50 100.5t18 122.5zM688 439q0 -98 -31 -180.5t-85 -142.5t-125.5 -93.5t-152.5 -33.5q-128 0 -189 65.5t-61 180.5q0 91 30 173
t83.5 144t125.5 98t156 36q123 0 186 -64.5t63 -182.5zM416 787q0 -30 -20.5 -49t-47.5 -19t-45 18t-18 44q0 30 20 50t47 20q28 0 46 -19t18 -45zM625 787q0 -30 -20 -49t-47 -19t-45 18t-18 44q0 30 20 50t47 20t45 -19t18 -45z" />
    <glyph glyph-name="multiply" unicode="&#xd7;" 
d="M362 295l126 -157l-86 -69l-125 155l-184 -155l-63 76l186 156l-126 156l86 69l124 -154l182 154l64 -76z" />
    <glyph glyph-name="Oslash" unicode="&#xd8;" horiz-adv-x="689" 
d="M433 570q-11 1 -23 0.5t-24 -2.5q-47 -8 -85.5 -36t-66 -71t-42.5 -96t-15 -110q0 -32 8 -57t25 -42l223 414v0zM555 426q0 33 -9 59t-28 43l-227 -421q27 -3 57 3q44 8 82 36t65.5 70t43.5 96t16 114zM688 439q0 -98 -31 -180.5t-85 -142.5t-125.5 -93.5t-152.5 -33.5
q-35 0 -63 6l-52 -99l-91 33l52 97q-49 31 -72.5 84t-23.5 125q0 92 29.5 174t82 143.5t124.5 97.5t157 36q15 0 28.5 -1t26.5 -4l49 93l90 -32l-48 -90q52 -29 78.5 -83t26.5 -130z" />
    <glyph glyph-name="Ugrave" unicode="&#xd9;" horiz-adv-x="667" 
d="M602 248q-26 -134 -107 -196.5t-209 -62.5q-76 0 -123 20t-70.5 55t-27 82t6.5 101l81 428h128l-84 -438q-13 -69 10.5 -104.5t96.5 -35.5q75 0 116 37.5t58 124.5l80 416h126zM484 716l-209 53l40 92l197 -75z" />
    <glyph glyph-name="Uacute" unicode="&#xda;" horiz-adv-x="667" 
d="M602 248q-26 -134 -107 -196.5t-209 -62.5q-76 0 -123 20t-70.5 55t-27 82t6.5 101l81 428h128l-84 -438q-13 -69 10.5 -104.5t96.5 -35.5q75 0 116 37.5t58 124.5l80 416h126zM374 716l-14 70l212 75l19 -92z" />
    <glyph glyph-name="Ucircumflex" unicode="&#xdb;" horiz-adv-x="667" 
d="M602 248q-26 -134 -107 -196.5t-209 -62.5q-76 0 -123 20t-70.5 55t-27 82t6.5 101l81 428h128l-84 -438q-13 -69 10.5 -104.5t96.5 -35.5q75 0 116 37.5t58 124.5l80 416h126zM557 715l-125 60l-141 -60l-24 62l173 87l152 -85z" />
    <glyph glyph-name="Udieresis" unicode="&#xdc;" horiz-adv-x="667" 
d="M602 248q-26 -134 -107 -196.5t-209 -62.5q-76 0 -123 20t-70.5 55t-27 82t6.5 101l81 428h128l-84 -438q-13 -69 10.5 -104.5t96.5 -35.5q75 0 116 37.5t58 124.5l80 416h126zM391 787q0 -30 -20.5 -49t-47.5 -19t-45 18t-18 44q0 30 20 50t47 20q28 0 46 -19t18 -45z
M600 787q0 -30 -20 -49t-47 -19t-45 18t-18 44q0 30 20 50t47 20t45 -19t18 -45z" />
    <glyph glyph-name="Yacute" unicode="&#xdd;" 
d="M339 239l-45 -239h-127l45 238l-124 437h134l51 -194q15 -61 24 -112h2q16 29 36 61t41 64l116 181h141zM320 716l-14 70l212 75l19 -92z" />
    <glyph glyph-name="Thorn" unicode="&#xde;" horiz-adv-x="532" 
d="M414 387q0 39 -25 64.5t-84 25.5q-14 0 -31 -1t-31 -3l-45 -239q23 -4 51 -4q39 0 69.5 12.5t51.5 34.5t32.5 50t11.5 60zM549 409q0 -59 -22.5 -110.5t-64 -90.5t-100 -61.5t-130.5 -22.5h-32q-12 0 -23 2l-24 -126h-127l128 675h128l-18 -94q17 1 34.5 1.5t37.5 0.5
q106 0 159.5 -45.5t53.5 -128.5z" />
    <glyph glyph-name="germandbls" unicode="&#xdf;" horiz-adv-x="589" 
d="M568 604q0 -35 -11 -59.5t-27 -43t-35.5 -33t-35.5 -28.5t-27 -30t-11 -38q0 -25 17 -46.5t37 -44.5t37 -51.5t17 -67.5q0 -33 -14 -64t-42 -55t-70 -38.5t-97 -14.5q-26 0 -46.5 2t-39.5 5l22 107q36 -14 74 -14t59 16t21 45q0 27 -16.5 47.5t-36 43t-36 50t-16.5 66.5
q0 48 22.5 78t50 53t50 45.5t22.5 56.5q0 20 -15.5 33.5t-46.5 13.5q-48 0 -81 -33t-47 -105l-99 -519q-23 -124 -82.5 -177t-156.5 -53q-17 0 -36.5 2.5t-36.5 5.5l29 103q13 -4 26.5 -5t26.5 -1q22 0 38.5 6t29 20.5t21.5 38.5t16 61l97 512q24 126 96 184.5t175 58.5
q82 0 130 -35t48 -98z" />
    <glyph glyph-name="agrave" unicode="&#xe0;" horiz-adv-x="542" 
d="M383 399q-12 3 -25.5 5t-30.5 2q-43 0 -74.5 -22.5t-52.5 -57.5t-31 -77t-10 -81q0 -37 9.5 -53t28.5 -16q27 0 55.5 27t53.5 67.5t44 87.5t27 86l6 32v0zM525 491q-17 -87 -30 -156t-24 -127t-20 -108.5t-17 -99.5h-124q7 29 18.5 67.5t28.5 90.5h-2q-15 -27 -35.5 -57
t-46.5 -55t-57.5 -41t-68.5 -16q-57 0 -87 37.5t-30 117.5q0 70 19 135.5t58.5 116t99.5 80.5t142 30q45 0 89.5 -3.5t86.5 -11.5zM405 560l-172 111l62 83l162 -126z" />
    <glyph glyph-name="aacute" unicode="&#xe1;" horiz-adv-x="542" 
d="M383 399q-12 3 -25.5 5t-30.5 2q-43 0 -74.5 -22.5t-52.5 -57.5t-31 -77t-10 -81q0 -37 9.5 -53t28.5 -16q27 0 55.5 27t53.5 67.5t44 87.5t27 86l6 32v0zM525 491q-17 -87 -30 -156t-24 -127t-20 -108.5t-17 -99.5h-124q7 29 18.5 67.5t28.5 90.5h-2q-15 -27 -35.5 -57
t-46.5 -55t-57.5 -41t-68.5 -16q-57 0 -87 37.5t-30 117.5q0 70 19 135.5t58.5 116t99.5 80.5t142 30q45 0 89.5 -3.5t86.5 -11.5zM327 560l-42 70l179 124l52 -87z" />
    <glyph glyph-name="acircumflex" unicode="&#xe2;" horiz-adv-x="542" 
d="M383 399q-12 3 -25.5 5t-30.5 2q-43 0 -74.5 -22.5t-52.5 -57.5t-31 -77t-10 -81q0 -37 9.5 -53t28.5 -16q27 0 55.5 27t53.5 67.5t44 87.5t27 86l6 32v0zM525 491q-17 -87 -30 -156t-24 -127t-20 -108.5t-17 -99.5h-124q7 29 18.5 67.5t28.5 90.5h-2q-15 -27 -35.5 -57
t-46.5 -55t-57.5 -41t-68.5 -16q-57 0 -87 37.5t-30 117.5q0 70 19 135.5t58.5 116t99.5 80.5t142 30q45 0 89.5 -3.5t86.5 -11.5zM454 560l-86 81l-116 -81l-42 58l174 136l126 -135z" />
    <glyph glyph-name="atilde" unicode="&#xe3;" horiz-adv-x="542" 
d="M383 399q-12 3 -25.5 5t-30.5 2q-43 0 -74.5 -22.5t-52.5 -57.5t-31 -77t-10 -81q0 -37 9.5 -53t28.5 -16q27 0 55.5 27t53.5 67.5t44 87.5t27 86l6 32v0zM525 491q-17 -87 -30 -156t-24 -127t-20 -108.5t-17 -99.5h-124q7 29 18.5 67.5t28.5 90.5h-2q-15 -27 -35.5 -57
t-46.5 -55t-57.5 -41t-68.5 -16q-57 0 -87 37.5t-30 117.5q0 70 19 135.5t58.5 116t99.5 80.5t142 30q45 0 89.5 -3.5t86.5 -11.5zM543 669q-46 -89 -125 -89q-24 0 -40 8t-28.5 17t-24 17t-25.5 8q-33 0 -58 -45l-59 47q23 44 54.5 66.5t69.5 22.5q24 0 40.5 -8t29.5 -17
t24.5 -17t25.5 -8q31 0 57 45l59 -47v0z" />
    <glyph glyph-name="adieresis" unicode="&#xe4;" horiz-adv-x="542" 
d="M383 399q-12 3 -25.5 5t-30.5 2q-43 0 -74.5 -22.5t-52.5 -57.5t-31 -77t-10 -81q0 -37 9.5 -53t28.5 -16q27 0 55.5 27t53.5 67.5t44 87.5t27 86l6 32v0zM525 491q-17 -87 -30 -156t-24 -127t-20 -108.5t-17 -99.5h-124q7 29 18.5 67.5t28.5 90.5h-2q-15 -27 -35.5 -57
t-46.5 -55t-57.5 -41t-68.5 -16q-57 0 -87 37.5t-30 117.5q0 70 19 135.5t58.5 116t99.5 80.5t142 30q45 0 89.5 -3.5t86.5 -11.5zM326 651q0 -31 -21 -51.5t-50 -20.5t-48 20t-19 47q0 31 21 51t50 20t48 -19.5t19 -46.5zM528 651q0 -31 -21 -51.5t-50 -20.5t-48 20t-19 48
q0 30 21.5 50t50.5 20t47.5 -19.5t18.5 -46.5z" />
    <glyph glyph-name="aring" unicode="&#xe5;" horiz-adv-x="542" 
d="M383 399q-12 3 -25.5 5t-30.5 2q-43 0 -74.5 -22.5t-52.5 -57.5t-31 -77t-10 -81q0 -37 9.5 -53t28.5 -16q27 0 55.5 27t53.5 67.5t44 87.5t27 86l6 32v0zM525 491q-17 -87 -30 -156t-24 -127t-20 -108.5t-17 -99.5h-124q7 29 18.5 67.5t28.5 90.5h-2q-15 -27 -35.5 -57
t-46.5 -55t-57.5 -41t-68.5 -16q-57 0 -87 37.5t-30 117.5q0 70 19 135.5t58.5 116t99.5 80.5t142 30q45 0 89.5 -3.5t86.5 -11.5zM429 671q0 20 -13.5 35t-36.5 15t-39 -16.5t-16 -39.5q0 -21 14 -36t36 -15q23 0 39 16.5t16 40.5zM503 674q0 -28 -11 -51.5t-29 -40.5
t-42 -26.5t-50 -9.5t-48 8.5t-38.5 24t-25.5 36.5t-9 46q0 29 11 52.5t29 40.5t42 26t50 9t48 -9t38.5 -24.5t25.5 -36.5t9 -45z" />
    <glyph glyph-name="ae" unicode="&#xe6;" horiz-adv-x="762" 
d="M312 210q-39 -2 -71 -6t-55 -13.5t-35.5 -24.5t-12.5 -37q0 -18 12.5 -30t34.5 -12q25 0 46.5 10t38 27t27.5 39.5t15 46.5zM627 369q0 21 -14.5 33t-37.5 12q-24 0 -43.5 -10t-35 -27t-26.5 -39t-18 -46q39 2 71 6.5t55 13t36 22.5t13 35zM751 386q0 -39 -16.5 -70.5
t-53.5 -54.5t-97 -36.5t-147 -16.5q-3 -20 -3 -44q0 -43 20 -58.5t72 -15.5q35 0 72.5 8t72.5 22v-98q-42 -16 -89 -24t-97 -8q-75 0 -109.5 26.5t-47.5 71.5q-27 -42 -75.5 -70t-105.5 -28q-37 0 -62 9.5t-40.5 26t-22.5 37.5t-7 44q0 49 22.5 83.5t64 56.5t99 33.5
t127.5 13.5l6 26q9 42 -7 65t-70 23q-32 0 -71 -9t-74 -27v105q41 15 85.5 23t87.5 8q64 0 95.5 -17.5t46.5 -43.5q26 23 69.5 42t91.5 19q47 0 78.5 -10.5t50 -28t26.5 -39.5t8 -44z" />
    <glyph glyph-name="ccedilla" unicode="&#xe7;" horiz-adv-x="404" 
d="M393 384q-33 15 -77 15q-39 0 -67.5 -19.5t-47.5 -50t-28 -67.5t-9 -72q0 -18 4 -34t14.5 -28t27 -19t42.5 -7q24 0 48 5t44 13l-8 -109q-26 -10 -57.5 -15.5t-63.5 -5.5q-50 0 -85 12t-57 34.5t-32 54.5t-10 71q0 71 20.5 134t58.5 110t92 74t122 27q27 0 51.5 -3.5
t47.5 -9.5zM214 -40q29 -54 15 -102t-62 -92h-101q43 44 55 80.5t-15 81.5l108 32v0z" />
    <glyph glyph-name="egrave" unicode="&#xe8;" horiz-adv-x="485" 
d="M350 369q0 21 -13.5 32.5t-37.5 11.5t-44 -10.5t-35.5 -27.5t-26.5 -40t-18 -47q87 3 131 22t44 59zM474 386q0 -45 -21.5 -78t-62 -55.5t-98.5 -35t-131 -14.5q-1 -8 -2 -19.5t-1 -19.5q0 -43 19.5 -58.5t71.5 -15.5q36 0 72.5 8t71.5 22l2 -98q-42 -16 -89.5 -24
t-97.5 -8q-95 0 -135.5 42.5t-40.5 125.5q0 78 22 142.5t60.5 110t89.5 71t109 25.5q46 0 77 -10.5t49.5 -27.5t26.5 -39t8 -44zM372 560l-172 111l62 83l162 -126z" />
    <glyph glyph-name="eacute" unicode="&#xe9;" horiz-adv-x="485" 
d="M350 369q0 21 -13.5 32.5t-37.5 11.5t-44 -10.5t-35.5 -27.5t-26.5 -40t-18 -47q87 3 131 22t44 59zM474 386q0 -45 -21.5 -78t-62 -55.5t-98.5 -35t-131 -14.5q-1 -8 -2 -19.5t-1 -19.5q0 -43 19.5 -58.5t71.5 -15.5q36 0 72.5 8t71.5 22l2 -98q-42 -16 -89.5 -24
t-97.5 -8q-95 0 -135.5 42.5t-40.5 125.5q0 78 22 142.5t60.5 110t89.5 71t109 25.5q46 0 77 -10.5t49.5 -27.5t26.5 -39t8 -44zM285 560l-42 70l179 124l52 -87z" />
    <glyph glyph-name="ecircumflex" unicode="&#xea;" horiz-adv-x="468" 
d="M350 369q0 21 -13.5 32.5t-37.5 11.5t-44 -10.5t-35.5 -27.5t-26.5 -40t-18 -47q87 3 131 22t44 59zM474 386q0 -45 -21.5 -78t-62 -55.5t-98.5 -35t-131 -14.5q-1 -8 -2 -19.5t-1 -19.5q0 -43 19.5 -58.5t71.5 -15.5q36 0 72.5 8t71.5 22l2 -98q-42 -16 -89.5 -24
t-97.5 -8q-95 0 -135.5 42.5t-40.5 125.5q0 78 22 142.5t60.5 110t89.5 71t109 25.5q46 0 77 -10.5t49.5 -27.5t26.5 -39t8 -44zM422 560l-86 81l-116 -81l-42 58l174 136l126 -135z" />
    <glyph glyph-name="edieresis" unicode="&#xeb;" horiz-adv-x="485" 
d="M350 369q0 21 -13.5 32.5t-37.5 11.5t-44 -10.5t-35.5 -27.5t-26.5 -40t-18 -47q87 3 131 22t44 59zM474 386q0 -45 -21.5 -78t-62 -55.5t-98.5 -35t-131 -14.5q-1 -8 -2 -19.5t-1 -19.5q0 -43 19.5 -58.5t71.5 -15.5q36 0 72.5 8t71.5 22l2 -98q-42 -16 -89.5 -24
t-97.5 -8q-95 0 -135.5 42.5t-40.5 125.5q0 78 22 142.5t60.5 110t89.5 71t109 25.5q46 0 77 -10.5t49.5 -27.5t26.5 -39t8 -44zM305 651q0 -31 -21 -51.5t-50 -20.5t-48 20t-19 47q0 31 21 51t50 20t48 -19.5t19 -46.5zM507 651q0 -31 -21 -51.5t-50 -20.5t-48 20t-19 48
q0 30 21.5 50t50.5 20t47.5 -19.5t18.5 -46.5z" />
    <glyph glyph-name="igrave" unicode="&#xec;" horiz-adv-x="262" 
d="M150 0h-125l95 497h125zM242 560l-172 111l62 83l162 -126z" />
    <glyph glyph-name="iacute" unicode="&#xed;" horiz-adv-x="262" 
d="M150 0h-125l95 497h125zM144 560l-42 70l179 124l52 -87z" />
    <glyph glyph-name="icircumflex" unicode="&#xee;" horiz-adv-x="262" 
d="M150 0h-125l95 497h125zM295 560l-86 81l-116 -81l-42 58l174 136l126 -135z" />
    <glyph glyph-name="idieresis" unicode="&#xef;" horiz-adv-x="262" 
d="M150 0h-125l95 497h125zM171 651q0 -31 -21 -51.5t-50 -20.5t-48 20t-19 47q0 31 21 51t50 20t48 -19.5t19 -46.5zM373 651q0 -31 -21 -51.5t-50 -20.5t-48 20t-19 48q0 30 21.5 50t50.5 20t47.5 -19.5t18.5 -46.5z" />
    <glyph glyph-name="eth" unicode="&#xf0;" horiz-adv-x="544" 
d="M391 311q0 39 -20 63.5t-60 24.5q-35 0 -62.5 -17t-46.5 -45t-29.5 -64t-10.5 -74q0 -49 21.5 -74.5t59.5 -25.5q43 0 72 24.5t45.5 58t23.5 69.5t7 60zM455 631q38 -60 55 -123t17 -129q0 -93 -24.5 -165.5t-65.5 -122t-95 -75.5t-112 -26q-93 0 -146 43.5t-53 140.5
q0 71 22.5 131.5t61.5 105t91 69.5t111 25q26 0 47.5 -7t30.5 -24q-8 24 -16 41q-8 19 -17.5 36t-20.5 33l-102 -43l-38 63l91 38q-14 15 -29 28t-31 27l122 53q15 -14 30 -29t26 -29l99 41l38 -63z" />
    <glyph glyph-name="ntilde" unicode="&#xf1;" horiz-adv-x="559" 
d="M449 0h-126l60 312q9 46 1.5 66t-31.5 20q-25 0 -53 -26t-53.5 -66.5t-45 -88.5t-27.5 -91l-24 -126h-125l50 260q3 17 9.5 50t13 69t12 68.5t8.5 49.5h123q-5 -23 -15 -59t-30 -95l2 -1q17 33 38.5 63.5t47.5 53t56.5 36t66.5 13.5t59.5 -12t36.5 -34t15.5 -52.5
t-4.5 -66.5zM529 669q-46 -89 -125 -89q-24 0 -40 8t-28.5 17t-24 17t-25.5 8q-33 0 -58 -45l-59 47q23 44 54.5 66.5t69.5 22.5q24 0 40.5 -8t29.5 -17t24.5 -17t25.5 -8q31 0 57 45l59 -47v0z" />
    <glyph glyph-name="ograve" unicode="&#xf2;" horiz-adv-x="545" 
d="M393 310q0 43 -19 65.5t-63 22.5q-35 0 -62.5 -19t-47 -49t-29.5 -67.5t-10 -74.5q0 -41 18 -64.5t62 -23.5q33 0 61 17t48 46t31 67t11 80zM525 326q0 -77 -25 -139t-66.5 -106t-96 -67.5t-112.5 -23.5q-104 0 -149 47t-45 131q0 78 24.5 140.5t65.5 107t95 68t114 23.5
q53 0 90 -13.5t60.5 -37.5t34 -57.5t10.5 -72.5zM385 560l-172 111l62 83l162 -126z" />
    <glyph glyph-name="oacute" unicode="&#xf3;" horiz-adv-x="545" 
d="M393 310q0 43 -19 65.5t-63 22.5q-35 0 -62.5 -19t-47 -49t-29.5 -67.5t-10 -74.5q0 -41 18 -64.5t62 -23.5q33 0 61 17t48 46t31 67t11 80zM525 326q0 -77 -25 -139t-66.5 -106t-96 -67.5t-112.5 -23.5q-104 0 -149 47t-45 131q0 78 24.5 140.5t65.5 107t95 68t114 23.5
q53 0 90 -13.5t60.5 -37.5t34 -57.5t10.5 -72.5zM310 560l-42 70l179 124l52 -87z" />
    <glyph glyph-name="ocircumflex" unicode="&#xf4;" horiz-adv-x="545" 
d="M393 310q0 43 -19 65.5t-63 22.5q-35 0 -62.5 -19t-47 -49t-29.5 -67.5t-10 -74.5q0 -41 18 -64.5t62 -23.5q33 0 61 17t48 46t31 67t11 80zM525 326q0 -77 -25 -139t-66.5 -106t-96 -67.5t-112.5 -23.5q-104 0 -149 47t-45 131q0 78 24.5 140.5t65.5 107t95 68t114 23.5
q53 0 90 -13.5t60.5 -37.5t34 -57.5t10.5 -72.5zM448 560l-86 81l-116 -81l-42 58l174 136l126 -135z" />
    <glyph glyph-name="otilde" unicode="&#xf5;" horiz-adv-x="545" 
d="M393 310q0 43 -19 65.5t-63 22.5q-35 0 -62.5 -19t-47 -49t-29.5 -67.5t-10 -74.5q0 -41 18 -64.5t62 -23.5q33 0 61 17t48 46t31 67t11 80zM525 326q0 -77 -25 -139t-66.5 -106t-96 -67.5t-112.5 -23.5q-104 0 -149 47t-45 131q0 78 24.5 140.5t65.5 107t95 68t114 23.5
q53 0 90 -13.5t60.5 -37.5t34 -57.5t10.5 -72.5zM532 669q-46 -89 -125 -89q-24 0 -40 8t-28.5 17t-24 17t-25.5 8q-33 0 -58 -45l-59 47q23 44 54.5 66.5t69.5 22.5q24 0 40.5 -8t29.5 -17t24.5 -17t25.5 -8q31 0 57 45l59 -47v0z" />
    <glyph glyph-name="odieresis" unicode="&#xf6;" horiz-adv-x="545" 
d="M393 310q0 43 -19 65.5t-63 22.5q-35 0 -62.5 -19t-47 -49t-29.5 -67.5t-10 -74.5q0 -41 18 -64.5t62 -23.5q33 0 61 17t48 46t31 67t11 80zM525 326q0 -77 -25 -139t-66.5 -106t-96 -67.5t-112.5 -23.5q-104 0 -149 47t-45 131q0 78 24.5 140.5t65.5 107t95 68t114 23.5
q53 0 90 -13.5t60.5 -37.5t34 -57.5t10.5 -72.5zM322 651q0 -31 -21 -51.5t-50 -20.5t-48 20t-19 47q0 31 21 51t50 20t48 -19.5t19 -46.5zM524 651q0 -31 -21 -51.5t-50 -20.5t-48 20t-19 48q0 30 21.5 50t50.5 20t47.5 -19.5t18.5 -46.5z" />
    <glyph glyph-name="divide" unicode="&#xf7;" 
d="M326 100q0 -17 -6.5 -32t-17.5 -26t-25.5 -17t-30.5 -6q-32 0 -53.5 22.5t-21.5 52.5q0 17 6.5 32t17.5 26t25.5 17t30.5 6q32 0 53.5 -22.5t21.5 -52.5zM514 244h-472l21 107h471zM404 501q0 -17 -6.5 -32t-18 -26t-26 -17t-30.5 -6q-32 0 -53.5 22.5t-21.5 53.5
q0 17 6.5 31.5t17.5 25.5t25.5 17.5t30.5 6.5q32 0 54 -23t22 -53z" />
    <glyph glyph-name="oslash" unicode="&#xf8;" horiz-adv-x="545" 
d="M320 403q-13 1 -28 0q-30 -3 -55.5 -21t-44.5 -46t-29.5 -64.5t-10.5 -76.5q0 -38 15 -59l153 267v0zM403 310q0 39 -22 60l-154 -274q15 -3 34 -2q33 4 59 24.5t44.5 50.5t28.5 67t10 74zM525 326q0 -77 -25 -139t-66.5 -106t-95.5 -67.5t-112 -23.5q-15 0 -28.5 1.5
t-25.5 3.5l-57 -101l-69 33l53 93q-35 22 -51.5 59.5t-16.5 88.5q0 73 22 135t61.5 107.5t94.5 71t121 25.5q24 0 45 -3l58 103l68 -32l-54 -94q42 -23 60 -63t18 -92z" />
    <glyph glyph-name="ugrave" unicode="&#xf9;" horiz-adv-x="558" 
d="M493 237q-3 -17 -9.5 -50t-13 -69t-12 -68.5t-8.5 -49.5h-122q4 23 14 59t30 95l-2 1q-17 -33 -38.5 -63.5t-47.5 -53t-56.5 -36t-66.5 -13.5t-60 12t-36.5 34t-15 52.5t4.5 66.5l66 343h125l-60 -312q-8 -46 -1 -66t31 -20q25 0 53 26t53.5 66.5t45 88t27.5 91.5l24 126
h125zM373 560l-172 111l62 83l162 -126z" />
    <glyph glyph-name="uacute" unicode="&#xfa;" horiz-adv-x="558" 
d="M493 237q-3 -17 -9.5 -50t-13 -69t-12 -68.5t-8.5 -49.5h-122q4 23 14 59t30 95l-2 1q-17 -33 -38.5 -63.5t-47.5 -53t-56.5 -36t-66.5 -13.5t-60 12t-36.5 34t-15 52.5t4.5 66.5l66 343h125l-60 -312q-8 -46 -1 -66t31 -20q25 0 53 26t53.5 66.5t45 88t27.5 91.5l24 126
h125zM314 560l-42 70l179 124l52 -87z" />
    <glyph glyph-name="ucircumflex" unicode="&#xfb;" horiz-adv-x="558" 
d="M493 237q-3 -17 -9.5 -50t-13 -69t-12 -68.5t-8.5 -49.5h-122q4 23 14 59t30 95l-2 1q-17 -33 -38.5 -63.5t-47.5 -53t-56.5 -36t-66.5 -13.5t-60 12t-36.5 34t-15 52.5t4.5 66.5l66 343h125l-60 -312q-8 -46 -1 -66t31 -20q25 0 53 26t53.5 66.5t45 88t27.5 91.5l24 126
h125zM443 560l-86 81l-116 -81l-42 58l174 136l126 -135z" />
    <glyph glyph-name="udieresis" unicode="&#xfc;" horiz-adv-x="558" 
d="M493 237q-3 -17 -9.5 -50t-13 -69t-12 -68.5t-8.5 -49.5h-122q4 23 14 59t30 95l-2 1q-17 -33 -38.5 -63.5t-47.5 -53t-56.5 -36t-66.5 -13.5t-60 12t-36.5 34t-15 52.5t4.5 66.5l66 343h125l-60 -312q-8 -46 -1 -66t31 -20q25 0 53 26t53.5 66.5t45 88t27.5 91.5l24 126
h125zM318 651q0 -31 -21 -51.5t-50 -20.5t-48 20t-19 47q0 31 21 51t50 20t48 -19.5t19 -46.5zM520 651q0 -31 -21 -51.5t-50 -20.5t-48 20t-19 48q0 30 21.5 50t50.5 20t47.5 -19.5t18.5 -46.5z" />
    <glyph glyph-name="yacute" unicode="&#xfd;" horiz-adv-x="512" 
d="M544 484q-54 -124 -102.5 -223t-94 -177t-89.5 -137t-88 -103q-50 -49 -96.5 -71t-95.5 -22q-40 0 -74 8l21 110q27 -10 61 -10q24 0 48.5 10.5t44.5 30.5q23 23 34.5 52.5t11.5 75.5q0 107 -21.5 226.5t-55.5 242.5h140q10 -41 19.5 -87t16 -92.5t10.5 -91.5t4 -84
q0 -20 -5 -42h2q50 92 95.5 192.5t94.5 225.5l119 -34v0zM282 560l-42 70l179 124l52 -87z" />
    <glyph glyph-name="thorn" unicode="&#xfe;" horiz-adv-x="542" 
d="M393 329q0 37 -10 53t-28 16q-27 0 -55.5 -27t-53.5 -67.5t-44 -86.5t-26 -85l-6 -32q12 -4 27 -6.5t29 -2.5q43 0 74.5 22.5t52 57.5t30.5 77t10 81zM522 353q0 -71 -19 -136t-58.5 -115.5t-99.5 -80.5t-142 -30q-14 0 -26 1t-28 3l-44 -236h-125l185 971h127l-32 -165
q-5 -28 -10.5 -53t-13 -50.5t-17 -54t-22.5 -62.5l3 -1q18 35 40.5 65t48.5 52t55.5 34.5t62.5 12.5q57 0 86 -37.5t29 -117.5z" />
    <glyph glyph-name="ydieresis" unicode="&#xff;" horiz-adv-x="512" 
d="M544 484q-54 -124 -102.5 -223t-94 -177t-89.5 -137t-88 -103q-50 -49 -96.5 -71t-95.5 -22q-40 0 -74 8l21 110q27 -10 61 -10q24 0 48.5 10.5t44.5 30.5q23 23 34.5 52.5t11.5 75.5q0 107 -21.5 226.5t-55.5 242.5h140q10 -41 19.5 -87t16 -92.5t10.5 -91.5t4 -84
q0 -20 -5 -42h2q50 92 95.5 192.5t94.5 225.5l119 -34v0zM286 651q0 -31 -21 -51.5t-50 -20.5t-48 20t-19 47q0 31 21 51t50 20t48 -19.5t19 -46.5zM488 651q0 -31 -21 -51.5t-50 -20.5t-48 20t-19 48q0 30 21.5 50t50.5 20t47.5 -19.5t18.5 -46.5z" />
    <glyph glyph-name="dotlessi" unicode="&#x131;" horiz-adv-x="262" 
d="M150 0h-125l95 497h125z" />
    <glyph glyph-name="Lslash" unicode="&#x141;" horiz-adv-x="428" 
d="M374 0h-342l58 308l-60 -22l-19 99l102 39l47 251h127l-37 -196l98 37l19 -99l-139 -53l-47 -250h215z" />
    <glyph glyph-name="lslash" unicode="&#x142;" horiz-adv-x="304" 
d="M264 472l-89 -472h-125l80 423l-56 -22l-19 94l95 35l39 200h125l-29 -149l63 23l19 -94z" />
    <glyph glyph-name="OE" unicode="&#x152;" horiz-adv-x="843" 
d="M491 556q-37 13 -73 13q-54 0 -98 -26t-74.5 -69.5t-47.5 -100t-17 -116.5q0 -72 32.5 -111t98.5 -39q52 0 98 16l81 433v0zM853 566h-232l-31 -166h220l-20 -106h-220l-35 -183h232l-22 -111h-347q-53 -11 -104 -11q-128 0 -189 65.5t-61 180.5q0 91 30 173t83.5 144
t125.5 98t156 36q29 0 53.5 -3t47.5 -8h334z" />
    <glyph glyph-name="oe" unicode="&#x153;" horiz-adv-x="828" 
d="M393 310q0 43 -19 65.5t-63 22.5q-35 0 -62.5 -19t-47 -49t-29.5 -67.5t-10 -74.5q0 -41 18 -64.5t62 -23.5q33 0 61 17t48 46t31 67t11 80zM694 369q0 21 -13.5 32.5t-37.5 11.5t-44 -10.5t-35.5 -27.5t-26.5 -40t-18 -47q87 3 131 22t44 59zM818 386q0 -45 -21.5 -78
t-62 -55.5t-98.5 -35t-131 -14.5q-1 -8 -2 -19.5t-1 -19.5q0 -43 19.5 -58.5t71.5 -15.5q36 0 73 8t71 22l2 -98q-42 -16 -89.5 -24t-97.5 -8q-60 0 -96 18t-50 58q-35 -36 -82 -56t-98 -20q-104 0 -149.5 47t-45.5 131q0 78 24.5 140.5t65.5 107t95 68t114 23.5
q59 0 98 -19.5t59 -55.5q32 35 73 55t97 20q46 0 77 -10.5t50 -27.5t26.5 -39t7.5 -44z" />
    <glyph glyph-name="Scaron" unicode="&#x160;" horiz-adv-x="460" 
d="M441 562q-24 8 -49 12t-46 4q-32 0 -55 -7.5t-38 -19.5t-22 -28t-7 -33q0 -25 14.5 -43.5t36 -35t47 -32.5t47 -37.5t36 -50t14.5 -68.5q0 -49 -20.5 -91.5t-58 -74t-89 -50t-113.5 -18.5q-32 0 -64 3.5t-58 11.5l23 123q24 -11 52.5 -17.5t55.5 -6.5q65 0 98.5 26
t33.5 72q0 25 -14.5 42.5t-35.5 32.5t-46.5 30.5t-46.5 36.5t-35.5 49t-14.5 68q0 46 17 87t50 72t83 49t116 18q29 0 55.5 -2t55.5 -7zM325 715l-152 86l35 63l126 -59l140 59l24 -62z" />
    <glyph glyph-name="scaron" unicode="&#x161;" horiz-adv-x="377" 
d="M338 402q-17 5 -33.5 7.5t-33.5 2.5q-39 0 -58 -14.5t-19 -38.5q0 -23 20 -41.5t44.5 -40t44.5 -49.5t20 -69q0 -31 -13.5 -61.5t-41.5 -54.5t-71 -38.5t-101 -14.5q-50 0 -87 9l23 107q17 -7 37 -11t39 -4q38 0 60.5 14.5t22.5 41.5q0 25 -20 43t-44 38t-44 47t-20 71
q0 34 13.5 63.5t40 51t66.5 34t94 12.5q49 0 84 -7zM245 560l-126 134l55 60l87 -82l116 82l42 -59z" />
    <glyph glyph-name="Ydieresis" unicode="&#x178;" 
d="M339 239l-45 -239h-127l45 238l-124 437h134l51 -194q15 -61 24 -112h2q16 29 36 61t41 64l116 181h141zM333 787q0 -30 -20.5 -49t-47.5 -19t-45 18t-18 44q0 30 20 50t47 20q28 0 46 -19t18 -45zM542 787q0 -30 -20 -49t-47 -19t-45 18t-18 44q0 30 20 50t47 20t45 -19
t18 -45z" />
    <glyph glyph-name="florin" unicode="&#x192;" 
d="M569 583q-20 8 -42 11.5t-40 3.5q-42 0 -69 -24t-43 -84l-32 -117h141l-15 -99h-151l-60 -224q-29 -111 -92.5 -161t-166.5 -50q-20 0 -44 3t-45 8l25 108q20 -5 42.5 -9.5t42.5 -4.5q40 0 67 24t43 83l61 223h-114l15 99h123l35 123q29 105 90 156t166 51q20 0 44 -3
t45 -8z" />
    <glyph glyph-name="circumflex" unicode="&#x2c6;" horiz-adv-x="418" 
d="M321 560l-86 81l-116 -81l-42 58l174 136l126 -135z" />
    <glyph glyph-name="caron" unicode="&#x2c7;" horiz-adv-x="418" 
d="M215 560l-126 134l55 60l87 -82l116 82l42 -59z" />
    <glyph glyph-name="breve" unicode="&#x2d8;" horiz-adv-x="365" 
d="M396 724q-4 -30 -15.5 -58t-31 -49t-47.5 -33.5t-64 -12.5t-59.5 13t-37 34t-17 48.5t0.5 57.5h83q-4 -26 6 -42.5t36 -16.5q23 0 39 15t21 44h86v0z" />
    <glyph glyph-name="dotaccent" unicode="&#x2d9;" horiz-adv-x="281" 
d="M298 655q0 -37 -25 -60.5t-58 -23.5q-34 0 -54.5 22t-20.5 51q0 18 7 33t18.5 26t26.5 17t32 6q33 0 53.5 -21.5t20.5 -49.5z" />
    <glyph glyph-name="ring" unicode="&#x2da;" horiz-adv-x="358" 
d="M308 668q0 20 -13.5 35t-36.5 15t-39 -16.5t-16 -39.5q0 -21 14 -36t36 -15q23 0 39 16.5t16 40.5zM382 671q0 -28 -11 -51.5t-29 -40.5t-42 -26.5t-50 -9.5t-48 8.5t-38.5 24t-25.5 36.5t-9 46q0 29 11 52.5t29 40.5t42 26t50 9t48 -9t38.5 -24.5t25.5 -36.5t9 -45z" />
    <glyph glyph-name="ogonek" unicode="&#x2db;" horiz-adv-x="423" 
d="M150 0q-48 -20 -72 -48t-24 -54q0 -25 30 -25q14 0 28 7t27 22l45 -59q-29 -32 -65.5 -49.5t-80.5 -17.5q-56 0 -80.5 26t-24.5 61q0 36 24.5 73t71.5 69z" />
    <glyph glyph-name="tilde" unicode="&#x2dc;" horiz-adv-x="458" 
d="M432 669q-46 -89 -125 -89q-24 0 -40 8t-28.5 17t-24 17t-25.5 8q-33 0 -58 -45l-59 47q23 44 54.5 66.5t69.5 22.5q24 0 40.5 -8t29.5 -17t24.5 -17t25.5 -8q31 0 57 45l59 -47v0z" />
    <glyph glyph-name="hungarumlaut" unicode="&#x2dd;" horiz-adv-x="494" 
d="M142 560l-56 51l146 155l66 -62zM330 560l-54 51l158 147l62 -67z" />
    <glyph glyph-name="Delta" unicode="&#x394;" horiz-adv-x="737" 
d="M429 536l-242 -419h326zM-13 0l413 700h125l148 -700h-686z" />
    <glyph glyph-name="Delta" unicode="&#x2206;" horiz-adv-x="737" 
d="M429 536l-242 -419h326zM-13 0l413 700h125l148 -700h-686z" />
    <glyph glyph-name="Omega" unicode="&#x3a9;" horiz-adv-x="699" 
d="M362 0l20 103q43 30 75 67t53 79t31 87.5t10 91.5q0 68 -31.5 105t-100.5 37q-56 0 -98.5 -29t-71 -73.5t-42.5 -98t-14 -101.5q0 -51 18 -89.5t60 -75.5l-19 -103h-259l21 105h125q-37 29 -58.5 71.5t-21.5 103.5q0 64 24 135.5t71.5 131.5t119 99.5t167.5 39.5
q55 0 101 -14t79 -43.5t51 -74t18 -105.5q0 -52 -11.5 -102t-33.5 -95t-54.5 -82.5t-74.5 -64.5h124l-21 -105h-257z" />
    <glyph glyph-name="Omega" unicode="&#x2126;" horiz-adv-x="699" 
d="M362 0l20 103q43 30 75 67t53 79t31 87.5t10 91.5q0 68 -31.5 105t-100.5 37q-56 0 -98.5 -29t-71 -73.5t-42.5 -98t-14 -101.5q0 -51 18 -89.5t60 -75.5l-19 -103h-259l21 105h125q-37 29 -58.5 71.5t-21.5 103.5q0 64 24 135.5t71.5 131.5t119 99.5t167.5 39.5
q55 0 101 -14t79 -43.5t51 -74t18 -105.5q0 -52 -11.5 -102t-33.5 -95t-54.5 -82.5t-74.5 -64.5h124l-21 -105h-257z" />
    <glyph glyph-name="pi" unicode="&#x3c0;" horiz-adv-x="617" 
d="M516 392q-15 -79 -22 -137t-7 -93q0 -38 9 -51.5t25 -13.5q7 0 15 1t17 3l-7 -102q-14 -4 -32.5 -6t-36.5 -2q-65 0 -92.5 32t-27.5 109q0 43 9 109t24 151h-126q-17 -99 -49.5 -203.5t-85.5 -204.5l-124 32q27 49 48.5 96t39 93t30 92t21.5 95h-103l22 105h577l-21 -105
h-103z" />
    <glyph glyph-name="endash" unicode="&#x2013;" 
d="M553 242h-550l21 111h550z" />
    <glyph glyph-name="emdash" unicode="&#x2014;" horiz-adv-x="1000" 
d="M892 242h-779l22 111h778z" />
    <glyph glyph-name="quoteleft" unicode="&#x2018;" horiz-adv-x="261" 
d="M315 699q-61 -50 -74 -85t7 -65q11 -17 11 -38q0 -20 -9 -38t-27 -30t-42 -12q-23 0 -42 12.5t-29 34.5t-8 52.5t19.5 66.5t53 75.5t94.5 80.5l46 -54v0z" />
    <glyph glyph-name="quoteright" unicode="&#x2019;" horiz-adv-x="261" 
d="M215 742q23 0 42 -12.5t29 -34.5t8 -52.5t-19.5 -66t-53.5 -75t-94 -80.5l-46 53q30 25 48 46.5t25.5 39.5t5.5 34t-12 31q-11 17 -11 37q0 21 9 38.5t27 29.5t42 12z" />
    <glyph glyph-name="quotesinglbase" unicode="&#x201a;" horiz-adv-x="261" 
d="M102 149q35 0 58.5 -27.5t20 -72.5t-41.5 -102.5t-125 -118.5l-46 53q30 25 48 46t25.5 39t5.5 34t-12 31q-11 17 -11 37q0 21 9 39t27 30t42 12z" />
    <glyph glyph-name="quotedblleft" unicode="&#x201c;" horiz-adv-x="475" 
d="M315 702q-30 -26 -48 -47t-25.5 -39t-5.5 -34t12 -31q11 -17 11 -38q0 -20 -9 -37.5t-27 -29.5t-42 -12q-35 0 -58.5 27.5t-20.5 72.5t41 102.5t126 118.5l46 -53v0zM536 702q-30 -26 -48 -47t-25.5 -39t-5.5 -34t12 -31q11 -17 11 -38q0 -20 -9 -37.5t-27 -29.5t-42 -12
q-35 0 -58.5 27.5t-20 72.5t41.5 102.5t125 118.5l46 -53v0z" />
    <glyph glyph-name="quotedblright" unicode="&#x201d;" horiz-adv-x="475" 
d="M215 747q35 0 58.5 -27.5t20.5 -72.5t-41 -102.5t-126 -118.5l-46 53q30 25 48 46t25.5 39t5.5 34t-12 31q-11 18 -11 38q0 21 9 38.5t27 29.5t42 12zM436 747q35 0 58.5 -27.5t20 -72.5t-41.5 -102.5t-125 -118.5l-46 53q30 25 48 46t25.5 39t5.5 34t-12 31
q-11 18 -11 38q0 21 9 38.5t27 29.5t42 12z" />
    <glyph glyph-name="quotedblbase" unicode="&#x201e;" horiz-adv-x="475" 
d="M102 149q35 0 58.5 -27.5t20 -72.5t-41.5 -102.5t-125 -118.5l-46 53q30 25 48 46t25.5 39t5.5 34t-12 31q-11 17 -11 37q0 21 9 39t27 30t42 12zM323 149q35 0 58.5 -27.5t20.5 -72.5t-41 -102.5t-126 -118.5l-46 53q30 25 48 46t25.5 39t5.5 34t-12 31q-11 17 -11 37
q0 21 9 39t27 30t42 12z" />
    <glyph glyph-name="dagger" unicode="&#x2020;" horiz-adv-x="448" 
d="M466 533h-131l3 -88l-71 -255h-98l26 255l37 88h-132l19 99h132l4 136h145l-47 -136h132z" />
    <glyph glyph-name="daggerdbl" unicode="&#x2021;" horiz-adv-x="448" 
d="M469 548h-130l3 -82l-35 -81h129l-18 -98h-130l-2 -122h-146l44 122h-131l19 98h130l-4 81l36 82h-131l19 98h130l3 122h145l-43 -122h131z" />
    <glyph glyph-name="bullet" unicode="&#x2022;" horiz-adv-x="423" 
d="M372 301q0 -32 -12 -59.5t-32.5 -48t-47.5 -32.5t-58 -12q-30 0 -56.5 11.5t-46 31t-30.5 45.5t-11 56q0 31 11.5 59t32 48.5t47.5 32.5t58 12t57.5 -11.5t46 -31t30.5 -45.5t11 -56z" />
    <glyph glyph-name="ellipsis" unicode="&#x2026;" horiz-adv-x="709" 
d="M174 70q0 -35 -23.5 -58t-55.5 -23t-53.5 22.5t-21.5 52.5q0 35 23.5 58t55.5 23t53.5 -22.5t21.5 -52.5zM402 70q0 -35 -23.5 -58t-55.5 -23t-53 22.5t-21 52.5q0 35 23.5 58t55.5 23t53 -22.5t21 -52.5zM631 70q0 -35 -23.5 -58t-55.5 -23t-53 22.5t-21 52.5
q0 35 23.5 58t55.5 23t53 -22.5t21 -52.5z" />
    <glyph glyph-name="perthousand" unicode="&#x2030;" horiz-adv-x="1039" 
d="M570 181q0 42 -36 42q-19 0 -32.5 -11.5t-22.5 -28t-13.5 -36.5t-4.5 -36q0 -23 9.5 -32.5t26.5 -9.5q19 0 33 11t23 27.5t13 36t4 37.5zM289 539q0 42 -37 42q-19 0 -32.5 -11t-22.5 -28t-13.5 -36.5t-4.5 -36.5q0 -23 10 -32.5t27 -9.5q19 0 33 11t23 27.5t13 36.5
t4 37zM892 181q0 42 -36 42q-19 0 -33 -11.5t-23 -28t-13 -36.5t-4 -36q0 -23 9.5 -32.5t26.5 -9.5q19 0 33 11t23 27.5t13 36t4 37.5zM662 189q0 -45 -14.5 -81.5t-38.5 -63t-55.5 -41t-65.5 -14.5q-57 0 -88 28t-31 86q0 43 14 79.5t38 63.5t55.5 42t65.5 15
q55 0 87.5 -27t32.5 -87zM91 -20l-63 62l629 627l63 -63zM381 548q0 -45 -14.5 -82t-38.5 -63.5t-55.5 -41t-65.5 -14.5q-57 0 -88 28.5t-31 86.5q0 43 14 79.5t38 63t55 41.5t65 15q55 0 88 -26.5t33 -86.5zM984 189q0 -45 -14.5 -81.5t-38.5 -63t-55.5 -41t-65.5 -14.5
q-57 0 -88 28t-31 86q0 43 14 79.5t38 63.5t55.5 42t65.5 15q55 0 87.5 -27t32.5 -87z" />
    <glyph glyph-name="guilsinglleft" unicode="&#x2039;" horiz-adv-x="306" 
d="M174 293l64 -147l-103 -46l-82 199l146 188l91 -49z" />
    <glyph glyph-name="guilsinglright" unicode="&#x203a;" horiz-adv-x="306" 
d="M135 100l-91 49l116 145l-63 147l103 46l81 -199z" />
    <glyph glyph-name="fraction" unicode="&#x2044;" horiz-adv-x="427" 
d="M-11 -34l-79 70l586 665l79 -70z" />
    <glyph glyph-name="fraction" unicode="&#x2215;" horiz-adv-x="427" 
d="M-11 -34l-79 70l586 665l79 -70z" />
    <glyph glyph-name="trademark" unicode="&#x2122;" horiz-adv-x="676" 
d="M319 598h-64l-39 -204h-89l39 204h-67l15 77h220zM673 394h-93l6 121l3 47l-17 -43l-56 -125h-82l-9 128v40l-10 -36l-42 -132h-84l96 281h107l10 -123l1 -41l13 39l58 125h107z" />
    <glyph glyph-name="partialdiff" unicode="&#x2202;" horiz-adv-x="623" 
d="M415 257q0 35 -22.5 60t-73.5 25q-29 0 -53.5 -12t-42 -32t-27.5 -47.5t-10 -58.5q0 -41 22.5 -65t66.5 -24q28 0 53.5 12t45 33t30.5 49t11 60zM599 459q0 -80 -23.5 -163t-68 -150.5t-110 -110t-149.5 -42.5q-47 0 -82.5 14t-58.5 38t-34.5 56t-11.5 68
q0 61 21.5 112.5t59 89t87.5 58.5t107 21q41 0 77.5 -16t51.5 -48q0 17 3 41t1 47q-7 72 -55 114t-128 42l37 107q66 -1 117 -22t86.5 -58t54 -87.5t18.5 -110.5z" />
    <glyph glyph-name="product" unicode="&#x220f;" horiz-adv-x="808" 
d="M804 622h-94l-166 -863h-117l166 863h-263l-166 -863h-118l166 863h-95l20 108h688z" />
    <glyph glyph-name="summation" unicode="&#x2211;" horiz-adv-x="635" 
d="M609 622h-334l197 -377l-344 -374h353l-22 -112h-511l19 99l360 396l-196 376l20 100h479z" />
    <glyph glyph-name="minus" unicode="&#x2212;" 
d="M514 242h-472l21 111h472z" />
    <glyph glyph-name="radical" unicode="&#x221a;" horiz-adv-x="609" 
d="M324 0h-146l-57 401h-84l18 96h186l29 -258q3 -23 5 -47.5t3 -49.5h1q10 26 19 47.5t19 44.5l238 524h139z" />
    <glyph glyph-name="infinity" unicode="&#x221e;" horiz-adv-x="979" 
d="M394 301q-34 29 -65.5 50t-60.5 21q-41 0 -67.5 -25.5t-26.5 -62.5q0 -24 15 -41t47 -17q29 0 69.5 22t88.5 53zM819 317q0 22 -15.5 38.5t-47.5 16.5q-30 0 -70.5 -22.5t-88.5 -53.5q34 -29 65 -49.5t61 -20.5q42 0 69 26t27 65zM942 337q0 -43 -16 -83t-46.5 -71
t-74.5 -49.5t-100 -18.5q-29 0 -57.5 8.5t-55.5 23.5t-53.5 34t-51.5 40q-32 -21 -65.5 -40t-67 -33.5t-67 -23.5t-65.5 -9q-89 0 -129.5 41.5t-40.5 104.5q0 51 19.5 92.5t52 70t73.5 44t84 15.5q31 0 60.5 -9t58 -24t55 -35t52.5 -41q33 21 67.5 41t68 35t66.5 24t63 9
q45 0 77.5 -12t53 -32t30 -46.5t9.5 -55.5z" />
    <glyph glyph-name="integral" unicode="&#x222b;" horiz-adv-x="340" 
d="M391 621q-9 3 -20 5t-23 2q-15 0 -27 -5.5t-22 -19.5t-18.5 -39.5t-15.5 -64.5q-11 -59 -19.5 -114t-17.5 -112.5t-19 -120t-24 -136.5q-15 -76 -34 -127.5t-44.5 -82.5t-59 -44t-76.5 -13q-29 0 -54 6l21 111q10 -3 20.5 -5t20.5 -2q16 0 28.5 5.5t22.5 20t18 40
t16 65.5q11 58 19.5 112.5t17 111.5t18.5 119.5t24 137.5q15 77 35.5 128.5t47.5 82t60.5 43.5t75.5 13q11 0 25 -2t25 -5z" />
    <glyph glyph-name="approxequal" unicode="&#x2248;" 
d="M506 176q-29 -26 -68 -44t-76 -18q-34 0 -58 9t-44 20t-39.5 20t-45.5 9q-28 0 -53.5 -13t-47.5 -30l-42 86q26 23 63 43.5t79 20.5q34 0 57 -9t43 -20.5t41.5 -20.5t51.5 -9q24 0 49 10t49 31l41 -85v0zM543 375q-28 -27 -64.5 -45.5t-78.5 -18.5q-32 0 -54 9t-42.5 20
t-41.5 20t-49 9t-54 -12.5t-48 -29.5l-41 85q29 26 68.5 45t79.5 19q33 0 57.5 -9t45 -20.5t40 -20.5t42.5 -9q25 0 50 12t48 32l42 -86v0z" />
    <glyph glyph-name="notequal" unicode="&#x2260;" 
d="M525 341h-153l-52 -88h188l-19 -103h-228l-71 -121h-117l71 121h-112l19 103h153l51 88h-187l19 103h228l72 121h116l-71 -121h112z" />
    <glyph glyph-name="lessequal" unicode="&#x2264;" 
d="M436 0h-409l21 107h408zM255 401l214 -173l-90 -83l-292 264l371 250l70 -89z" />
    <glyph glyph-name="greaterequal" unicode="&#x2265;" 
d="M436 0h-409l21 107h408zM155 145l-71 88l274 169l-215 174l90 83l293 -264z" />
    <glyph glyph-name="lozenge" unicode="&#x25ca;" horiz-adv-x="613" 
d="M367 544l-182 -203l110 -212l185 204zM307 -9h-78l-181 348l310 345h78l181 -348z" />
    <glyph glyph-name="Acute" unicode="&#xf6c9;" horiz-adv-x="385" 
d="M229 716l-14 70l212 75l19 -92z" />
    <glyph glyph-name="Caron" unicode="&#xf6ca;" horiz-adv-x="418" 
d="M298 715l-152 86l35 63l126 -59l140 59l24 -62z" />
    <glyph glyph-name="Dieresis" unicode="&#xf6cb;" horiz-adv-x="437" 
d="M268 787q0 -30 -20.5 -49t-47.5 -19t-45 18t-18 44q0 30 20 50t47 20q28 0 46 -19t18 -45zM477 787q0 -30 -20 -49t-47 -19t-45 18t-18 44q0 30 20 50t47 20t45 -19t18 -45z" />
    <glyph glyph-name="Grave" unicode="&#xf6ce;" horiz-adv-x="366" 
d="M366 716l-209 53l40 92l197 -75z" />
    <glyph glyph-name="apple" unicode="&#xf8ff;" horiz-adv-x="1044" 
d="M166 366q-3 -31 0 -60l-150 -15q-6 44 0 89zM529 355q2 0 3.5 5t-0.5 5q2 -5 -3 -10zM527 357q5 0 2.5 2t0.5 2v1q-4 0 -2 -2t-1 -2v-1v0zM525 361q-3 -6 -2.5 -2t2.5 2zM524 357h1l1 5q-4 1 -4.5 -3.5t3.5 0.5zM520 355q-2 5 3 10q-2 0 -3.5 -5t0.5 -5zM517 358
q-2 -1 -1.5 1.5t2.5 1.5v1q-2 1 -3.5 -2.5t2.5 -2.5v1zM513 362l-1 -3q-1 -2 -1 0l1 3h-1l-1 -3q-1 -2 0 -2q2 0 3 2l1 3h-1zM509 358h-2l2 6h-1l-2 -6q0 -1 1 -1h2v1zM632 -20l-234 -61l23 -55h202l11 27l-4 10l-70 -18l-15 41l100 25zM632 64l-234 -60l13 -31l234 59z
M400 138v-47l14 -34l230 59v22h-244zM561 329q-11 2 -20.5 2.5t-18.5 0.5q-8 0 -18 -0.5t-22 -2.5l15 -137h51l13 137v0zM449 192l-16 129q-14 -3 -22.5 -6.5t-15.5 -5.5q-8 -3 -12.5 6t-5 20.5t1.5 22.5t8 13q30 8 65 14t70 6q37 0 71.5 -6t65.5 -14q5 -2 7 -12.5t1 -22.5
t-5.5 -21t-12.5 -6q-14 6 -40 12l-13 -129h49q28 24 47 61t19 82q0 39 -15 74t-40.5 60.5t-60 40.5t-73.5 15t-73.5 -15t-60 -40.5t-40.5 -60.5t-15 -74q0 -42 17.5 -79.5t48.5 -63.5h50zM779 335q0 -51 -18.5 -95.5t-47.5 -75.5v-80l-16 -5l32 -76l-32 -8l32 -73l-33 -9
l10 -24l-31 -71h-57q-3 -20 -30.5 -34t-65.5 -14q-39 0 -66 14t-30 34h-57l-54 130l31 9l-32 75l35 10l-19 44v79q-29 33 -47 77t-18 93q0 54 20 100.5t55 81.5t82 55t100 20t99.5 -20t81.5 -55t55.5 -81.5t20.5 -100.5zM1028 379q2 -23 2.5 -44t-1.5 -43l-148 14q3 29 0 60
l147 13v0zM845 721q17 -14 32.5 -29.5t29.5 -32.5l-113 -93q-8 11 -20 22.5t-22 19.5zM552 685q-14 2 -30 2q-15 0 -29 -2l-15 145q22 2 44 2q23 0 44 -2l-14 -145v0zM136 660q15 17 30 32.5t32 29.5l96 -115q-11 -8 -22.5 -19.5t-19.5 -22.5l-116 95v0z" />
    <glyph glyph-name="Circumflex" horiz-adv-x="418" 
d="M434 715l-125 60l-141 -60l-24 62l173 87l152 -85z" />
    <glyph glyph-name="Tilde" horiz-adv-x="458" 
d="M498 810q-24 -40 -56 -61t-71 -21q-25 0 -42 7.5t-30 16t-24.5 16t-25.5 7.5q-34 0 -59 -43l-61 44q24 40 55 61t71 21q25 0 42 -7.5t30.5 -16t25 -16t25.5 -7.5q32 0 59 42l61 -43v0z" />
    </font>
</defs>
</svg>
