<?xml version="1.0" standalone="no"?>
<!DOCTYPE svg PUBLIC "-//W3C//DTD SVG 1.1//EN" "http://www.w3.org/Graphics/SVG/1.1/DTD/svg11.dtd" >
<svg xmlns="http://www.w3.org/2000/svg" xmlns:xlink="http://www.w3.org/1999/xlink" version="1.1">
<metadata>
Created by FontForge 20161013 at Thu Jun  1 17:01:02 2006
 By ,,,
Copyright (c) 2000-2006, Luc[as] de Groot. All rights reserved. Published by LucasFonts.com
</metadata>
<defs>
<font id="JumboTheSans-Bold" horiz-adv-x="550" >
  <font-face 
    font-family="Jumbo TheSans"
    font-weight="700"
    font-stretch="normal"
    units-per-em="1000"
    panose-1="2 11 8 0 4 3 3 6 2 4"
    ascent="740"
    descent="-260"
    x-height="497"
    cap-height="675"
    bbox="-66 -251 1030.6 864"
    underline-thickness="102"
    underline-position="-297"
    unicode-range="U+000D-FB04"
  />
<missing-glyph 
d="M450 100v350h-350v-350h350zM250 350v50h150v-250h-50v100h-100v50h100v50h-100zM50 50v450h450v-450h-450zM150 150v250h50v-200h100v-50h-150z" />
    <glyph glyph-name="fi" unicode="fi" horiz-adv-x="595" 
d="M399 0v398h-177v-398h-127v398h-87v99h87v18q0 111 59 167t186 56q43 0 79.5 -5t74.5 -14l-22 -106q-28 9 -60.5 14.5t-61.5 5.5q-69 0 -98.5 -28t-29.5 -82v-26h304v-497h-127z" />
    <glyph glyph-name="fl" unicode="fl" horiz-adv-x="595" 
d="M399 0v628q-36 6 -70 6q-54 0 -80.5 -22.5t-26.5 -72.5v-42h109v-99h-109v-398h-127v398h-87v99h87v48q0 43 13.5 78.5t43 61t76 39.5t112.5 14q38 0 86.5 -4.5t99.5 -12.5v-721h-127z" />
    <glyph glyph-name="ff" unicode="ff" horiz-adv-x="656" 
d="M409 610q-23 9 -45 12t-41 3q-54 0 -77.5 -25t-23.5 -72v-31h174v41q0 40 13 72zM667 625q-15 5 -31.5 7t-30.5 2q-42 0 -61.5 -22.5t-19.5 -72.5v-42h116v-99h-116v-398h-128v398h-174v-398h-127v398h-87v99h87v24q0 47 13 85t41 65.5t72 42.5t107 15q37 0 73.5 -5.5
t68.5 -16.5q43 31 125 31q20 0 40.5 -1.5t40.5 -6.5z" />
    <glyph glyph-name="ffi" unicode="ffi" horiz-adv-x="895" 
d="M414 608q-25 11 -47 14t-44 3q-54 0 -77.5 -25t-23.5 -72v-31h174v18q0 24 4 48t14 45zM700 0v398h-176v-398h-128v398h-174v-398h-127v398h-87v99h87v24q0 47 13 85.5t41.5 65.5t72.5 42t107 15q42 0 82 -7.5t72 -19.5q28 17 68 27t94 10q43 0 80 -5t78 -13l-23 -107
q-31 9 -64 14.5t-61 5.5q-69 0 -100 -28.5t-31 -82.5v-26h304v-497h-128z" />
    <glyph glyph-name="ffl" unicode="ffl" horiz-adv-x="895" 
d="M409 611q-23 9 -44.5 11.5t-41.5 2.5q-54 0 -77.5 -25t-23.5 -72v-31h174v48q0 37 13 66zM700 0v629q-34 6 -69 6q-54 0 -80.5 -23t-26.5 -73v-42h109v-99h-109v-398h-128v398h-174v-398h-127v398h-87v99h87v24q0 47 13 85.5t41.5 65.5t72.5 42t107 15q42 0 81 -7t71 -19
q28 17 67.5 26.5t93.5 9.5q38 0 86.5 -4.5t99.5 -12.5v-722h-128z" />
    <glyph glyph-name="f_b" unicode="fb" horiz-adv-x="888" 
d="M718 261q0 140 -85 140q-25 0 -45 -13.5t-33.5 -35.5t-21 -51t-7.5 -60v-140q14 -5 30 -7t37 -2q55 0 90 38.5t35 130.5zM852 274q0 -63 -18 -115t-52 -89.5t-83.5 -58.5t-112.5 -21q-60 0 -102 6t-85 18v615q-36 6 -70 6q-54 0 -80.5 -23t-26.5 -73v-42h109v-99h-109
v-398h-127v398h-87v99h87v48q0 43 13.5 79t43 61.5t76 39.5t112.5 14q38 0 86.5 -4.5t99.5 -12.5v-206q0 -23 -2 -50t-6 -47h2q19 41 58 64.5t91 23.5q90 0 136.5 -61t46.5 -172z" />
    <glyph glyph-name="f_h" unicode="fh" horiz-adv-x="898" 
d="M703 0v318q0 39 -13 61t-48 22q-24 0 -45.5 -13t-37 -35t-24.5 -51t-9 -62v-240h-127v629q-36 6 -70 6q-54 0 -80.5 -23t-26.5 -73v-42h109v-99h-109v-398h-127v398h-87v99h87v48q0 43 13.5 79t43 61.5t76 39.5t112.5 14q38 0 86.5 -4.5t99.5 -12.5v-205q0 -23 -2 -51
t-7 -50l2 -1q22 42 63.5 67.5t99.5 25.5q42 0 70.5 -12.5t45.5 -34.5t24.5 -50.5t7.5 -61.5v-349h-127z" />
    <glyph glyph-name="f_j" unicode="fj" horiz-adv-x="593" 
d="M526 -37q0 -50 -10 -89.5t-32.5 -66.5t-59.5 -41t-91 -14q-17 0 -36 2.5t-35 7.5l8 109q14 -5 30 -8.5t30 -3.5q39 0 54 20t15 71v448h-177v-398h-127v398h-87v99h87v18q0 110 59 167t186 57q43 0 79.5 -5t74.5 -13l-22 -107q-28 9 -60.5 14.5t-61.5 5.5
q-69 0 -98.5 -28.5t-29.5 -82.5v-26h304v-534v0z" />
    <glyph glyph-name="f_k" unicode="fk" horiz-adv-x="852" 
d="M399 629q-36 6 -70 6q-54 0 -80.5 -23t-26.5 -73v-42h109v-99h-109v-398h-127v398h-87v99h87v48q0 43 13.5 79t43 61.5t76 39.5t112.5 14q38 0 86.5 -4.5t99.5 -12.5v-432l145 207h156l-174 -227l187 -270h-160l-154 246v-246h-127v629v0z" />
    <glyph glyph-name=".notdef" 
d="M450 100v350h-350v-350h350zM250 350v50h150v-250h-50v100h-100v50h100v50h-100zM50 50v450h450v-450h-450zM150 150v250h50v-200h100v-50h-150z" />
    <glyph glyph-name=".null" horiz-adv-x="0" 
 />
    <glyph glyph-name=".null" horiz-adv-x="0" 
 />
    <glyph glyph-name="nonmarkingreturn" unicode="&#xd;" horiz-adv-x="500" 
 />
    <glyph glyph-name="space" unicode=" " horiz-adv-x="218" 
 />
    <glyph glyph-name="space" unicode="&#xa0;" horiz-adv-x="218" 
 />
    <glyph glyph-name="exclam" unicode="!" horiz-adv-x="321" 
d="M247 65q0 -32 -22.5 -54t-56.5 -22q-33 0 -55.5 22t-22.5 54t22.5 54t55.5 22q34 0 56.5 -22t22.5 -54zM225 188h-110l-21 520h150z" />
    <glyph glyph-name="quotedbl" unicode="&#x22;" horiz-adv-x="405" 
d="M156 448h-96l-16 254h128zM344 448h-95l-16 254h128z" />
    <glyph glyph-name="numbersign" unicode="#" 
d="M219 396l-14 -137h127l13 137h-126zM438 396l-13 -137h75v-88h-84l-19 -171h-93l19 171h-127l-18 -171h-93l18 171h-76v88h85l14 137h-76v87h85l18 167h93l-18 -167h127l17 167h93l-17 -167h75v-87h-85z" />
    <glyph glyph-name="dollar" unicode="$" 
d="M473 209q0 -67 -43.5 -118.5t-121.5 -69.5v-106h-92v100q-34 1 -63 4t-58 8l10 115q29 -11 63 -16t63 -5q48 0 77.5 18.5t29.5 56.5q0 27 -19.5 42.5t-49.5 28t-64 25t-64 33t-49.5 52t-19.5 82.5q0 32 11 61t31.5 52t49.5 39.5t65 23.5v95h91v-89q26 -1 52.5 -3.5
t51.5 -8.5l-11 -108q-29 9 -57.5 13t-52.5 4q-55 0 -77.5 -20.5t-22.5 -46.5q0 -25 20 -40.5t50 -28t65 -26t65 -34t50 -52.5t20 -81z" />
    <glyph glyph-name="percent" unicode="%" horiz-adv-x="760" 
d="M247 502q0 44 -14 61.5t-42 17.5q-23 0 -39 -20.5t-16 -57.5q0 -44 14.5 -62t41.5 -18q23 0 39 20.5t16 58.5zM625 148q0 44 -13.5 61.5t-41.5 17.5q-24 0 -40 -20t-16 -57q0 -45 14.5 -63t42.5 -18q23 0 38.5 20.5t15.5 58.5zM343 508q0 -37 -12 -67.5t-33 -52.5
t-50 -34t-62 -12q-73 0 -110.5 42t-37.5 115q0 36 12 66t33 51t50 33t62 12q69 0 108.5 -37.5t39.5 -115.5zM168 -22l-80 57l501 635l80 -57zM722 154q0 -37 -12 -67.5t-33.5 -52t-50 -33.5t-61.5 -12q-73 0 -110.5 41.5t-37.5 114.5q0 36 12 66t33 51.5t49.5 33.5t61.5 12
q69 0 109 -38t40 -116z" />
    <glyph glyph-name="ampersand" unicode="&#x26;" horiz-adv-x="797" 
d="M440 147q-26 21 -52.5 43.5t-51.5 45.5t-47.5 44t-39.5 39q-37 -32 -53 -59.5t-16 -56.5q0 -21 8 -40t23 -33.5t36.5 -23t48.5 -8.5q45 0 81 14.5t63 34.5zM340 582q0 25 -15 42.5t-47 17.5q-28 0 -45.5 -17t-17.5 -45q0 -21 12.5 -47t44.5 -63q32 27 50 53.5t18 58.5z
M671 -23q-17 12 -35.5 25t-36.5 26t-35 25.5t-30 23.5q-48 -38 -113.5 -63t-146.5 -25q-59 0 -101.5 16t-70.5 43t-41.5 63t-13.5 76q0 66 35 114.5t92 93.5q-23 27 -39 50t-26.5 44t-15 41.5t-4.5 42.5q0 33 13 63t38 52.5t62.5 36t85.5 13.5q87 0 132.5 -40.5t45.5 -106.5
q0 -53 -28.5 -98.5t-90.5 -94.5q36 -36 84.5 -79t96.5 -81v-1q30 46 46 103.5t14 117.5h127q2 -79 -21.5 -154t-69.5 -136q33 -25 68.5 -50.5t62.5 -43.5z" />
    <glyph glyph-name="quotesingle" unicode="'" horiz-adv-x="216" 
d="M156 448h-96l-16 254h128z" />
    <glyph glyph-name="parenleft" unicode="(" horiz-adv-x="306" 
d="M200 -215q-84 132 -116 256t-32 244q0 118 33 245t116 257l93 -43q-57 -101 -86.5 -216t-29.5 -238q0 -254 119 -460z" />
    <glyph glyph-name="parenright" unicode=")" horiz-adv-x="306" 
d="M256 288q0 -119 -33 -246t-116 -257l-93 43q57 101 87 216t30 239q0 253 -118 460l97 44q82 -132 114 -255.5t32 -243.5z" />
    <glyph glyph-name="asterisk" unicode="*" horiz-adv-x="384" 
d="M305 453l-85 68l16 -108h-91l16 108l-86 -68l-44 78l101 40l-101 40l45 79l85 -68l-16 108h91l-16 -108l85 68l45 -78l-101 -40l101 -40z" />
    <glyph glyph-name="plus" unicode="+" 
d="M335 244v-186h-121v186h-175v107h175v185h121v-185h176v-107h-176z" />
    <glyph glyph-name="comma" unicode="," horiz-adv-x="258" 
d="M128 149q35 0 58 -27.5t23 -72.5t-29.5 -103t-99.5 -119l-53 47q52 55 58.5 90t-17.5 63q-14 17 -16 38t6 40t26 31.5t44 12.5z" />
    <glyph glyph-name="hyphen" unicode="-" horiz-adv-x="334" 
d="M44 226v103h246v-103h-246z" />
    <glyph glyph-name="hyphen" unicode="&#xad;" horiz-adv-x="334" 
d="M44 226v103h246v-103h-246z" />
    <glyph glyph-name="period" unicode="." horiz-adv-x="258" 
d="M210 71q0 -34 -23.5 -58t-57.5 -24t-58 24t-24 58q0 33 24 57t58 24t57.5 -24t23.5 -57z" />
    <glyph glyph-name="slash" unicode="/" horiz-adv-x="463" 
d="M115 -161h-126l350 918h129z" />
    <glyph glyph-name="zero" unicode="0" 
d="M376 326q0 69 -6 113t-19 69.5t-32 35t-45 9.5q-22 0 -40.5 -10.5t-32 -35.5t-21 -68t-7.5 -107q0 -68 5.5 -113t17.5 -71.5t31.5 -37.5t47.5 -11q24 0 43 11.5t31.5 38.5t19.5 70.5t7 106.5zM514 330q0 -90 -20 -155t-54 -106t-78 -60.5t-93 -19.5q-55 0 -98.5 16.5
t-73.5 55.5t-46 104t-16 163q0 85 18 147.5t50.5 104t77.5 61.5t99 20q55 0 98.5 -17.5t73.5 -56.5t46 -102t16 -155z" />
    <glyph glyph-name="one" unicode="1" 
d="M66 0v115h163v403l-145 -57l-21 121l200 68h99v-535h142v-115h-438z" />
    <glyph glyph-name="two" unicode="2" 
d="M51 0v104l98 96q57 56 92.5 94.5t54.5 65.5t25.5 47t6.5 40q0 42 -27.5 69.5t-81.5 27.5q-41 0 -76.5 -14t-61.5 -32l-25 114q38 21 87 35t104 14q58 0 100 -16t69 -42.5t40 -61.5t13 -72q0 -32 -7.5 -62t-25.5 -61.5t-49.5 -68t-79.5 -81.5l-79 -74v-1q35 1 82.5 1.5
t102.5 0.5h80v-123h-442z" />
    <glyph glyph-name="three" unicode="3" 
d="M484 207q0 -52 -21 -92.5t-59 -68.5t-91.5 -42.5t-117.5 -14.5q-37 0 -71.5 4.5t-57.5 11.5l12 110q56 -19 125 -19q74 0 108.5 27.5t34.5 69.5t-34 67t-108 25q-28 0 -52 -1.5t-50 -4.5v99h29q46 0 83.5 6t64 18t41 30.5t14.5 44.5q0 36 -27 57t-81 21q-42 0 -76.5 -9.5
t-62.5 -23.5l-12 108q38 14 81.5 22.5t95.5 8.5q109 0 162.5 -45t53.5 -115q0 -57 -29.5 -93.5t-83.5 -52.5l-1 -3q28 -3 52 -16t41.5 -32.5t27 -44t9.5 -52.5z" />
    <glyph glyph-name="four" unicode="4" 
d="M315 522h-1l-167 -268q16 1 40 1.5t48 0.5h46h34v266zM439 141v-141h-126v141h-283l-12 106l247 403h174v-394h90v-115h-90z" />
    <glyph glyph-name="five" unicode="5" 
d="M489 217q0 -52 -20.5 -94t-58 -72t-90.5 -46t-117 -16q-35 0 -65 3.5t-59 10.5v115q29 -9 60.5 -14t72.5 -5q66 0 101 28t35 77q0 48 -39.5 73t-108.5 25q-33 0 -62 -2t-50 -6v356h373v-120h-252v-128q9 1 19 1h20q58 0 103 -14t75.5 -38.5t46.5 -59t16 -74.5z" />
    <glyph glyph-name="six" unicode="6" 
d="M386 203q0 50 -26.5 78t-78.5 28q-25 0 -45 -8.5t-33.5 -23t-20.5 -32t-7 -35.5q0 -50 27.5 -83.5t82.5 -33.5q48 0 74.5 31t26.5 79zM515 223q0 -55 -17 -98.5t-48 -73.5t-75 -46t-97 -16q-110 0 -174 70.5t-64 213.5q0 97 24.5 170t69 121t107.5 72t140 24q19 0 39 -1
t36 -3v-111q-38 7 -82 7q-84 0 -130.5 -42t-66.5 -119q-5 -14 -9 -40h1q23 30 59.5 46.5t83.5 16.5q49 0 87 -15t64 -41t39 -61t13 -74z" />
    <glyph glyph-name="seven" unicode="7" 
d="M499 540q-34 -65 -66 -135.5t-60.5 -140.5t-52.5 -137t-43 -127h-147q21 65 47.5 135.5t55.5 139.5t59 133.5t59 118.5q-11 0 -35 -0.5t-54 -1t-64 -0.5h-62h-86v125h449v-110v0z" />
    <glyph glyph-name="eight" unicode="8" 
d="M377 167q0 21 -9 36.5t-24 28.5t-35.5 23.5t-43.5 20.5q-38 -22 -65 -46t-27 -61q0 -34 26.5 -56t79.5 -22q42 0 70 20.5t28 55.5zM365 488q0 32 -23.5 53t-68.5 21q-44 0 -66 -22t-22 -51q0 -33 24 -54t72 -44q35 20 59.5 42.5t24.5 54.5zM509 179q0 -46 -19 -81.5
t-52 -59.5t-77 -36.5t-93 -12.5q-53 0 -95 12t-71.5 34t-45.5 53.5t-16 70.5q0 29 9.5 53t26 44t38.5 37t46 32q-48 26 -76 62t-28 91q0 41 16.5 75t46.5 58t71.5 37t91.5 13t89.5 -12t66.5 -33.5t41.5 -51.5t14.5 -65q0 -27 -8.5 -49t-23 -41t-33.5 -35t-41 -30
q24 -13 45.5 -28.5t38.5 -35t27 -44.5t10 -57z" />
    <glyph glyph-name="nine" unicode="9" 
d="M370 440q0 51 -27 84t-81 33q-48 0 -74 -31.5t-26 -77.5q0 -51 26.5 -79.5t76.5 -28.5q51 0 78 29.5t27 70.5zM508 377q0 -99 -24.5 -171.5t-69 -120.5t-107.5 -71.5t-139 -23.5q-21 0 -45 1.5t-47 5.5v113q49 -12 100 -12q81 0 127.5 39t64.5 115q2 11 4.5 19.5
t4.5 19.5h-1q-23 -26 -58.5 -41t-80.5 -15q-49 0 -87 15t-63.5 41t-39 61.5t-13.5 76.5q0 54 17.5 97t49 73t75 46t95.5 16q54 0 98 -17t74.5 -52t47.5 -88.5t17 -126.5z" />
    <glyph glyph-name="colon" unicode=":" horiz-adv-x="298" 
d="M242 71q0 -34 -23.5 -58t-57.5 -24t-58 24t-24 58q0 33 24 57t58 24t57.5 -24t23.5 -57zM242 354q0 -34 -23.5 -58t-57.5 -24t-58 24t-24 58q0 33 24 57t58 24t57.5 -24t23.5 -57z" />
    <glyph glyph-name="semicolon" unicode=";" horiz-adv-x="298" 
d="M160 149q36 0 59 -27.5t23 -72.5t-29.5 -103t-99.5 -119l-53 47q51 55 57.5 90t-16.5 63q-14 17 -16 38t6 40t25.5 31.5t43.5 12.5zM242 354q0 -34 -23.5 -58t-57.5 -24t-58 24t-24 58q0 33 24 57t58 24t57.5 -24t23.5 -57z" />
    <glyph glyph-name="semicolon" unicode="&#x37e;" horiz-adv-x="298" 
d="M160 149q36 0 59 -27.5t23 -72.5t-29.5 -103t-99.5 -119l-53 47q51 55 57.5 90t-16.5 63q-14 17 -16 38t6 40t25.5 31.5t43.5 12.5zM242 354q0 -34 -23.5 -58t-57.5 -24t-58 24t-24 58q0 33 24 57t58 24t57.5 -24t23.5 -57z" />
    <glyph glyph-name="less" unicode="&#x3c;" 
d="M382 6l-319 295l318 294l84 -84l-237 -209l238 -209z" />
    <glyph glyph-name="equal" unicode="=" 
d="M53 150v103h444v-103h-444zM53 341v103h444v-103h-444z" />
    <glyph glyph-name="greater" unicode="&#x3e;" 
d="M169 6l-84 84l237 209l-238 209l84 87l319 -295z" />
    <glyph glyph-name="question" unicode="?" horiz-adv-x="451" 
d="M271 65q0 -32 -22.5 -54t-55.5 -22t-55.5 22t-22.5 54t22.5 54t55.5 22t55.5 -22t22.5 -54zM404 513q0 -42 -14.5 -71.5t-35 -52t-43.5 -42t-40 -42t-23.5 -50t5.5 -67.5h-124q-16 47 -12 81.5t19 60.5t36.5 46.5t42 39t35 38.5t14.5 45q0 45 -52 72t-145 30l16 116
q82 -2 142.5 -19.5t100.5 -45.5t59 -64t19 -75z" />
    <glyph glyph-name="at" unicode="@" horiz-adv-x="970" 
d="M538 449q-20 6 -44 6q-26 0 -46 -16t-33 -40t-19.5 -52t-6.5 -53q0 -65 32 -65q28 0 59 42t49 134l9 44v0zM881 413q0 -70 -18.5 -123t-50.5 -88.5t-76 -53.5t-96 -18q-56 0 -81.5 28t-23.5 68h-3q-8 -16 -21.5 -33t-32 -31t-40.5 -23t-47 -9q-48 0 -74.5 35.5
t-26.5 107.5q0 55 14 104t43 85t73 57t104 21q35 0 67.5 -6t54.5 -14l-35 -198q-9 -51 2 -71.5t42 -20.5q23 0 43.5 10t35.5 32t23.5 55t8.5 80q0 43 -13.5 84t-43 73t-77 51t-116.5 19q-67 0 -125 -24.5t-101.5 -69.5t-68.5 -108t-25 -139q0 -126 69 -198t215 -72
q88 0 175 29l19 -100q-50 -17 -106.5 -25.5t-103.5 -8.5q-94 0 -165.5 25.5t-120 73t-73.5 114t-25 149.5q0 99 34.5 183t94.5 144.5t140.5 94.5t173.5 34q89 0 156 -25.5t112 -69.5t67.5 -102.5t22.5 -125.5z" />
    <glyph glyph-name="A" unicode="A" horiz-adv-x="626" 
d="M334 433q-9 25 -16 48t-12 45h-1q-6 -22 -12.5 -45t-14.5 -48l-67 -192h190zM481 0l-47 138h-255l-47 -138h-131l236 675h147l241 -675h-144z" />
    <glyph glyph-name="B" unicode="B" horiz-adv-x="580" 
d="M400 205q0 50 -39.5 71.5t-103.5 21.5h-27t-30 -1v-189q12 -2 30.5 -3t41.5 -1q64 0 96 27.5t32 73.5zM382 491q0 38 -24.5 60.5t-84.5 22.5q-21 0 -38.5 -0.5t-34.5 -1.5v-176q12 -1 24 -1h29q67 0 98 25.5t31 70.5zM539 208q0 -37 -13.5 -74.5t-45.5 -67.5t-84 -49
t-128 -19q-30 0 -82 1t-116 1v674q43 2 102.5 3.5t121.5 1.5q109 0 167.5 -43t58.5 -124q0 -51 -26.5 -91t-75.5 -60v-2q30 -6 52.5 -21t38 -35.5t23 -45t7.5 -49.5z" />
    <glyph glyph-name="C" unicode="C" horiz-adv-x="566" 
d="M526 23q-38 -14 -83 -22.5t-93 -8.5q-89 0 -148.5 27t-96 72t-52 103.5t-15.5 121.5q0 80 21 147t63 115.5t105.5 75.5t148.5 27q36 0 73.5 -5t70.5 -15l-18 -119q-63 23 -133 23q-47 0 -82.5 -17t-59 -47t-35 -72t-11.5 -91q0 -110 47 -169t150 -59q31 0 66.5 7.5
t61.5 20.5l20 -115v0z" />
    <glyph glyph-name="D" unicode="D" horiz-adv-x="667" 
d="M490 339q0 54 -11.5 97t-36.5 73t-65 45.5t-98 15.5q-23 0 -43 -0.5t-36 -2.5v-455q14 -2 32.5 -3.5t38.5 -1.5q48 0 88 13.5t69 42t45.5 72.5t16.5 104zM630 349q0 -87 -27 -153t-76.5 -110.5t-118 -67t-150.5 -22.5q-53 0 -99 1.5t-89 3.5v673q40 2 97.5 3.5t120.5 1.5
q78 0 141.5 -18t108 -58t68.5 -102.5t24 -151.5z" />
    <glyph glyph-name="E" unicode="E" horiz-adv-x="493" 
d="M70 0v675h367v-109h-237v-166h225v-106h-225v-183h237v-111h-367z" />
    <glyph glyph-name="F" unicode="F" horiz-adv-x="465" 
d="M200 565v-174h218v-107h-218v-284h-130v675h361v-110h-231z" />
    <glyph glyph-name="G" unicode="G" horiz-adv-x="675" 
d="M608 32q-51 -20 -110.5 -31t-120.5 -11q-80 0 -143.5 23t-107.5 66t-67 104.5t-23 138.5q0 79 26 146t75 115t118 75t156 27q53 0 101.5 -8t89.5 -21l-26 -118q-79 31 -173 31q-50 0 -91.5 -15.5t-71.5 -45.5t-46.5 -73.5t-16.5 -100.5q0 -108 56 -167.5t159 -59.5
q47 0 86 12v235h130v-322v0z" />
    <glyph glyph-name="H" unicode="H" horiz-adv-x="687" 
d="M486 0v293h-286v-293h-130v675h130v-270h286v270h130v-675h-130z" />
    <glyph glyph-name="I" unicode="I" horiz-adv-x="270" 
d="M70 0v675h130v-675h-130z" />
    <glyph glyph-name="J" unicode="J" horiz-adv-x="335" 
d="M266 189q0 -42 -9 -78t-30.5 -62.5t-56.5 -42t-86 -15.5q-27 0 -47 2.5t-37 5.5v112q12 -5 28 -7.5t34 -2.5q35 0 54.5 19t19.5 74v481h130v-486v0z" />
    <glyph glyph-name="K" unicode="K" horiz-adv-x="597" 
d="M417 0l-217 324v-324h-130v675h130v-306l219 306h158l-247 -326l258 -349h-171z" />
    <glyph glyph-name="L" unicode="L" horiz-adv-x="429" 
d="M70 0v675h130v-561h219v-114h-349z" />
    <glyph glyph-name="M" unicode="M" horiz-adv-x="881" 
d="M713 0l-48 322q-8 46 -12.5 86t-8.5 75h-2q-7 -32 -15 -67.5t-22 -76.5l-107 -339h-129l-103 315q-14 43 -24.5 84.5t-18.5 83.5h-2q-3 -45 -8 -86t-11 -86l-38 -311h-132l104 675h152l113 -347q10 -30 19.5 -66t18.5 -76h1q8 39 17 71.5t21 68.5l116 349h151l105 -675
h-137z" />
    <glyph glyph-name="N" unicode="N" horiz-adv-x="699" 
d="M503 0h-42l-198 341q-22 38 -40 75t-33 70q1 -22 2.5 -51.5t2 -62.5t1 -67t0.5 -64v-241h-126v675h126h43l188 -322q23 -39 43.5 -80l39.5 -79q-2 25 -3.5 59t-2 71t-1 73.5t-0.5 67.5v210h126v-675h-126z" />
    <glyph glyph-name="O" unicode="O" horiz-adv-x="703" 
d="M531 337q0 113 -46 172.5t-134 59.5q-35 0 -67.5 -14t-57 -42t-39.5 -70.5t-15 -99.5q0 -54 10.5 -97.5t32.5 -74t55.5 -47.5t78.5 -17q33 0 65.5 13t58.5 41t42 71.5t16 104.5zM670 347q0 -84 -26 -150t-70.5 -112.5t-104.5 -71t-129 -24.5q-77 0 -135 23.5t-96 68
t-57 107.5t-19 141q0 84 26 150t71 112t105 70.5t128 24.5q67 0 123.5 -20.5t97.5 -62.5t63.5 -105.5t22.5 -150.5z" />
    <glyph glyph-name="P" unicode="P" horiz-adv-x="531" 
d="M373 462q0 51 -30.5 81t-96.5 30h-24q-11 0 -22 -1v-225q19 -3 38 -3q60 1 97.5 32t37.5 86zM508 470q0 -49 -18 -92t-52.5 -74.5t-83.5 -49.5t-110 -18h-21q-11 0 -23 2v-238h-130v675q42 2 86.5 3t94.5 1q125 0 191 -54.5t66 -154.5z" />
    <glyph glyph-name="Q" unicode="Q" horiz-adv-x="703" 
d="M531 337q0 113 -46 172.5t-134 59.5q-35 0 -67.5 -14t-57 -42t-39.5 -70.5t-15 -99.5q0 -54 10.5 -97.5t32.5 -74t55.5 -47.5t78.5 -17q33 0 65.5 13t58.5 41t42 71.5t16 104.5zM701 -203q-69 -11 -118.5 -5.5t-93 15t-87 16.5t-100.5 0v115q66 8 113 1.5t89.5 -16
t88 -15.5t108.5 3v-114v0zM670 347q0 -84 -26 -150t-70.5 -112.5t-104.5 -71t-129 -24.5q-77 0 -135 23.5t-96 68t-57 107.5t-19 141q0 84 26 150t71 112t105 70.5t128 24.5q67 0 123.5 -20.5t97.5 -62.5t63.5 -105.5t22.5 -150.5z" />
    <glyph glyph-name="R" unicode="R" horiz-adv-x="567" 
d="M373 476q0 97 -122 97q-14 0 -27.5 -0.5t-23.5 -2.5v-195q7 -1 19.5 -1.5t27.5 -0.5q59 0 92.5 27.5t33.5 75.5zM393 0l-182 279h-11v-279h-130v675q40 2 87.5 3t106.5 1q56 0 101 -10.5t77 -33t49.5 -58.5t17.5 -88q0 -38 -12.5 -69.5t-35 -56t-53 -40.5t-65.5 -22
q14 -19 28 -37.5t26 -36.5l157 -227h-161z" />
    <glyph glyph-name="S" unicode="S" horiz-adv-x="503" 
d="M467 207q0 -47 -19 -87t-53 -69t-82.5 -45.5t-106.5 -16.5q-89 0 -156 18l14 125q33 -14 69.5 -21.5t77.5 -7.5q23 0 43.5 5t36 15.5t24.5 27t9 40.5q0 32 -21 51t-52.5 33t-68.5 27.5t-68.5 35t-52.5 55.5t-21 90q0 45 17 82.5t49.5 64t80 41.5t108.5 15q28 0 60.5 -3.5
t61.5 -9.5l-12 -114q-28 9 -57 14t-59 5q-57 0 -84 -22.5t-27 -58.5q0 -30 21.5 -48.5t53.5 -33t69.5 -28.5t69.5 -36.5t53.5 -56.5t21.5 -87z" />
    <glyph glyph-name="T" unicode="T" horiz-adv-x="510" 
d="M320 564v-564h-130v564h-175v111h480v-111h-175z" />
    <glyph glyph-name="U" unicode="U" horiz-adv-x="681" 
d="M611 262q0 -139 -73 -206t-207 -67q-80 0 -130.5 20t-79.5 54t-40 78.5t-11 92.5v441h130v-433q0 -32 6 -58.5t22 -46t43 -30t69 -10.5q75 0 108.5 35.5t33.5 121.5v421h129v-413v0z" />
    <glyph glyph-name="V" unicode="V" horiz-adv-x="628" 
d="M388 0h-150l-235 675h142l131 -395q10 -29 20.5 -63.5t18.5 -66.5h2q8 33 19 68.5t22 69.5l133 387h133z" />
    <glyph glyph-name="W" unicode="W" horiz-adv-x="951" 
d="M755 0h-160l-98 372q-9 32 -15 67.5t-11 71.5h-1q-7 -70 -25 -136l-98 -375h-151l-172 675h139l92 -373q8 -33 14 -67.5t11 -69.5h1q5 34 11 67.5t15 65.5l103 377h138l104 -375q8 -28 15 -62t12 -69h1q5 35 11 67t14 62l92 377h130z" />
    <glyph glyph-name="X" unicode="X" horiz-adv-x="628" 
d="M454 0l-145 248l-145 -248h-154l215 345l-202 330h151l137 -234l136 234h148l-199 -329l222 -346h-164z" />
    <glyph glyph-name="Y" unicode="Y" horiz-adv-x="561" 
d="M344 239v-239h-130v238l-211 437h142l89 -194q14 -30 25 -58t21 -54h2q11 29 25 61t29 64l85 181h138z" />
    <glyph glyph-name="Z" unicode="Z" horiz-adv-x="537" 
d="M45 0v100l243 396q11 17 21.5 32.5t22.5 31.5q-18 -1 -45 -1.5t-78 -0.5h-156v117h436v-104l-257 -406q-8 -12 -15 -23.5t-16 -23.5q13 2 48 2h98h146v-120h-448z" />
    <glyph glyph-name="bracketleft" unicode="[" horiz-adv-x="328" 
d="M71 -205v982h221v-101h-101v-778h101v-103h-221z" />
    <glyph glyph-name="backslash" unicode="\" horiz-adv-x="479" 
d="M357 -161l-350 918h126l350 -918h-126z" />
    <glyph glyph-name="bracketright" unicode="]" horiz-adv-x="328" 
d="M36 -205v103h100v778h-100v101h220v-982h-220z" />
    <glyph glyph-name="asciicircum" unicode="^" 
d="M397 337l-132 247l-125 -247l-85 45l164 293h98l171 -292z" />
    <glyph glyph-name="underscore" unicode="_" 
d="M0 -246v102h550v-102h-550z" />
    <glyph glyph-name="grave" unicode="`" horiz-adv-x="329" 
d="M248 560l-181 108l59 86l170 -125z" />
    <glyph glyph-name="a" unicode="a" horiz-adv-x="524" 
d="M325 223q-49 0 -81 -6t-50.5 -16.5t-26 -24.5t-7.5 -30q0 -25 15.5 -41.5t43.5 -16.5q24 0 43.5 10.5t33.5 27t21.5 38t7.5 44.5v15zM335 0q0 22 1 43t4 41l-1 1q-18 -42 -60.5 -68.5t-98.5 -26.5q-68 0 -105 40.5t-37 101.5q0 44 20.5 77t58 54.5t90.5 32t118 10.5v25
q0 39 -21.5 59t-75.5 20q-34 0 -72 -10t-68 -25l-23 101q38 14 87 23t98 9q59 0 98 -12t62.5 -33.5t33 -52.5t9.5 -70v-212q0 -30 0.5 -63.5t2.5 -64.5h-121z" />
    <glyph glyph-name="b" unicode="b" horiz-adv-x="559" 
d="M389 261q0 140 -85 140q-25 0 -45 -13.5t-33.5 -35.5t-21 -51t-7.5 -60v-140q27 -9 67 -9q27 0 50 9t39.5 29.5t26 52.5t9.5 78zM523 274q0 -63 -18 -115.5t-52.5 -90t-84.5 -58t-114 -20.5q-54 0 -98 6t-87 18v716h128v-214q0 -23 -2 -50t-6 -47h1q19 41 58.5 64.5
t91.5 23.5q90 0 136.5 -61t46.5 -172z" />
    <glyph glyph-name="c" unicode="c" horiz-adv-x="425" 
d="M398 14q-29 -11 -66 -17t-74 -6q-52 0 -93.5 14t-70.5 43t-44.5 75t-15.5 109q0 58 15.5 108t46.5 87t78.5 58t112.5 21q29 0 57 -4.5t52 -12.5l-20 -110q-20 8 -44 13.5t-49 5.5q-57 0 -86 -42t-29 -111q0 -32 6 -58.5t20 -45.5t36 -29.5t54 -10.5q52 0 97 20l17 -107v0
z" />
    <glyph glyph-name="d" unicode="d" horiz-adv-x="558" 
d="M361 397q-17 4 -33.5 6t-33.5 2q-55 0 -90 -38.5t-35 -130.5q0 -141 85 -141q25 0 45 13.5t33.5 36t21 52t7.5 61.5v139zM369 0q0 18 1.5 40.5t4.5 42.5h-2q-20 -42 -60 -68t-97 -26q-91 0 -136 63t-45 170q0 63 18 115t51.5 89.5t82.5 58.5t111 21q16 0 31 -1t32 -3v228
h127v-730h-119z" />
    <glyph glyph-name="e" unicode="e" horiz-adv-x="514" 
d="M349 313q2 48 -21.5 74.5t-64.5 26.5q-40 0 -66 -27t-31 -74h183v0zM476 286q0 -13 -1 -27.5t-3 -31.5h-308q-1 -137 137 -137q73 0 144 30l14 -97q-41 -17 -87.5 -25t-92.5 -8q-118 0 -181.5 61t-63.5 193q0 57 15.5 105.5t45 83.5t73 55t99.5 20q54 0 93.5 -17.5
t65 -47.5t38 -70.5t12.5 -86.5z" />
    <glyph glyph-name="f" unicode="f" horiz-adv-x="354" 
d="M365 625q-15 5 -31.5 7t-30.5 2q-42 0 -61.5 -22.5t-19.5 -72.5v-42h116v-99h-116v-398h-127v398h-87v99h87v40q0 102 47.5 151.5t150.5 49.5q20 0 40.5 -1.5t40.5 -6.5z" />
    <glyph glyph-name="g" unicode="g" horiz-adv-x="545" 
d="M393 -70q0 27 -18 44.5t-60 19.5l-86 3h-23q-22 -16 -34 -35.5t-12 -40.5q0 -35 29 -54.5t77 -19.5q63 0 95 24t32 59zM351 327q0 40 -22.5 64t-67.5 24q-44 0 -68 -24.5t-24 -62.5q0 -40 23.5 -63t68.5 -23q42 0 66 22.5t24 62.5zM520 -53q0 -40 -19.5 -76t-55 -63
t-86 -43t-112.5 -16q-100 0 -156.5 37.5t-56.5 110.5q0 39 23 72t54 50q-23 11 -36 31t-13 46q0 29 16.5 53t42.5 35q-35 19 -54.5 53t-19.5 83q0 37 14 71.5t41.5 60t68.5 41t95 15.5q24 0 42.5 -3t38.5 -8h169v-100h-68q25 -23 25 -63t-13.5 -73t-40 -56.5t-66.5 -36.5
t-93 -13q-20 0 -39 4q-12 -5 -18 -14.5t-6 -17.5q0 -17 16.5 -23t60.5 -8l77 -3q81 -3 125 -38.5t44 -107.5z" />
    <glyph glyph-name="h" unicode="h" horiz-adv-x="571" 
d="M374 0v318q0 44 -15 63t-46 19q-24 0 -45 -12.5t-37 -34.5t-25 -51.5t-9 -62.5v-239h-128v730h128v-214q0 -23 -2 -50.5t-7 -50.5h2q23 44 65.5 68t97.5 24q42 0 70.5 -12.5t45.5 -34t24.5 -50t7.5 -61.5v-349h-127z" />
    <glyph glyph-name="i" unicode="i" horiz-adv-x="266" 
d="M69 0v497h128v-497h-128zM213 648q0 -32 -23.5 -54.5t-56.5 -22.5t-56 22.5t-23 54.5t23 55t56 23t56.5 -22.5t23.5 -55.5z" />
    <glyph glyph-name="j" unicode="j" horiz-adv-x="271" 
d="M201 -37q0 -50 -10 -89.5t-32.5 -66.5t-59.5 -41t-91 -14q-17 0 -36 2.5t-34 7.5l8 109q14 -5 29.5 -8.5t29.5 -3.5q40 0 54.5 20t14.5 71v547h127v-534v0zM217 648q0 -32 -23.5 -54.5t-56.5 -22.5t-56.5 22.5t-23.5 54.5t23.5 55t56.5 23t56.5 -22.5t23.5 -55.5z" />
    <glyph glyph-name="k" unicode="k" horiz-adv-x="523" 
d="M351 0l-154 246v-246h-128v730h128v-440l145 207h156l-174 -227l187 -270h-160z" />
    <glyph glyph-name="l" unicode="l" horiz-adv-x="266" 
d="M69 0v730h128v-730h-128z" />
    <glyph glyph-name="m" unicode="m" horiz-adv-x="866" 
d="M669 0v314q0 40 -12 63t-47 23q-21 0 -41.5 -11.5t-36.5 -33t-26 -51.5t-10 -66v-238h-126v315q0 37 -11 61t-48 24q-22 0 -42.5 -12t-36.5 -34t-25.5 -51.5t-9.5 -64.5v-238h-128v497h121q0 -17 -1.5 -42.5t-5.5 -46.5l2 -1q23 46 65.5 73t98.5 27q33 0 57 -8.5t40 -23
t25.5 -32t14.5 -35.5q9 18 23.5 35.5t34.5 32t46 23t58 8.5q72 0 110.5 -40t38.5 -125v-342h-128z" />
    <glyph glyph-name="n" unicode="n" horiz-adv-x="571" 
d="M374 0v318q0 38 -13 60t-48 22q-24 0 -45.5 -13t-37 -34.5t-24.5 -50.5t-9 -62v-240h-128v497h121q0 -17 -1.5 -43t-5.5 -46h1q23 44 65.5 71.5t103.5 27.5q42 0 70.5 -12.5t45.5 -34t24.5 -50t7.5 -61.5v-349h-127z" />
    <glyph glyph-name="o" unicode="o" horiz-adv-x="553" 
d="M387 251q0 72 -26 110t-83 38q-21 0 -41.5 -8.5t-36.5 -26.5t-25.5 -45.5t-9.5 -65.5q0 -154 111 -154q48 0 79.5 38t31.5 114zM519 258q0 -59 -18.5 -108t-52.5 -84.5t-80.5 -55.5t-102.5 -20q-53 0 -96 14t-73 44.5t-46.5 78t-16.5 113.5q0 58 18.5 107t52 84.5
t80 55.5t103.5 20q106 0 169 -60.5t63 -188.5z" />
    <glyph glyph-name="p" unicode="p" horiz-adv-x="559" 
d="M389 261q0 141 -85 141q-25 0 -45 -13.5t-33.5 -36t-21 -52t-7.5 -61.5v-138q30 -9 67 -9q27 0 50 9t39.5 29.5t26 52.5t9.5 78zM523 275q0 -65 -17 -117t-50 -89t-82 -56.5t-113 -19.5q-18 0 -33 1t-31 3v-238h-128v738h119q0 -18 -1 -40.5t-4 -42.5h2q21 44 60 68.5
t96 24.5q89 0 135.5 -60.5t46.5 -171.5z" />
    <glyph glyph-name="q" unicode="q" horiz-adv-x="559" 
d="M362 398q-16 3 -32 5t-35 2q-55 0 -90 -38.5t-35 -130.5q0 -141 84 -141q25 0 45 13.5t34 36.5t21.5 52.5t7.5 62.5v138zM362 -241v225q0 20 1 46t6 50l-2 1q-20 -43 -58.5 -67.5t-88.5 -24.5q-90 0 -137 59t-47 174q0 63 17.5 115t52 89.5t85 58.5t116.5 21q53 0 97 -4
t85 -11v-732h-127z" />
    <glyph glyph-name="r" unicode="r" horiz-adv-x="355" 
d="M335 382q-138 27 -138 -179v-203h-128v497h121q0 -19 -2 -46.5t-7 -53.5h2q9 24 22.5 45t33 36.5t45 23.5t57.5 5z" />
    <glyph glyph-name="s" unicode="s" horiz-adv-x="417" 
d="M378 155q0 -37 -15.5 -67.5t-44.5 -52t-69.5 -33.5t-89.5 -12q-29 0 -58 3t-53 10l9 107q23 -10 50.5 -15t55.5 -5q36 0 58 14.5t22 38.5q0 22 -15 34.5t-37.5 21t-48.5 17.5t-48.5 24.5t-37.5 41t-15 67.5q0 33 12.5 62t38.5 50.5t65.5 34t93.5 12.5q22 0 46 -2.5
t45 -7.5l-6 -100q-20 6 -43.5 9.5t-46.5 3.5q-38 0 -55.5 -14t-17.5 -37q0 -21 15 -33t38 -21t49.5 -18.5t49.5 -25.5t38 -41t15 -66z" />
    <glyph glyph-name="t" unicode="t" horiz-adv-x="375" 
d="M344 4q-24 -6 -53 -10t-55 -4q-41 0 -69 8t-44.5 26.5t-23.5 48t-7 73.5v252h-86v99h86v153l127 34v-187h121v-99h-121v-218q0 -48 13 -65t46 -17t57 7l9 -101v0z" />
    <glyph glyph-name="u" unicode="u" horiz-adv-x="575" 
d="M381 0q0 17 1 43t5 46h-1q-23 -44 -65 -71.5t-104 -27.5q-42 0 -70.5 12.5t-45.5 34t-24.5 50t-7.5 61.5v349h127v-318q0 -38 13 -60t49 -22q24 0 45 13t36.5 34.5t24.5 50.5t9 62v240h128v-497h-120z" />
    <glyph glyph-name="v" unicode="v" horiz-adv-x="506" 
d="M317 0h-130l-184 497h140l79 -224q19 -55 33 -110h2q6 26 13.5 53t16.5 53l80 228h136z" />
    <glyph glyph-name="w" unicode="w" horiz-adv-x="796" 
d="M630 0h-139l-72 221q-8 26 -14.5 52.5t-13.5 58.5h-1q-8 -35 -16 -64.5t-18 -60.5l-63 -207h-132l-152 497h140l53 -188q10 -37 20 -74.5t19 -75.5h1q8 42 16.5 76.5t19.5 67.5l60 194h123l61 -188q14 -43 23 -78t17 -72h2q8 38 16 72.5t19 71.5l56 194h131z" />
    <glyph glyph-name="x" unicode="x" horiz-adv-x="528" 
d="M356 0l-96 167l-96 -167h-143h-10l171 251l-161 246h10h143l96 -164l97 164h131h10l-155 -245l164 -252h-10h-151z" />
    <glyph glyph-name="y" unicode="y" horiz-adv-x="502" 
d="M302 -28q-24 -65 -50 -107.5t-56 -67.5t-65.5 -35.5t-78.5 -10.5q-16 0 -36 2t-34 5l15 110q14 -5 30.5 -7.5t32.5 -2.5t31.5 4.5t30.5 15.5t28 30t24 48l15 44l-183 497h142l67 -190q11 -32 21 -67.5t18 -69.5h1q4 17 10 37.5t12.5 41.5t13 41.5t12.5 37.5l59 169h137z
" />
    <glyph glyph-name="z" unicode="z" horiz-adv-x="450" 
d="M45 0v91l200 294q-14 -1 -42 -1.5t-64 -0.5h-88v114h348v-91l-196 -290q8 0 21.5 0.5t28.5 0.5h32h31h87v-117h-358z" />
    <glyph glyph-name="braceleft" unicode="{" horiz-adv-x="362" 
d="M309 -205q-98 0 -140 53t-42 170v135q0 62 -25 85.5t-75 26.5v96q25 1 44 6.5t31.5 17.5t18.5 32t6 52v87q0 109 41.5 165t140.5 56h21v-101q-24 0 -40.5 -5t-26 -18t-13.5 -36t-4 -59v-86q0 -80 -25 -115t-67 -43v-1q42 -7 67 -44.5t25 -117.5v-134q0 -36 4 -59.5
t13.5 -36.5t26 -18t40.5 -5v-103h-21z" />
    <glyph glyph-name="bar" unicode="|" horiz-adv-x="288" 
d="M91 -241v1000h102v-1000h-102z" />
    <glyph glyph-name="braceright" unicode="}" horiz-adv-x="360" 
d="M338 265q-50 -3 -75 -26.5t-25 -85.5v-135q0 -117 -42 -170t-139 -53h-22v103q24 0 40.5 5t26.5 18t14 36.5t4 59.5v134q0 80 25 117.5t67 44.5v1q-43 6 -67.5 41.5t-24.5 113.5v89q0 36 -4 59t-14 36t-26.5 18t-40.5 5v101h22q99 0 140 -56t41 -165v-84q0 -33 6 -53.5
t18.5 -33t31 -18t44.5 -6.5v-96v0z" />
    <glyph glyph-name="asciitilde" unicode="~" 
d="M508 566q0 -72 -40 -116t-110 -44q-43 0 -67.5 16t-41 35.5t-30.5 36t-35 16.5q-25 0 -35.5 -20.5t-11.5 -59.5h-95v18q0 72 40.5 116t110.5 44q43 0 67.5 -16.5t41 -36t30.5 -36t35 -16.5q24 0 35 20.5t12 60.5h94v-18v0z" />
    <glyph glyph-name="Euro" 
d="M521 21q-37 -16 -81 -24t-87 -8q-109 0 -175 51t-86 170h-81v79h74q-1 19 -1 32q0 14 1 42h-74v79h87q11 48 32.5 88t55.5 69t81 45.5t109 16.5q35 0 72.5 -7t66.5 -18l-30 -101q-24 11 -55.5 18t-63.5 7q-58 0 -90 -33t-46 -85h165v-79h-180v-37v-37h180v-79h-168
q14 -62 48.5 -90t97.5 -28q30 0 60 7t59 19l29 -97v0z" />
    <glyph glyph-name="Euro" unicode="&#x20ac;" 
d="M521 21q-37 -16 -81 -24t-87 -8q-109 0 -175 51t-86 170h-81v79h74q-1 19 -1 32q0 14 1 42h-74v79h87q11 48 32.5 88t55.5 69t81 45.5t109 16.5q35 0 72.5 -7t66.5 -18l-30 -101q-24 11 -55.5 18t-63.5 7q-58 0 -90 -33t-46 -85h165v-79h-180v-37v-37h180v-79h-168
q14 -62 48.5 -90t97.5 -28q30 0 60 7t59 19l29 -97v0z" />
    <glyph glyph-name="Zcaron" horiz-adv-x="537" 
d="M45 0v100l243 396q11 17 21.5 32.5t22.5 31.5q-18 -1 -45 -1.5t-78 -0.5h-156v117h436v-104l-257 -406q-8 -12 -15 -23.5t-16 -23.5q13 2 48 2h98h146v-120h-448zM273 715l-166 86l30 63l137 -59l135 59l29 -62z" />
    <glyph glyph-name="Zcaron" unicode="&#x17d;" horiz-adv-x="537" 
d="M45 0v100l243 396q11 17 21.5 32.5t22.5 31.5q-18 -1 -45 -1.5t-78 -0.5h-156v117h436v-104l-257 -406q-8 -12 -15 -23.5t-16 -23.5q13 2 48 2h98h146v-120h-448zM273 715l-166 86l30 63l137 -59l135 59l29 -62z" />
    <glyph glyph-name="zcaron" horiz-adv-x="450" 
d="M45 0v91l200 294q-14 -1 -42 -1.5t-64 -0.5h-88v114h348v-91l-196 -290q8 0 21.5 0.5t28.5 0.5h32h31h87v-117h-358zM227 560l-153 134l50 60l104 -82l103 82l50 -59z" />
    <glyph glyph-name="zcaron" unicode="&#x17e;" horiz-adv-x="450" 
d="M45 0v91l200 294q-14 -1 -42 -1.5t-64 -0.5h-88v114h348v-91l-196 -290q8 0 21.5 0.5t28.5 0.5h32h31h87v-117h-358zM227 560l-153 134l50 60l104 -82l103 82l50 -59z" />
    <glyph glyph-name="exclamdown" unicode="&#xa1;" horiz-adv-x="321" 
d="M226 -211h-150l21 520h110zM232 432q0 -32 -22.5 -54t-56.5 -22q-33 0 -55.5 22t-22.5 54t22.5 54t55.5 22q34 0 56.5 -22t22.5 -54z" />
    <glyph glyph-name="cent" unicode="&#xa2;" 
d="M474 128q-24 -11 -53 -19t-57 -11v-98h-96v98q-97 10 -146 70.5t-49 157.5q0 94 50.5 155.5t144.5 81.5v87h96v-83q24 -2 52 -7.5t51 -13.5l-26 -103q-21 10 -47.5 16t-54.5 6q-60 0 -96 -34t-36 -99q0 -59 33.5 -93.5t98.5 -34.5q58 0 105 26l30 -102v0z" />
    <glyph glyph-name="sterling" unicode="&#xa3;" 
d="M68 0v87q80 65 80 136q0 23 -5 51h-95v99h82q-3 22 -5.5 43.5t-2.5 41.5q0 55 15.5 94t44.5 63t69.5 35t91.5 11q25 0 59 -4t64 -12l-27 -107q-21 8 -48 13.5t-55 5.5q-85 0 -85 -88q0 -23 3 -47.5t6 -48.5h151v-99h-139q2 -12 3 -23.5t1 -23.5q0 -38 -14 -65.5
t-43 -53.5q16 1 34.5 1.5t38.5 0.5h198v-110h-422z" />
    <glyph glyph-name="currency" unicode="&#xa4;" 
d="M361 334q0 47 -20 73t-67 26q-34 0 -59.5 -25.5t-25.5 -76.5q0 -45 20 -74.5t66 -29.5q33 0 59.5 25.5t26.5 81.5zM417 47l-77 103q-35 -16 -74 -16q-16 0 -29.5 2.5t-25.5 6.5l-69 -95l-99 70l68 85q-16 23 -25 53t-9 70q0 73 39 123l-72 92l97 69l71 -97q32 13 72 13
q16 0 32.5 -2.5t31.5 -8.5l70 96l97 -71l-71 -89q14 -20 21.5 -48.5t7.5 -66.5q0 -35 -10 -65.5t-27 -53.5l79 -99z" />
    <glyph glyph-name="yen" unicode="&#xa5;" 
d="M370 320h124v-82h-155v-59h155v-81h-155v-98h-129v98h-155v81h155v59h-155v82h124l-159 330h141l75 -167q11 -27 21 -53.5t18 -47.5h1q8 23 20 51t23 53l74 164h138z" />
    <glyph glyph-name="brokenbar" unicode="&#xa6;" horiz-adv-x="288" 
d="M91 -241v378h102v-378h-102zM91 391v368h102v-368h-102z" />
    <glyph glyph-name="section" unicode="&#xa7;" horiz-adv-x="530" 
d="M342 230q0 24 -11 45t-29.5 41.5t-42.5 42t-51 47.5q-17 -13 -24.5 -30t-7.5 -34q0 -22 9 -41.5t26 -39.5t42 -43t57 -51q17 12 24.5 29t7.5 34zM458 247q0 -44 -21 -81.5t-56 -63.5q17 -21 27 -46.5t10 -57.5q0 -31 -12 -60.5t-39 -53t-70 -37.5t-104 -14q-17 0 -40 2.5
t-43 7.5l8 107q40 -12 77 -12q45 0 65.5 17.5t20.5 43.5q0 23 -16.5 43.5t-41 41.5t-53 45t-53 52.5t-41 63.5t-16.5 80t20.5 82t55.5 63q-18 23 -27.5 47.5t-9.5 56.5q0 33 11.5 62.5t37 52t65 36t96.5 13.5q20 0 41.5 -1.5t40.5 -6.5l-7 -106q-34 10 -71 10
q-41 0 -59 -14.5t-18 -41.5q0 -22 16.5 -42.5t41 -42.5t53.5 -46.5t53.5 -54t41 -65.5t16.5 -80z" />
    <glyph glyph-name="dieresis" unicode="&#xa8;" horiz-adv-x="440" 
d="M231 648q0 -29 -20 -49t-49 -20t-49 20t-20 49t20 49t49 20t49 -20t20 -49zM433 648q0 -29 -20 -49t-49 -20t-49 20t-20 49t20 49t49 20t49 -20t20 -49z" />
    <glyph glyph-name="copyright" unicode="&#xa9;" horiz-adv-x="762" 
d="M480 177q-43 -20 -102 -20q-77 0 -119 47t-42 126q0 36 10 69t31.5 58t55 40t79.5 15q25 0 45 -4t37 -11l-14 -85q-11 8 -28 12.5t-35 4.5q-40 0 -57.5 -26t-17.5 -71q0 -87 70 -87q19 0 36.5 3t33.5 11l17 -82v0zM625 333q0 51 -19 96t-52.5 78.5t-78 53t-95.5 19.5
t-96 -19.5t-78 -52.5t-52.5 -78t-19.5 -96t19.5 -96t52.5 -78.5t78 -53t96 -19.5t95.5 19.5t78 52.5t52.5 78t19 96zM722 334q0 -71 -27 -133t-73.5 -108.5t-108.5 -73.5t-133 -27q-72 0 -134.5 26.5t-108.5 73t-72.5 108.5t-26.5 133t27 133t73.5 108.5t108.5 73.5t133 27
t133 -26.5t108.5 -73t73.5 -108.5t27 -133z" />
    <glyph glyph-name="ordfeminine" unicode="&#xaa;" horiz-adv-x="403" 
d="M239 477q-54 0 -78.5 -12t-24.5 -38q0 -14 10 -23t27 -9q16 0 28.5 7.5t21 18.5t12.5 23.5t4 22.5v10zM50 176v99h311v-99h-311zM244 325q0 11 1 24t3 25l-1 1q-11 -25 -39.5 -42t-61.5 -17q-56 0 -81 27.5t-25 69.5q0 33 15 57.5t42 40.5t63.5 23.5t78.5 7.5v15
q0 8 -2 16.5t-8 15t-17.5 11t-30.5 4.5q-30 0 -57.5 -7.5t-52.5 -19.5l-9 86q27 10 61.5 16t73.5 6q42 0 69.5 -9.5t44 -26t23 -37.5t6.5 -43v-159v-47q0 -20 1 -38h-97z" />
    <glyph glyph-name="guillemotleft" unicode="&#xab;" horiz-adv-x="534" 
d="M149 98l-107 194l110 197l98 -45l-85 -151l87 -149zM377 103l-118 189l120 192l96 -46l-92 -145l94 -143z" />
    <glyph glyph-name="logicalnot" unicode="&#xac;" 
d="M376 95v149h-337v107h450v-256h-113z" />
    <glyph glyph-name="registered" unicode="&#xae;" horiz-adv-x="564" 
d="M306 573q0 24 -30 24h-16v-51h11q18 0 26.5 8t8.5 19zM305 420l-38 85h-7v-85h-60v223h93q42 0 60.5 -17t18.5 -45q0 -26 -12.5 -41.5t-32.5 -21.5q9 -11 17 -27l33 -71h-72zM438 530q0 32 -12.5 61t-33.5 50.5t-49.5 34t-60.5 12.5q-33 0 -61.5 -12.5t-49.5 -33.5
t-33.5 -49.5t-12.5 -61.5q0 -32 12.5 -61t33.5 -50.5t49.5 -34t61.5 -12.5q32 0 60.5 12.5t49.5 33.5t33.5 49.5t12.5 61.5zM516 530q0 -48 -18.5 -90t-50.5 -73t-74.5 -49t-90.5 -18q-49 0 -92 18t-74.5 49t-49.5 73t-18 90t18.5 90.5t50 73.5t74.5 49t91 18
q49 0 91.5 -17.5t74 -48.5t50 -73.5t18.5 -91.5z" />
    <glyph glyph-name="macron" unicode="&#xaf;" horiz-adv-x="369" 
d="M62 600v92h269v-92h-269z" />
    <glyph glyph-name="macron" unicode="&#x2c9;" horiz-adv-x="369" 
d="M62 600v92h269v-92h-269z" />
    <glyph glyph-name="degree" unicode="&#xb0;" horiz-adv-x="388" 
d="M245 600q0 20 -12.5 39t-40.5 19q-24 0 -39.5 -16.5t-15.5 -43.5q0 -28 15 -43.5t39 -15.5q25 0 39.5 17t14.5 44zM340 600q0 -35 -13 -61.5t-34.5 -44.5t-49.5 -27t-57 -9q-67 0 -105.5 37t-38.5 102q0 33 13 59.5t34.5 44.5t48.5 27.5t55 9.5q39 0 67 -11t45.5 -30
t26 -44t8.5 -53z" />
    <glyph glyph-name="plusminus" unicode="&#xb1;" 
d="M43 0v107h464v-107h-464zM336 346v-183h-122v183h-175v106h175v182h122v-182h175v-106h-175z" />
    <glyph glyph-name="twosuperior" unicode="&#xb2;" horiz-adv-x="322" 
d="M42 354v70l58 49q32 27 44 43t12 31t-9.5 24t-28.5 9q-14 0 -28.5 -4.5t-26.5 -12.5l-18 76q22 8 48.5 14.5t53.5 6.5q33 0 56.5 -7.5t38 -20.5t21 -30t6.5 -35q0 -26 -15 -50.5t-51 -55.5l-33 -28h107v-79h-235z" />
    <glyph glyph-name="threesuperior" unicode="&#xb3;" horiz-adv-x="312" 
d="M268 443q0 -48 -39 -73.5t-114 -25.5q-18 0 -40.5 3t-33.5 5l10 65q10 -3 24 -5t28 -2q28 0 40.5 9t12.5 23q0 19 -19.5 28t-74.5 2v59h14q44 0 59 10t15 26q0 12 -8.5 20t-30.5 8q-14 0 -28.5 -3.5t-25.5 -9.5l-13 62q17 7 42.5 11.5t52.5 4.5q65 0 91 -24.5t26 -55.5
q0 -26 -10.5 -43.5t-34.5 -28.5q27 -3 42 -22.5t15 -42.5z" />
    <glyph glyph-name="acute" unicode="&#xb4;" horiz-adv-x="328" 
d="M152 560l-47 69l169 125l59 -86z" />
    <glyph glyph-name="mu" unicode="&#xb5;" horiz-adv-x="585" 
d="M582 2q-16 -5 -41 -8.5t-52 -3.5q-29 0 -48 8.5t-30 22t-15 30t-4 33.5h-1q-17 -41 -51 -66t-83 -25q-43 0 -60 19v-253h-128v738h128v-314q0 -41 14 -63.5t51 -22.5q24 0 44.5 11.5t35.5 32t23.5 48.5t8.5 60v248h127v-328q0 -42 7.5 -57t25.5 -15q12 0 23.5 1.5
t16.5 3.5l8 -100v0z" />
    <glyph glyph-name="mu" unicode="&#x3bc;" horiz-adv-x="585" 
d="M582 2q-16 -5 -41 -8.5t-52 -3.5q-29 0 -48 8.5t-30 22t-15 30t-4 33.5h-1q-17 -41 -51 -66t-83 -25q-43 0 -60 19v-253h-128v738h128v-314q0 -41 14 -63.5t51 -22.5q24 0 44.5 11.5t35.5 32t23.5 48.5t8.5 60v248h127v-328q0 -42 7.5 -57t25.5 -15q12 0 23.5 1.5
t16.5 3.5l8 -100v0z" />
    <glyph glyph-name="paragraph" unicode="&#xb6;" horiz-adv-x="595" 
d="M292 231q-62 0 -106.5 17.5t-73.5 48t-43 71.5t-14 86q0 50 17.5 91t48.5 70t74.5 44.5t96.5 15.5v-444v0zM479 573v-669h-179v102h70v669h174v-102h-65z" />
    <glyph glyph-name="periodcentered" unicode="&#xb7;" horiz-adv-x="269" 
d="M218 298q0 -35 -24.5 -59t-58.5 -24q-35 0 -59 24t-24 59q0 34 24 58t59 24q34 0 58.5 -24t24.5 -58z" />
    <glyph glyph-name="periodcentered" unicode="&#x2219;" horiz-adv-x="269" 
d="M218 298q0 -35 -24.5 -59t-58.5 -24q-35 0 -59 24t-24 59q0 34 24 58t59 24q34 0 58.5 -24t24.5 -58z" />
    <glyph glyph-name="cedilla" unicode="&#xb8;" horiz-adv-x="392" 
d="M256 -40q39 -54 30.5 -102t-50.5 -92h-96q36 43 41 79.5t-31 81.5l106 33v0z" />
    <glyph glyph-name="onesuperior" unicode="&#xb9;" horiz-adv-x="317" 
d="M124 354v215l-65 -28l-19 73l92 36h96v-296h-104z" />
    <glyph glyph-name="ordmasculine" unicode="&#xba;" horiz-adv-x="426" 
d="M281 504q0 40 -15.5 66t-53.5 26q-26 0 -48 -21t-22 -73q0 -19 3.5 -36t11 -30.5t20.5 -21.5t32 -8q29 0 50.5 22t21.5 76zM53 176v99h318v-99h-318zM385 506q0 -43 -14 -78t-38.5 -59.5t-58 -38t-72.5 -13.5q-35 0 -64.5 9.5t-52 31.5t-35 56.5t-12.5 84.5q0 43 14 77.5
t38.5 59t57 37.5t70.5 13q36 0 66.5 -9.5t53 -31t35 -56t12.5 -83.5z" />
    <glyph glyph-name="guillemotright" unicode="&#xbb;" horiz-adv-x="534" 
d="M154 103l-96 46l93 145l-94 143l100 47l118 -189zM382 98l-99 45l86 151l-87 149l103 46l107 -194z" />
    <glyph glyph-name="onequarter" unicode="&#xbc;" horiz-adv-x="725" 
d="M124 354v215l-65 -28l-19 73l92 36h96v-296h-104zM135 -22l-81 57l501 635l81 -57zM630 49v-49h-91v49h-141l-6 65l102 182h136v-176h46v-71h-46zM539 236l-67 -117h67v117z" />
    <glyph glyph-name="onehalf" unicode="&#xbd;" horiz-adv-x="727" 
d="M124 354v215l-66 -28l-19 73l92 36h96v-296h-103zM134 -22l-80 57l501 635l80 -57zM437 0v70l58 49q32 27 44 43.5t12 30.5q0 15 -9.5 24t-28.5 9q-14 0 -28.5 -4.5t-26.5 -12.5l-18 76q22 9 49 15t54 6q33 0 56 -7.5t37.5 -20.5t21 -30t6.5 -35q0 -26 -15 -50.5
t-51 -55.5l-33 -28h107v-79h-235z" />
    <glyph glyph-name="threequarters" unicode="&#xbe;" horiz-adv-x="730" 
d="M272 443q0 -48 -38.5 -73.5t-113.5 -25.5q-19 0 -41 2.5t-33 5.5l10 65q10 -3 24 -5.5t28 -2.5q28 0 40 9.5t12 23.5q0 10 -4.5 17t-15 11.5t-28.5 5t-46 -3.5v59h14q44 0 59 10t15 26q0 12 -8.5 20t-29.5 8q-30 0 -54 -13l-13 62q17 7 42.5 11.5t52.5 4.5
q64 0 90.5 -24.5t26.5 -55.5q0 -50 -46 -72q27 -3 42 -22.5t15 -42.5zM139 -22l-80 57l501 635l81 -57zM635 49v-49h-91v49h-141l-6 65l102 182h136v-176h46v-71h-46zM544 236l-67 -117h67v117z" />
    <glyph glyph-name="questiondown" unicode="&#xbf;" horiz-adv-x="451" 
d="M368 -220q-83 2 -143 19.5t-100 45.5t-59 64t-19 75q0 42 14.5 71.5t35 52t43.5 42t39.5 42t23 50t-5.5 67.5h125q16 -47 12 -81.5t-19 -60.5t-36.5 -46.5t-42 -39t-35 -38.5t-14.5 -45q0 -45 52 -72t145 -30zM336 432q0 -32 -22.5 -54t-55.5 -22t-55.5 22t-22.5 54
t22.5 54t55.5 22t55.5 -22t22.5 -54z" />
    <glyph glyph-name="Agrave" unicode="&#xc0;" horiz-adv-x="626" 
d="M334 433q-9 25 -16 48t-12 45h-1q-6 -22 -12.5 -45t-14.5 -48l-67 -192h190zM481 0l-47 138h-255l-47 -138h-131l236 675h147l241 -675h-144zM372 716l-216 53l30 92l207 -75z" />
    <glyph glyph-name="Aacute" unicode="&#xc1;" horiz-adv-x="626" 
d="M334 433q-9 25 -16 48t-12 45h-1q-6 -22 -12.5 -45t-14.5 -48l-67 -192h190zM481 0l-47 138h-255l-47 -138h-131l236 675h147l241 -675h-144zM242 716l-21 70l207 75l29 -92z" />
    <glyph glyph-name="Acircumflex" unicode="&#xc2;" horiz-adv-x="626" 
d="M334 433q-9 25 -16 48t-12 45h-1q-6 -22 -12.5 -45t-14.5 -48l-67 -192h190zM481 0l-47 138h-255l-47 -138h-131l236 675h147l241 -675h-144zM445 715l-137 60l-135 -60l-29 62l165 87l166 -85z" />
    <glyph glyph-name="Atilde" unicode="&#xc3;" horiz-adv-x="626" 
d="M334 433q-9 25 -16 48t-12 45h-1q-6 -22 -12.5 -45t-14.5 -48l-67 -192h190zM481 0l-47 138h-255l-47 -138h-131l236 675h147l241 -675h-144zM499 810q-46 -82 -125 -82q-26 0 -43.5 7.5t-31.5 16t-26 16t-27 7.5q-34 0 -58 -43l-63 44q46 82 125 82q26 0 43.5 -7.5
t31.5 -16t26 -16t27 -7.5q18 0 31.5 10.5t26.5 31.5l63 -43v0z" />
    <glyph glyph-name="Adieresis" unicode="&#xc4;" horiz-adv-x="626" 
d="M334 433q-9 25 -16 48t-12 45h-1q-6 -22 -12.5 -45t-14.5 -48l-67 -192h190zM481 0l-47 138h-255l-47 -138h-131l236 675h147l241 -675h-144zM263 786q0 -26 -17.5 -43.5t-43.5 -17.5t-44 17.5t-18 43.5t18 44t44 18t43.5 -18t17.5 -44zM479 786q0 -26 -18 -43.5
t-44 -17.5t-43.5 17.5t-17.5 43.5t17.5 44t43.5 18t44 -18t18 -44z" />
    <glyph glyph-name="Aring" unicode="&#xc5;" horiz-adv-x="626" 
d="M337 419q-11 27 -18 53t-13 53h-1q-6 -26 -14 -54t-18 -57l-61 -173h188zM364 723q0 22 -15.5 37.5t-37.5 15.5t-37 -15.5t-15 -37.5t15 -37.5t37 -15.5t37.5 15.5t15.5 37.5zM481 0l-47 138h-255l-47 -138h-131l224 639q-19 14 -30 35.5t-11 48.5q0 26 10 48.5
t27.5 38.5t40.5 25t49 9q27 0 50 -9t40 -25t27 -38.5t10 -48.5t-11 -48.5t-30 -36.5l228 -638h-144z" />
    <glyph glyph-name="AE" unicode="&#xc6;" horiz-adv-x="785" 
d="M364 566h-2q-14 -35 -28 -67.5t-34 -73.5l-89 -174h153v315zM364 0v149h-197l-72 -149h-133l334 675h426v-109h-233v-166h225v-106h-225v-183h240v-111h-365z" />
    <glyph glyph-name="Ccedilla" unicode="&#xc7;" horiz-adv-x="566" 
d="M526 23q-38 -14 -83 -22.5t-93 -8.5q-89 0 -148.5 27t-96 72t-52 103.5t-15.5 121.5q0 80 21 147t63 115.5t105.5 75.5t148.5 27q36 0 73.5 -5t70.5 -15l-18 -119q-63 23 -133 23q-47 0 -82.5 -17t-59 -47t-35 -72t-11.5 -91q0 -110 47 -169t150 -59q31 0 66.5 7.5
t61.5 20.5l20 -115v0zM363 -40q39 -54 30.5 -102t-50.5 -92h-96q36 43 41 79.5t-31 81.5l106 33v0z" />
    <glyph glyph-name="Egrave" unicode="&#xc8;" horiz-adv-x="493" 
d="M70 0v675h367v-109h-237v-166h225v-106h-225v-183h237v-111h-367zM314 716l-216 53l30 92l207 -75z" />
    <glyph glyph-name="Eacute" unicode="&#xc9;" horiz-adv-x="493" 
d="M70 0v675h367v-109h-237v-166h225v-106h-225v-183h237v-111h-367zM184 716l-21 70l207 75l29 -92z" />
    <glyph glyph-name="Ecircumflex" unicode="&#xca;" horiz-adv-x="493" 
d="M70 0v675h367v-109h-237v-166h225v-106h-225v-183h237v-111h-367zM387 715l-137 60l-135 -60l-29 62l165 87l166 -85z" />
    <glyph glyph-name="Edieresis" unicode="&#xcb;" horiz-adv-x="493" 
d="M70 0v675h367v-109h-237v-166h225v-106h-225v-183h237v-111h-367zM204 786q0 -26 -17.5 -43.5t-43.5 -17.5t-44 17.5t-18 43.5t18 44t44 18t43.5 -18t17.5 -44zM420 786q0 -26 -18 -43.5t-44 -17.5t-43.5 17.5t-17.5 43.5t17.5 44t43.5 18t44 -18t18 -44z" />
    <glyph glyph-name="Igrave" unicode="&#xcc;" horiz-adv-x="270" 
d="M70 0v675h130v-675h-130zM198 716l-216 53l30 92l207 -75z" />
    <glyph glyph-name="Iacute" unicode="&#xcd;" horiz-adv-x="270" 
d="M70 0v675h130v-675h-130zM74 716l-21 70l207 75l29 -92z" />
    <glyph glyph-name="Icircumflex" unicode="&#xce;" horiz-adv-x="270" 
d="M70 0v675h130v-675h-130zM272 715l-137 60l-135 -60l-29 62l165 87l166 -85z" />
    <glyph glyph-name="Idieresis" unicode="&#xcf;" horiz-adv-x="270" 
d="M70 0v675h130v-675h-130zM89 786q0 -26 -17.5 -43.5t-43.5 -17.5t-44 17.5t-18 43.5t18 44t44 18t43.5 -18t17.5 -44zM305 786q0 -26 -18 -43.5t-44 -17.5t-43.5 17.5t-17.5 43.5t17.5 44t43.5 18t44 -18t18 -44z" />
    <glyph glyph-name="Eth" unicode="&#xd0;" horiz-adv-x="675" 
d="M498 339q0 54 -11.5 97t-36.5 72.5t-65 45.5t-98 16q-23 0 -43 -0.5t-36 -2.5v-175h120v-98h-120v-183q6 -1 28.5 -2.5t42.5 -1.5q48 0 88 13.5t69 42t45.5 72.5t16.5 104zM637 348q0 -87 -27 -152.5t-76 -110t-117.5 -67t-151.5 -22.5q-52 0 -97.5 1.5t-88.5 3.5v293
h-77v98h77v282q40 2 97.5 3.5t120.5 1.5q78 0 141 -18.5t107 -58t68 -102.5t24 -152z" />
    <glyph glyph-name="Ntilde" unicode="&#xd1;" horiz-adv-x="699" 
d="M503 0h-42l-198 341q-22 38 -40 75t-33 70q1 -22 2.5 -51.5t2 -62.5t1 -67t0.5 -64v-241h-126v675h126h43l188 -322q23 -39 43.5 -80l39.5 -79q-2 25 -3.5 59t-2 71t-1 73.5t-0.5 67.5v210h126v-675h-126zM538 810q-46 -82 -125 -82q-26 0 -43.5 7.5t-31.5 16t-26 16
t-27 7.5q-34 0 -58 -43l-63 44q46 82 125 82q26 0 43.5 -7.5t31.5 -16t26 -16t27 -7.5q18 0 31.5 10.5t26.5 31.5l63 -43v0z" />
    <glyph glyph-name="Ograve" unicode="&#xd2;" horiz-adv-x="703" 
d="M531 337q0 113 -46 172.5t-134 59.5q-35 0 -67.5 -14t-57 -42t-39.5 -70.5t-15 -99.5q0 -54 10.5 -97.5t32.5 -74t55.5 -47.5t78.5 -17q33 0 65.5 13t58.5 41t42 71.5t16 104.5zM670 347q0 -84 -26 -150t-70.5 -112.5t-104.5 -71t-129 -24.5q-77 0 -135 23.5t-96 68
t-57 107.5t-19 141q0 84 26 150t71 112t105 70.5t128 24.5q67 0 123.5 -20.5t97.5 -62.5t63.5 -105.5t22.5 -150.5zM412 716l-216 53l30 92l207 -75z" />
    <glyph glyph-name="Oacute" unicode="&#xd3;" horiz-adv-x="703" 
d="M531 337q0 113 -46 172.5t-134 59.5q-35 0 -67.5 -14t-57 -42t-39.5 -70.5t-15 -99.5q0 -54 10.5 -97.5t32.5 -74t55.5 -47.5t78.5 -17q33 0 65.5 13t58.5 41t42 71.5t16 104.5zM670 347q0 -84 -26 -150t-70.5 -112.5t-104.5 -71t-129 -24.5q-77 0 -135 23.5t-96 68
t-57 107.5t-19 141q0 84 26 150t71 112t105 70.5t128 24.5q67 0 123.5 -20.5t97.5 -62.5t63.5 -105.5t22.5 -150.5zM299 716l-21 70l207 75l29 -92z" />
    <glyph glyph-name="Ocircumflex" unicode="&#xd4;" horiz-adv-x="703" 
d="M531 337q0 113 -46 172.5t-134 59.5q-35 0 -67.5 -14t-57 -42t-39.5 -70.5t-15 -99.5q0 -54 10.5 -97.5t32.5 -74t55.5 -47.5t78.5 -17q33 0 65.5 13t58.5 41t42 71.5t16 104.5zM670 347q0 -84 -26 -150t-70.5 -112.5t-104.5 -71t-129 -24.5q-77 0 -135 23.5t-96 68
t-57 107.5t-19 141q0 84 26 150t71 112t105 70.5t128 24.5q67 0 123.5 -20.5t97.5 -62.5t63.5 -105.5t22.5 -150.5zM494 715l-137 60l-135 -60l-29 62l165 87l166 -85z" />
    <glyph glyph-name="Otilde" unicode="&#xd5;" horiz-adv-x="703" 
d="M531 337q0 113 -46 172.5t-134 59.5q-35 0 -67.5 -14t-57 -42t-39.5 -70.5t-15 -99.5q0 -54 10.5 -97.5t32.5 -74t55.5 -47.5t78.5 -17q33 0 65.5 13t58.5 41t42 71.5t16 104.5zM670 347q0 -84 -26 -150t-70.5 -112.5t-104.5 -71t-129 -24.5q-77 0 -135 23.5t-96 68
t-57 107.5t-19 141q0 84 26 150t71 112t105 70.5t128 24.5q67 0 123.5 -20.5t97.5 -62.5t63.5 -105.5t22.5 -150.5zM540 810q-46 -82 -125 -82q-26 0 -43.5 7.5t-31.5 16t-26 16t-27 7.5q-34 0 -58 -43l-63 44q46 82 125 82q26 0 43.5 -7.5t31.5 -16t26 -16t27 -7.5
q18 0 31.5 10.5t26.5 31.5l63 -43v0z" />
    <glyph glyph-name="Odieresis" unicode="&#xd6;" horiz-adv-x="703" 
d="M531 337q0 113 -46 172.5t-134 59.5q-35 0 -67.5 -14t-57 -42t-39.5 -70.5t-15 -99.5q0 -54 10.5 -97.5t32.5 -74t55.5 -47.5t78.5 -17q33 0 65.5 13t58.5 41t42 71.5t16 104.5zM670 347q0 -84 -26 -150t-70.5 -112.5t-104.5 -71t-129 -24.5q-77 0 -135 23.5t-96 68
t-57 107.5t-19 141q0 84 26 150t71 112t105 70.5t128 24.5q67 0 123.5 -20.5t97.5 -62.5t63.5 -105.5t22.5 -150.5zM309 786q0 -26 -17.5 -43.5t-43.5 -17.5t-44 17.5t-18 43.5t18 44t44 18t43.5 -18t17.5 -44zM525 786q0 -26 -18 -43.5t-44 -17.5t-43.5 17.5t-17.5 43.5
t17.5 44t43.5 18t44 -18t18 -44z" />
    <glyph glyph-name="multiply" unicode="&#xd7;" 
d="M425 69l-154 154l-154 -154l-70 70l154 154l-154 154l78 78l154 -154l154 154l70 -70l-154 -154l154 -154z" />
    <glyph glyph-name="Oslash" unicode="&#xd8;" horiz-adv-x="703" 
d="M393 568q-10 2 -19.5 3.5t-21.5 1.5q-36 0 -69 -14t-58.5 -42.5t-40.5 -72t-15 -102.5q0 -55 12.5 -99.5t42.5 -71.5l169 397v0zM537 336q0 60 -15.5 105t-46.5 71l-171 -404q11 -3 22 -4t22 -1q36 0 70.5 13t60.5 41.5t42 72.5t16 106zM672 345q0 -84 -25.5 -150
t-70.5 -111.5t-105.5 -70t-130.5 -24.5q-48 0 -89 9l-45 -101l-90 41l44 100q-66 42 -96.5 117t-30.5 175q0 83 26 149t71 112t105 70.5t128 24.5q42 0 82 -8l44 100l92 -40l-43 -97q63 -38 98.5 -111t35.5 -185z" />
    <glyph glyph-name="Ugrave" unicode="&#xd9;" horiz-adv-x="681" 
d="M611 262q0 -139 -73 -206t-207 -67q-80 0 -130.5 20t-79.5 54t-40 78.5t-11 92.5v441h130v-433q0 -32 6 -58.5t22 -46t43 -30t69 -10.5q75 0 108.5 35.5t33.5 121.5v421h129v-413v0zM380 716l-216 53l30 92l207 -75z" />
    <glyph glyph-name="Uacute" unicode="&#xda;" horiz-adv-x="681" 
d="M611 262q0 -139 -73 -206t-207 -67q-80 0 -130.5 20t-79.5 54t-40 78.5t-11 92.5v441h130v-433q0 -32 6 -58.5t22 -46t43 -30t69 -10.5q75 0 108.5 35.5t33.5 121.5v421h129v-413v0zM317 716l-21 70l207 75l29 -92z" />
    <glyph glyph-name="Ucircumflex" unicode="&#xdb;" horiz-adv-x="681" 
d="M611 262q0 -139 -73 -206t-207 -67q-80 0 -130.5 20t-79.5 54t-40 78.5t-11 92.5v441h130v-433q0 -32 6 -58.5t22 -46t43 -30t69 -10.5q75 0 108.5 35.5t33.5 121.5v421h129v-413v0zM477 715l-137 60l-135 -60l-29 62l165 87l166 -85z" />
    <glyph glyph-name="Udieresis" unicode="&#xdc;" horiz-adv-x="681" 
d="M611 262q0 -139 -73 -206t-207 -67q-80 0 -130.5 20t-79.5 54t-40 78.5t-11 92.5v441h130v-433q0 -32 6 -58.5t22 -46t43 -30t69 -10.5q75 0 108.5 35.5t33.5 121.5v421h129v-413v0zM293 786q0 -26 -17.5 -43.5t-43.5 -17.5t-44 17.5t-18 43.5t18 44t44 18t43.5 -18
t17.5 -44zM509 786q0 -26 -18 -43.5t-44 -17.5t-43.5 17.5t-17.5 43.5t17.5 44t43.5 18t44 -18t18 -44z" />
    <glyph glyph-name="Yacute" unicode="&#xdd;" horiz-adv-x="561" 
d="M344 239v-239h-130v238l-211 437h142l89 -194q14 -30 25 -58t21 -54h2q11 29 25 61t29 64l85 181h138zM250 716l-21 70l207 75l29 -92z" />
    <glyph glyph-name="Thorn" unicode="&#xde;" horiz-adv-x="544" 
d="M394 357q0 52 -32.5 86t-107.5 34q-14 0 -27 -1t-27 -3v-239q13 -2 27.5 -3t30.5 -1q60 0 98 32t38 95zM528 365q0 -52 -19.5 -96t-55.5 -76.5t-87.5 -50.5t-115.5 -18h-22.5t-27.5 2v-126h-130v675h130v-94q17 1 34 1.5t39 0.5q119 0 187 -54.5t68 -163.5z" />
    <glyph glyph-name="germandbls" unicode="&#xdf;" horiz-adv-x="607" 
d="M576 157q0 -38 -15 -69t-42.5 -53t-65.5 -34t-84 -12q-67 0 -106 14l7 105q20 -9 44 -14.5t47 -5.5q45 0 64 17t19 39t-13 36.5t-33 27t-43 26t-43 31.5t-33 44t-13 65q0 44 17.5 69.5t39 45.5t39 39.5t17.5 51.5q0 29 -20 43.5t-55 14.5q-51 0 -79 -33t-28 -105v-500
h-128v494q0 66 19 112.5t52 75.5t76.5 42t92.5 13q46 0 83.5 -10t64 -29.5t41 -47t14.5 -61.5q0 -48 -18 -74.5t-40 -44.5t-40 -35t-18 -46q0 -21 13.5 -36t33.5 -28t43 -26.5t43 -32.5t33.5 -45t13.5 -64z" />
    <glyph glyph-name="agrave" unicode="&#xe0;" horiz-adv-x="524" 
d="M325 223q-49 0 -81 -6t-50.5 -16.5t-26 -24.5t-7.5 -30q0 -25 15.5 -41.5t43.5 -16.5q24 0 43.5 10.5t33.5 27t21.5 38t7.5 44.5v15zM335 0q0 22 1 43t4 41l-1 1q-18 -42 -60.5 -68.5t-98.5 -26.5q-68 0 -105 40.5t-37 101.5q0 44 20.5 77t58 54.5t90.5 32t118 10.5v25
q0 39 -21.5 59t-75.5 20q-34 0 -72 -10t-68 -25l-23 101q38 14 87 23t98 9q59 0 98 -12t62.5 -33.5t33 -52.5t9.5 -70v-212q0 -30 0.5 -63.5t2.5 -64.5h-121zM294 560l-181 108l59 86l170 -125z" />
    <glyph glyph-name="aacute" unicode="&#xe1;" horiz-adv-x="524" 
d="M325 223q-49 0 -81 -6t-50.5 -16.5t-26 -24.5t-7.5 -30q0 -25 15.5 -41.5t43.5 -16.5q24 0 43.5 10.5t33.5 27t21.5 38t7.5 44.5v15zM335 0q0 22 1 43t4 41l-1 1q-18 -42 -60.5 -68.5t-98.5 -26.5q-68 0 -105 40.5t-37 101.5q0 44 20.5 77t58 54.5t90.5 32t118 10.5v25
q0 39 -21.5 59t-75.5 20q-34 0 -72 -10t-68 -25l-23 101q38 14 87 23t98 9q59 0 98 -12t62.5 -33.5t33 -52.5t9.5 -70v-212q0 -30 0.5 -63.5t2.5 -64.5h-121zM237 560l-47 69l169 125l59 -86z" />
    <glyph glyph-name="acircumflex" unicode="&#xe2;" horiz-adv-x="524" 
d="M325 223q-49 0 -81 -6t-50.5 -16.5t-26 -24.5t-7.5 -30q0 -25 15.5 -41.5t43.5 -16.5q24 0 43.5 10.5t33.5 27t21.5 38t7.5 44.5v15zM335 0q0 22 1 43t4 41l-1 1q-18 -42 -60.5 -68.5t-98.5 -26.5q-68 0 -105 40.5t-37 101.5q0 44 20.5 77t58 54.5t90.5 32t118 10.5v25
q0 39 -21.5 59t-75.5 20q-34 0 -72 -10t-68 -25l-23 101q38 14 87 23t98 9q59 0 98 -12t62.5 -33.5t33 -52.5t9.5 -70v-212q0 -30 0.5 -63.5t2.5 -64.5h-121zM369 560l-104 81l-103 -81l-49 58l153 136l153 -135z" />
    <glyph glyph-name="atilde" unicode="&#xe3;" horiz-adv-x="524" 
d="M325 223q-49 0 -81 -6t-50.5 -16.5t-26 -24.5t-7.5 -30q0 -25 15.5 -41.5t43.5 -16.5q24 0 43.5 10.5t33.5 27t21.5 38t7.5 44.5v15zM335 0q0 22 1 43t4 41l-1 1q-18 -42 -60.5 -68.5t-98.5 -26.5q-68 0 -105 40.5t-37 101.5q0 44 20.5 77t58 54.5t90.5 32t118 10.5v25
q0 39 -21.5 59t-75.5 20q-34 0 -72 -10t-68 -25l-23 101q38 14 87 23t98 9q59 0 98 -12t62.5 -33.5t33 -52.5t9.5 -70v-212q0 -30 0.5 -63.5t2.5 -64.5h-121zM443 669q-45 -89 -122 -89q-25 0 -42 8t-30 17t-25 17t-26 8q-31 0 -55 -45l-61 47q44 89 122 89q25 0 41.5 -8
t30 -17t25 -17t25.5 -8q32 0 56 45l61 -47v0z" />
    <glyph glyph-name="adieresis" unicode="&#xe4;" horiz-adv-x="524" 
d="M325 223q-49 0 -81 -6t-50.5 -16.5t-26 -24.5t-7.5 -30q0 -25 15.5 -41.5t43.5 -16.5q24 0 43.5 10.5t33.5 27t21.5 38t7.5 44.5v15zM335 0q0 22 1 43t4 41l-1 1q-18 -42 -60.5 -68.5t-98.5 -26.5q-68 0 -105 40.5t-37 101.5q0 44 20.5 77t58 54.5t90.5 32t118 10.5v25
q0 39 -21.5 59t-75.5 20q-34 0 -72 -10t-68 -25l-23 101q38 14 87 23t98 9q59 0 98 -12t62.5 -33.5t33 -52.5t9.5 -70v-212q0 -30 0.5 -63.5t2.5 -64.5h-121zM231 648q0 -29 -20 -49t-49 -20t-49 20t-20 49t20 49t49 20t49 -20t20 -49zM433 648q0 -29 -20 -49t-49 -20
t-49 20t-20 49t20 49t49 20t49 -20t20 -49z" />
    <glyph glyph-name="aring" unicode="&#xe5;" horiz-adv-x="524" 
d="M325 223q-49 0 -81 -6t-50.5 -16.5t-26 -24.5t-7.5 -30q0 -25 15.5 -41.5t43.5 -16.5q24 0 43.5 10.5t33.5 27t21.5 38t7.5 44.5v15zM335 0q0 22 1 43t4 41l-1 1q-18 -42 -60.5 -68.5t-98.5 -26.5q-68 0 -105 40.5t-37 101.5q0 44 20.5 77t58 54.5t90.5 32t118 10.5v25
q0 39 -21.5 59t-75.5 20q-34 0 -72 -10t-68 -25l-23 101q38 14 87 23t98 9q59 0 98 -12t62.5 -33.5t33 -52.5t9.5 -70v-212q0 -30 0.5 -63.5t2.5 -64.5h-121zM319 667q0 22 -15 37.5t-37 15.5t-37.5 -15.5t-15.5 -37.5t15.5 -37.5t37.5 -15.5t37 15.5t15 37.5zM394 667
q0 -26 -10 -48t-27.5 -38.5t-40.5 -26t-49 -9.5q-27 0 -50 9t-40 25.5t-27 38.5t-10 49q0 26 10 48.5t27 38.5t40.5 25t49.5 9q27 0 50 -9t40 -25t27 -38.5t10 -48.5z" />
    <glyph glyph-name="ae" unicode="&#xe6;" horiz-adv-x="800" 
d="M325 223q-49 0 -81 -6t-50.5 -16.5t-26 -24.5t-7.5 -30q0 -25 15.5 -41.5t43.5 -16.5q24 0 43.5 10.5t33.5 27t21.5 38t7.5 44.5v15zM635 313q2 48 -21.5 74.5t-64.5 26.5q-40 0 -66 -27t-31 -74h183v0zM762 286q0 -13 -1 -27.5t-3 -31.5h-308q-1 -137 137 -137
q36 0 72.5 7.5t71.5 22.5l14 -97q-41 -17 -87.5 -25t-92.5 -8q-81 0 -130.5 28t-69.5 73h-1q-23 -43 -68.5 -72t-113.5 -29q-69 0 -106.5 40.5t-37.5 101.5q0 44 20.5 77t58 54.5t90.5 32t118 10.5v25q0 39 -21.5 59t-75.5 20q-34 0 -72 -10t-68 -25l-23 101q38 14 87 23
t98 9q50 0 90 -13.5t66 -48.5h1q23 27 60.5 44.5t85.5 17.5q54 0 93.5 -17.5t65 -47.5t38 -70.5t12.5 -86.5z" />
    <glyph glyph-name="ccedilla" unicode="&#xe7;" horiz-adv-x="425" 
d="M398 14q-29 -11 -66 -17t-74 -6q-52 0 -93.5 14t-70.5 43t-44.5 75t-15.5 109q0 58 15.5 108t46.5 87t78.5 58t112.5 21q29 0 57 -4.5t52 -12.5l-20 -110q-20 8 -44 13.5t-49 5.5q-57 0 -86 -42t-29 -111q0 -32 6 -58.5t20 -45.5t36 -29.5t54 -10.5q52 0 97 20l17 -107v0
zM278 -40q39 -54 30.5 -102t-50.5 -92h-96q36 43 41 79.5t-31 81.5l106 33v0z" />
    <glyph glyph-name="egrave" unicode="&#xe8;" horiz-adv-x="514" 
d="M349 313q2 48 -21.5 74.5t-64.5 26.5q-40 0 -66 -27t-31 -74h183v0zM476 286q0 -13 -1 -27.5t-3 -31.5h-308q-1 -137 137 -137q73 0 144 30l14 -97q-41 -17 -87.5 -25t-92.5 -8q-118 0 -181.5 61t-63.5 193q0 57 15.5 105.5t45 83.5t73 55t99.5 20q54 0 93.5 -17.5
t65 -47.5t38 -70.5t12.5 -86.5zM295 560l-181 108l59 86l170 -125z" />
    <glyph glyph-name="eacute" unicode="&#xe9;" horiz-adv-x="514" 
d="M349 313q2 48 -21.5 74.5t-64.5 26.5q-40 0 -66 -27t-31 -74h183v0zM476 286q0 -13 -1 -27.5t-3 -31.5h-308q-1 -137 137 -137q73 0 144 30l14 -97q-41 -17 -87.5 -25t-92.5 -8q-118 0 -181.5 61t-63.5 193q0 57 15.5 105.5t45 83.5t73 55t99.5 20q54 0 93.5 -17.5
t65 -47.5t38 -70.5t12.5 -86.5zM236 560l-47 69l169 125l59 -86z" />
    <glyph glyph-name="ecircumflex" unicode="&#xea;" horiz-adv-x="514" 
d="M349 313q2 48 -21.5 74.5t-64.5 26.5q-40 0 -66 -27t-31 -74h183v0zM476 286q0 -13 -1 -27.5t-3 -31.5h-308q-1 -137 137 -137q73 0 144 30l14 -97q-41 -17 -87.5 -25t-92.5 -8q-118 0 -181.5 61t-63.5 193q0 57 15.5 105.5t45 83.5t73 55t99.5 20q54 0 93.5 -17.5
t65 -47.5t38 -70.5t12.5 -86.5zM371 560l-104 81l-103 -81l-49 58l153 136l153 -135z" />
    <glyph glyph-name="edieresis" unicode="&#xeb;" horiz-adv-x="514" 
d="M349 313q2 48 -21.5 74.5t-64.5 26.5q-40 0 -66 -27t-31 -74h183v0zM476 286q0 -13 -1 -27.5t-3 -31.5h-308q-1 -137 137 -137q73 0 144 30l14 -97q-41 -17 -87.5 -25t-92.5 -8q-118 0 -181.5 61t-63.5 193q0 57 15.5 105.5t45 83.5t73 55t99.5 20q54 0 93.5 -17.5
t65 -47.5t38 -70.5t12.5 -86.5zM233 648q0 -29 -20 -49t-49 -20t-49 20t-20 49t20 49t49 20t49 -20t20 -49zM435 648q0 -29 -20 -49t-49 -20t-49 20t-20 49t20 49t49 20t49 -20t20 -49z" />
    <glyph glyph-name="igrave" unicode="&#xec;" horiz-adv-x="266" 
d="M69 0v497h128v-497h-128zM181 560l-181 108l59 86l170 -125z" />
    <glyph glyph-name="iacute" unicode="&#xed;" horiz-adv-x="266" 
d="M69 0v497h128v-497h-128zM85 560l-47 69l169 125l59 -86z" />
    <glyph glyph-name="icircumflex" unicode="&#xee;" horiz-adv-x="266" 
d="M69 0v497h128v-497h-128zM239 560l-104 81l-103 -81l-49 58l153 136l153 -135z" />
    <glyph glyph-name="idieresis" unicode="&#xef;" horiz-adv-x="266" 
d="M69 0v497h128v-497h-128zM101 648q0 -29 -20 -49t-49 -20t-49 20t-20 49t20 49t49 20t49 -20t20 -49zM303 648q0 -29 -20 -49t-49 -20t-49 20t-20 49t20 49t49 20t49 -20t20 -49z" />
    <glyph glyph-name="eth" unicode="&#xf0;" horiz-adv-x="555" 
d="M385 260q0 64 -26.5 101.5t-82.5 37.5q-22 0 -42 -9t-35 -27t-24 -46t-9 -67q0 -74 30 -112.5t83 -38.5q46 0 76 38.5t30 122.5zM518 278q0 -73 -19.5 -127t-53.5 -90t-79 -53.5t-97 -17.5t-95 15t-74.5 46t-49 78t-17.5 111q0 60 18 108.5t50.5 83.5t76.5 54t96 19
q23 0 45 -7t34 -24q-7 12 -13.5 22.5t-11.5 18.5q-10 17 -23 34t-30 35l-92 -41l-52 60l84 37q-17 14 -36 28.5t-40 28.5l125 53q36 -27 69 -60l89 39l51 -60l-86 -37q63 -78 97 -167.5t34 -186.5z" />
    <glyph glyph-name="ntilde" unicode="&#xf1;" horiz-adv-x="571" 
d="M374 0v318q0 38 -13 60t-48 22q-24 0 -45.5 -13t-37 -34.5t-24.5 -50.5t-9 -62v-240h-128v497h121q0 -17 -1.5 -43t-5.5 -46h1q23 44 65.5 71.5t103.5 27.5q42 0 70.5 -12.5t45.5 -34t24.5 -50t7.5 -61.5v-349h-127zM467 669q-45 -89 -122 -89q-25 0 -42 8t-30 17t-25 17
t-26 8q-31 0 -55 -45l-61 47q44 89 122 89q25 0 41.5 -8t30 -17t25 -17t25.5 -8q32 0 56 45l61 -47v0z" />
    <glyph glyph-name="ograve" unicode="&#xf2;" horiz-adv-x="553" 
d="M387 251q0 72 -26 110t-83 38q-21 0 -41.5 -8.5t-36.5 -26.5t-25.5 -45.5t-9.5 -65.5q0 -154 111 -154q48 0 79.5 38t31.5 114zM519 258q0 -59 -18.5 -108t-52.5 -84.5t-80.5 -55.5t-102.5 -20q-53 0 -96 14t-73 44.5t-46.5 78t-16.5 113.5q0 58 18.5 107t52 84.5
t80 55.5t103.5 20q106 0 169 -60.5t63 -188.5zM309 560l-181 108l59 86l170 -125z" />
    <glyph glyph-name="oacute" unicode="&#xf3;" horiz-adv-x="553" 
d="M387 251q0 72 -26 110t-83 38q-21 0 -41.5 -8.5t-36.5 -26.5t-25.5 -45.5t-9.5 -65.5q0 -154 111 -154q48 0 79.5 38t31.5 114zM519 258q0 -59 -18.5 -108t-52.5 -84.5t-80.5 -55.5t-102.5 -20q-53 0 -96 14t-73 44.5t-46.5 78t-16.5 113.5q0 58 18.5 107t52 84.5
t80 55.5t103.5 20q106 0 169 -60.5t63 -188.5zM248 560l-47 69l169 125l59 -86z" />
    <glyph glyph-name="ocircumflex" unicode="&#xf4;" horiz-adv-x="553" 
d="M387 251q0 72 -26 110t-83 38q-21 0 -41.5 -8.5t-36.5 -26.5t-25.5 -45.5t-9.5 -65.5q0 -154 111 -154q48 0 79.5 38t31.5 114zM519 258q0 -59 -18.5 -108t-52.5 -84.5t-80.5 -55.5t-102.5 -20q-53 0 -96 14t-73 44.5t-46.5 78t-16.5 113.5q0 58 18.5 107t52 84.5
t80 55.5t103.5 20q106 0 169 -60.5t63 -188.5zM386 560l-104 81l-103 -81l-49 58l153 136l153 -135z" />
    <glyph glyph-name="otilde" unicode="&#xf5;" horiz-adv-x="553" 
d="M387 251q0 72 -26 110t-83 38q-21 0 -41.5 -8.5t-36.5 -26.5t-25.5 -45.5t-9.5 -65.5q0 -154 111 -154q48 0 79.5 38t31.5 114zM519 258q0 -59 -18.5 -108t-52.5 -84.5t-80.5 -55.5t-102.5 -20q-53 0 -96 14t-73 44.5t-46.5 78t-16.5 113.5q0 58 18.5 107t52 84.5
t80 55.5t103.5 20q106 0 169 -60.5t63 -188.5zM464 669q-45 -89 -122 -89q-25 0 -42 8t-30 17t-25 17t-26 8q-31 0 -55 -45l-61 47q44 89 122 89q25 0 41.5 -8t30 -17t25 -17t25.5 -8q32 0 56 45l61 -47v0z" />
    <glyph glyph-name="odieresis" unicode="&#xf6;" horiz-adv-x="553" 
d="M387 251q0 72 -26 110t-83 38q-21 0 -41.5 -8.5t-36.5 -26.5t-25.5 -45.5t-9.5 -65.5q0 -154 111 -154q48 0 79.5 38t31.5 114zM519 258q0 -59 -18.5 -108t-52.5 -84.5t-80.5 -55.5t-102.5 -20q-53 0 -96 14t-73 44.5t-46.5 78t-16.5 113.5q0 58 18.5 107t52 84.5
t80 55.5t103.5 20q106 0 169 -60.5t63 -188.5zM249 648q0 -29 -20 -49t-49 -20t-49 20t-20 49t20 49t49 20t49 -20t20 -49zM451 648q0 -29 -20 -49t-49 -20t-49 20t-20 49t20 49t49 20t49 -20t20 -49z" />
    <glyph glyph-name="divide" unicode="&#xf7;" 
d="M352 97q0 -32 -23 -55t-55 -23t-55 23t-23 55t23 55t55 23t55 -23t23 -55zM39 244v107h472v-107h-472zM352 498q0 -32 -23 -55t-55 -23t-55 23t-23 55t23 55t55 23t55 -23t23 -55z" />
    <glyph glyph-name="oslash" unicode="&#xf8;" horiz-adv-x="555" 
d="M302 405q-5 1 -11.5 1.5t-11.5 0.5q-23 0 -45.5 -8.5t-40 -26.5t-28 -47t-10.5 -71q0 -68 29 -103l118 254v0zM400 251q0 76 -37 107l-121 -261q13 -5 35 -5q55 0 89 40t34 119zM522 258q0 -58 -18.5 -107.5t-52 -85t-80.5 -55.5t-104 -20q-45 0 -81 10l-49 -98l-70 32
l50 99q-43 31 -63.5 84t-20.5 123q0 58 18 107t51.5 84.5t80.5 55.5t105 20q37 0 68 -6l46 88l70 -33l-45 -87q44 -29 69.5 -80.5t25.5 -130.5z" />
    <glyph glyph-name="ugrave" unicode="&#xf9;" horiz-adv-x="570" 
d="M381 0q0 17 1 43t5 46h-1q-23 -44 -65 -71.5t-104 -27.5q-42 0 -70.5 12.5t-45.5 34t-24.5 50t-7.5 61.5v349h127v-318q0 -38 13 -60t49 -22q24 0 45 13t36.5 34.5t24.5 50.5t9 62v240h128v-497h-120zM308 560l-181 108l59 86l170 -125z" />
    <glyph glyph-name="uacute" unicode="&#xfa;" horiz-adv-x="570" 
d="M381 0q0 17 1 43t5 46h-1q-23 -44 -65 -71.5t-104 -27.5q-42 0 -70.5 12.5t-45.5 34t-24.5 50t-7.5 61.5v349h127v-318q0 -38 13 -60t49 -22q24 0 45 13t36.5 34.5t24.5 50.5t9 62v240h128v-497h-120zM264 560l-47 69l169 125l59 -86z" />
    <glyph glyph-name="ucircumflex" unicode="&#xfb;" horiz-adv-x="570" 
d="M381 0q0 17 1 43t5 46h-1q-23 -44 -65 -71.5t-104 -27.5q-42 0 -70.5 12.5t-45.5 34t-24.5 50t-7.5 61.5v349h127v-318q0 -38 13 -60t49 -22q24 0 45 13t36.5 34.5t24.5 50.5t9 62v240h128v-497h-120zM389 560l-104 81l-103 -81l-49 58l153 136l153 -135z" />
    <glyph glyph-name="udieresis" unicode="&#xfc;" horiz-adv-x="570" 
d="M381 0q0 17 1 43t5 46h-1q-23 -44 -65 -71.5t-104 -27.5q-42 0 -70.5 12.5t-45.5 34t-24.5 50t-7.5 61.5v349h127v-318q0 -38 13 -60t49 -22q24 0 45 13t36.5 34.5t24.5 50.5t9 62v240h128v-497h-120zM252 648q0 -29 -20 -49t-49 -20t-49 20t-20 49t20 49t49 20t49 -20
t20 -49zM454 648q0 -29 -20 -49t-49 -20t-49 20t-20 49t20 49t49 20t49 -20t20 -49z" />
    <glyph glyph-name="yacute" unicode="&#xfd;" horiz-adv-x="502" 
d="M302 -28q-24 -65 -50 -107.5t-56 -67.5t-65.5 -35.5t-78.5 -10.5q-16 0 -36 2t-34 5l15 110q14 -5 30.5 -7.5t32.5 -2.5t31.5 4.5t30.5 15.5t28 30t24 48l15 44l-183 497h142l67 -190q11 -32 21 -67.5t18 -69.5h1q4 17 10 37.5t12.5 41.5t13 41.5t12.5 37.5l59 169h137z
M233 560l-47 69l169 125l59 -86z" />
    <glyph glyph-name="thorn" unicode="&#xfe;" horiz-adv-x="559" 
d="M389 261q0 141 -85 141q-25 0 -45 -13.5t-33.5 -36t-21 -52t-7.5 -61.5v-138q30 -9 67 -9q27 0 50 9t39.5 29.5t26 52.5t9.5 78zM523 275q0 -65 -17 -117t-50 -89t-82 -56.5t-113 -19.5q-18 0 -33 1t-31 3v-238h-128v971h128v-204q0 -23 -1 -51t-4 -51h2q19 37 55.5 60
t91.5 23q89 0 135.5 -60.5t46.5 -171.5z" />
    <glyph glyph-name="ydieresis" unicode="&#xff;" horiz-adv-x="502" 
d="M302 -28q-24 -65 -50 -107.5t-56 -67.5t-65.5 -35.5t-78.5 -10.5q-16 0 -36 2t-34 5l15 110q14 -5 30.5 -7.5t32.5 -2.5t31.5 4.5t30.5 15.5t28 30t24 48l15 44l-183 497h142l67 -190q11 -32 21 -67.5t18 -69.5h1q4 17 10 37.5t12.5 41.5t13 41.5t12.5 37.5l59 169h137z
M223 648q0 -29 -20 -49t-49 -20t-49 20t-20 49t20 49t49 20t49 -20t20 -49zM425 648q0 -29 -20 -49t-49 -20t-49 20t-20 49t20 49t49 20t49 -20t20 -49z" />
    <glyph glyph-name="dotlessi" unicode="&#x131;" horiz-adv-x="266" 
d="M69 0v497h128v-497h-128z" />
    <glyph glyph-name="Lslash" unicode="&#x141;" horiz-adv-x="438" 
d="M79 0v315l-66 -31l-23 101l89 41v249h130v-188l98 45l24 -101l-122 -55v-262h219v-114h-349z" />
    <glyph glyph-name="lslash" unicode="&#x142;" horiz-adv-x="307" 
d="M222 483v-483h-128v422l-60 -29l-24 96l84 40v201h128v-140l66 32l23 -96z" />
    <glyph glyph-name="OE" unicode="&#x152;" horiz-adv-x="860" 
d="M438 556q-20 6 -41 9.5t-45 3.5q-35 0 -67.5 -14t-57.5 -42t-40 -70.5t-15 -99.5q0 -54 10.5 -97.5t32.5 -74t55.5 -47.5t78.5 -17q21 0 44.5 4t44.5 12v433zM449 0q-53 -11 -109 -11q-77 0 -135 23.5t-96 68t-57 107.5t-19 141q0 84 26 150t70.5 112t103.5 70.5
t125 24.5q29 0 55 -3t50 -8h341v-109h-236v-166h224v-106h-224v-183h236v-111h-355z" />
    <glyph glyph-name="oe" unicode="&#x153;" horiz-adv-x="860" 
d="M387 251q0 72 -26 110t-83 38q-21 0 -41.5 -8.5t-36.5 -26.5t-25.5 -45.5t-9.5 -65.5q0 -154 111 -154q48 0 79.5 38t31.5 114zM694 313q2 48 -21 74.5t-65 26.5q-39 0 -65.5 -27t-31.5 -74h183v0zM821 286q0 -13 -1 -27.5t-3 -31.5h-307q-1 -137 136 -137q36 0 72.5 7.5
t71.5 22.5l14 -97q-41 -17 -87 -25t-93 -8q-68 0 -112.5 21.5t-72.5 59.5q-27 -36 -71.5 -58.5t-102.5 -22.5q-53 0 -95.5 14t-73 44.5t-47 78t-16.5 113.5q0 58 18.5 107.5t51.5 84.5t80 55t104 20q48 0 93 -17.5t73 -55.5q27 34 66 54t93 20q55 0 94.5 -17.5t65 -47.5
t37.5 -70.5t12 -86.5z" />
    <glyph glyph-name="Scaron" unicode="&#x160;" horiz-adv-x="503" 
d="M467 207q0 -47 -19 -87t-53 -69t-82.5 -45.5t-106.5 -16.5q-89 0 -156 18l14 125q33 -14 69.5 -21.5t77.5 -7.5q23 0 43.5 5t36 15.5t24.5 27t9 40.5q0 32 -21 51t-52.5 33t-68.5 27.5t-68.5 35t-52.5 55.5t-21 90q0 45 17 82.5t49.5 64t80 41.5t108.5 15q28 0 60.5 -3.5
t61.5 -9.5l-12 -114q-28 9 -57 14t-59 5q-57 0 -84 -22.5t-27 -58.5q0 -30 21.5 -48.5t53.5 -33t69.5 -28.5t69.5 -36.5t53.5 -56.5t21.5 -87zM257 715l-166 86l30 63l137 -59l135 59l29 -62z" />
    <glyph glyph-name="scaron" unicode="&#x161;" horiz-adv-x="417" 
d="M378 155q0 -37 -15.5 -67.5t-44.5 -52t-69.5 -33.5t-89.5 -12q-29 0 -58 3t-53 10l9 107q23 -10 50.5 -15t55.5 -5q36 0 58 14.5t22 38.5q0 22 -15 34.5t-37.5 21t-48.5 17.5t-48.5 24.5t-37.5 41t-15 67.5q0 33 12.5 62t38.5 50.5t65.5 34t93.5 12.5q22 0 46 -2.5
t45 -7.5l-6 -100q-20 6 -43.5 9.5t-46.5 3.5q-38 0 -55.5 -14t-17.5 -37q0 -21 15 -33t38 -21t49.5 -18.5t49.5 -25.5t38 -41t15 -66zM211 560l-153 134l50 60l104 -82l103 82l50 -59z" />
    <glyph glyph-name="Ydieresis" unicode="&#x178;" horiz-adv-x="561" 
d="M344 239v-239h-130v238l-211 437h142l89 -194q14 -30 25 -58t21 -54h2q11 29 25 61t29 64l85 181h138zM237 786q0 -26 -17.5 -43.5t-43.5 -17.5t-44 17.5t-18 43.5t18 44t44 18t43.5 -18t17.5 -44zM453 786q0 -26 -18 -43.5t-44 -17.5t-43.5 17.5t-17.5 43.5t17.5 44
t43.5 18t44 -18t18 -44z" />
    <glyph glyph-name="florin" unicode="&#x192;" 
d="M503 583q-21 8 -43.5 11.5t-40.5 3.5q-43 0 -63.5 -24t-26.5 -81l-11 -120h141v-99h-151l-20 -216q-11 -115 -68 -167t-159 -52q-20 0 -44.5 3t-46.5 8l15 108q20 -5 43.5 -9.5t43.5 -4.5q40 0 61.5 23.5t26.5 80.5l21 226h-114v99h123l11 111q12 115 68.5 167t158.5 52
q20 0 44.5 -3t45.5 -8z" />
    <glyph glyph-name="circumflex" unicode="&#x2c6;" horiz-adv-x="406" 
d="M316 560l-104 81l-103 -81l-49 58l153 136l153 -135z" />
    <glyph glyph-name="caron" unicode="&#x2c7;" horiz-adv-x="407" 
d="M211 560l-153 134l50 60l104 -82l103 82l50 -59z" />
    <glyph glyph-name="breve" unicode="&#x2d8;" horiz-adv-x="373" 
d="M323 720q0 -30 -8 -58t-24.5 -49t-43 -33.5t-62.5 -12.5t-62 13t-42 34t-23.5 48.5t-7.5 57.5h85q0 -26 12.5 -42.5t38.5 -16.5q24 0 38 15t14 44h85v0z" />
    <glyph glyph-name="dotaccent" unicode="&#x2d9;" horiz-adv-x="260" 
d="M219 648q0 -32 -23.5 -54.5t-56.5 -22.5t-56.5 22.5t-23.5 54.5t23.5 55t56.5 23t56.5 -22.5t23.5 -55.5z" />
    <glyph glyph-name="ring" unicode="&#x2da;" horiz-adv-x="354" 
d="M235 660q0 22 -15 37.5t-37 15.5t-37.5 -15.5t-15.5 -37.5t15.5 -37.5t37.5 -15.5t37 15.5t15 37.5zM310 660q0 -26 -10 -48t-27.5 -38.5t-40.5 -26t-49 -9.5q-27 0 -50 9t-40 25.5t-27 38.5t-10 49q0 26 10 48.5t27 38.5t40.5 25t49.5 9q27 0 50 -9t40 -25t27 -38.5
t10 -48.5z" />
    <glyph glyph-name="ogonek" unicode="&#x2db;" horiz-adv-x="405" 
d="M197 0q-49 -24 -68.5 -48.5t-19.5 -45.5q0 -15 9.5 -23t23.5 -8t28 9t24 23l49 -57q-27 -37 -65.5 -55.5t-82.5 -18.5q-46 0 -75.5 22t-29.5 68q0 39 23 77t64 67z" />
    <glyph glyph-name="tilde" unicode="&#x2dc;" horiz-adv-x="461" 
d="M413 669q-45 -89 -122 -89q-25 0 -42 8t-30 17t-25 17t-26 8q-31 0 -55 -45l-61 47q44 89 122 89q25 0 41.5 -8t30 -17t25 -17t25.5 -8q32 0 56 45l61 -47v0z" />
    <glyph glyph-name="hungarumlaut" unicode="&#x2dd;" horiz-adv-x="505" 
d="M121 560l-60 51l129 155l74 -62zM310 560l-56 51l143 147l69 -67z" />
    <glyph glyph-name="Delta" unicode="&#x394;" horiz-adv-x="628" 
d="M331 441q-7 22 -14 46t-11 45h-1q-5 -23 -12 -48t-15 -50l-109 -317h275zM1 0l234 675h150l240 -675h-624z" />
    <glyph glyph-name="Delta" unicode="&#x2206;" horiz-adv-x="628" 
d="M331 441q-7 22 -14 46t-11 45h-1q-5 -23 -12 -48t-15 -50l-109 -317h275zM1 0l234 675h150l240 -675h-624z" />
    <glyph glyph-name="Omega" unicode="&#x3a9;" horiz-adv-x="713" 
d="M413 0v103q57 44 87 100.5t30 145.5q0 49 -10.5 90t-32.5 70t-54.5 45t-77.5 16q-37 0 -68.5 -15t-55 -43t-36.5 -68.5t-13 -91.5q0 -44 6 -79.5t20 -64.5t36.5 -54.5t55.5 -50.5v-103h-263v105h123q-52 36 -84.5 97t-32.5 151q0 75 24 136.5t67 105t102.5 67.5t130.5 24
q63 0 118 -18.5t95.5 -57.5t64 -99.5t23.5 -143.5q0 -91 -34 -157t-86 -105h128v-105h-263z" />
    <glyph glyph-name="Omega" unicode="&#x2126;" horiz-adv-x="713" 
d="M413 0v103q57 44 87 100.5t30 145.5q0 49 -10.5 90t-32.5 70t-54.5 45t-77.5 16q-37 0 -68.5 -15t-55 -43t-36.5 -68.5t-13 -91.5q0 -44 6 -79.5t20 -64.5t36.5 -54.5t55.5 -50.5v-103h-263v105h123q-52 36 -84.5 97t-32.5 151q0 75 24 136.5t67 105t102.5 67.5t130.5 24
q63 0 118 -18.5t95.5 -57.5t64 -99.5t23.5 -143.5q0 -91 -34 -157t-86 -105h128v-105h-263z" />
    <glyph glyph-name="pi" unicode="&#x3c0;" horiz-adv-x="630" 
d="M495 392q0 -160 15 -230q7 -38 18.5 -51.5t28.5 -13.5q7 0 15 1t16 3l12 -102q-30 -8 -72 -8q-65 0 -98 29.5t-47 104.5q-8 44 -12.5 113t-4.5 154h-127q1 -99 -11.5 -202t-44.5 -203l-136 26q34 99 52 190t17 189h-104v105h588v-105h-105z" />
    <glyph glyph-name="endash" unicode="&#x2013;" 
d="M0 242v111h550v-111h-550z" />
    <glyph glyph-name="emdash" unicode="&#x2014;" horiz-adv-x="1000" 
d="M111 242v111h778v-111h-778z" />
    <glyph glyph-name="quoteleft" unicode="&#x2018;" horiz-adv-x="267" 
d="M230 709q-51 -55 -57.5 -90.5t16.5 -63.5q14 -17 16.5 -37.5t-5.5 -39.5t-26 -31.5t-44 -12.5q-35 0 -58.5 27.5t-23 72.5t30 103t99.5 119l52 -47v0z" />
    <glyph glyph-name="quoteright" unicode="&#x2019;" horiz-adv-x="267" 
d="M136 747q35 0 58 -27.5t23 -72.5t-29.5 -103t-99.5 -119l-52 47q51 55 57.5 90.5t-17.5 63.5q-14 16 -16 37t6 40t26 31.5t44 12.5z" />
    <glyph glyph-name="quotesinglbase" unicode="&#x201a;" horiz-adv-x="267" 
d="M136 149q35 0 58 -27.5t23 -72.5t-29.5 -103t-99.5 -119l-52 47q51 55 57.5 90t-17.5 63q-14 17 -16 38t6 40t26 31.5t44 12.5z" />
    <glyph glyph-name="quotedblleft" unicode="&#x201c;" horiz-adv-x="485" 
d="M230 709q-51 -55 -57.5 -90.5t16.5 -63.5q14 -17 16.5 -37.5t-5.5 -39.5t-26 -31.5t-44 -12.5q-35 0 -58.5 27.5t-23 72.5t30 103t99.5 119l52 -47v0zM449 709q-51 -55 -57.5 -90.5t16.5 -63.5q14 -17 16 -37.5t-6 -39.5t-25.5 -31.5t-43.5 -12.5q-36 0 -59 27.5
t-23 72.5t29.5 103t99.5 119l53 -47v0z" />
    <glyph glyph-name="quotedblright" unicode="&#x201d;" horiz-adv-x="485" 
d="M136 747q35 0 58 -27.5t23 -72.5t-29.5 -103t-99.5 -119l-52 47q51 55 57.5 90.5t-17.5 63.5q-14 16 -16 37t6 40t26 31.5t44 12.5zM354 747q36 0 59 -27.5t23 -72.5t-29.5 -103t-99.5 -119l-53 47q51 55 57.5 90.5t-16.5 63.5q-14 16 -16 37t6 40t25.5 31.5t43.5 12.5z
" />
    <glyph glyph-name="quotedblbase" unicode="&#x201e;" horiz-adv-x="485" 
d="M136 149q35 0 58 -27.5t23 -72.5t-29.5 -103t-99.5 -119l-52 47q51 55 57.5 90t-17.5 63q-14 17 -16 38t6 40t26 31.5t44 12.5zM354 149q36 0 59 -27.5t23 -72.5t-29.5 -103t-99.5 -119l-53 47q51 55 57.5 90t-16.5 63q-14 17 -16 38t6 40t25.5 31.5t43.5 12.5z" />
    <glyph glyph-name="dagger" unicode="&#x2020;" horiz-adv-x="457" 
d="M281 533l21 -88l-23 -255h-100l-24 255l21 88h-134v99h134l-21 136h147l-21 -136h135v-99h-135z" />
    <glyph glyph-name="daggerdbl" unicode="&#x2021;" horiz-adv-x="457" 
d="M282 287l21 -122h-149l21 122h-133v98h133l-20 81l20 82h-133v98h133l-20 122h147l-20 -122h134v-98h-134l20 -82l-20 -81h134v-98h-134z" />
    <glyph glyph-name="bullet" unicode="&#x2022;" horiz-adv-x="423" 
d="M360 297q0 -30 -12 -57t-32 -47.5t-47 -32t-58 -11.5t-58 11.5t-47 32t-31.5 47.5t-11.5 57t11.5 57t31.5 47.5t47 32t58 11.5t58 -11.5t47 -32t32 -47.5t12 -57z" />
    <glyph glyph-name="ellipsis" unicode="&#x2026;" horiz-adv-x="723" 
d="M204 67q0 -32 -23.5 -55t-55.5 -23t-55 23t-23 55t23 55t55 23t55.5 -23t23.5 -55zM437 67q0 -32 -23 -55t-55 -23t-55 23t-23 55t23 55t55 23t55 -23t23 -55zM670 67q0 -32 -23 -55t-55 -23t-55 23t-23 55t23 55t55 23t55 -23t23 -55z" />
    <glyph glyph-name="perthousand" unicode="&#x2030;" horiz-adv-x="1052" 
d="M329 512q0 -39 -12 -69.5t-32.5 -51.5t-47.5 -32.5t-57 -11.5q-64 0 -102 38.5t-38 114.5q0 37 12 67t32.5 51t47.5 32t57 11t55.5 -8.5t44 -26.5t29.5 -46t11 -68zM237 505q0 42 -12.5 59t-38.5 17q-23 0 -38 -20t-15 -57q0 -42 13.5 -59.5t37.5 -17.5q23 0 38 20t15 58
zM136 -20l-76 59l519 630l76 -59zM677 153q0 -39 -12 -69.5t-32.5 -51.5t-47.5 -32t-57 -11q-64 0 -102 38.5t-38 113.5q0 38 12 68t32.5 51t47 32t56.5 11t56 -8.5t44.5 -26.5t29.5 -46.5t11 -68.5zM584 147q0 42 -12.5 59t-37.5 17q-23 0 -38 -20t-15 -57q0 -43 13.5 -60
t37.5 -17q23 0 37.5 20t14.5 58zM1005 153q0 -39 -12 -69.5t-32.5 -51.5t-47.5 -32t-57 -11q-64 0 -102 38.5t-38 113.5q0 38 12 68t32.5 51t47 32t56.5 11t55.5 -8.5t44.5 -26.5t30 -46.5t11 -68.5zM912 147q0 42 -12.5 59t-37.5 17q-23 0 -38 -20t-15 -57q0 -43 13.5 -60
t37.5 -17q23 0 37.5 20t14.5 58z" />
    <glyph glyph-name="guilsinglleft" unicode="&#x2039;" horiz-adv-x="312" 
d="M154 100l-113 192l115 195l97 -47l-89 -147l91 -145z" />
    <glyph glyph-name="guilsinglright" unicode="&#x203a;" horiz-adv-x="312" 
d="M156 100l-97 47l90 147l-91 145l101 48l113 -192z" />
    <glyph glyph-name="fraction" unicode="&#x2044;" horiz-adv-x="435" 
d="M26 -34l-92 66l492 669l92 -66z" />
    <glyph glyph-name="fraction" unicode="&#x2215;" horiz-adv-x="435" 
d="M26 -34l-92 66l492 669l92 -66z" />
    <glyph glyph-name="trademark" unicode="&#x2122;" horiz-adv-x="689" 
d="M188 598v-204h-91v204h-68v77h224v-77h-65zM559 394l-18 121l-5 47l-9 -43l-33 -125h-85l-33 128l-8 40l-2 -36l-19 -132h-86l45 281h109l34 -123l8 -41l7 39l34 125h109l47 -281h-95z" />
    <glyph glyph-name="partialdiff" unicode="&#x2202;" horiz-adv-x="634" 
d="M414 238q0 45 -27 74.5t-82 29.5q-52 0 -84.5 -36t-32.5 -91t27.5 -83.5t75.5 -28.5q26 0 48.5 10t39 28t26 43t9.5 54zM572 399q0 -93 -24 -177t-79 -144q-35 -39 -86.5 -62t-109.5 -23q-52 0 -91.5 15t-66 43t-40 66.5t-13.5 86.5q0 53 17.5 98t50 78t78.5 51.5
t102 18.5q45 0 78 -17.5t52 -46.5q-2 22 -3.5 37t-3.5 29q-6 44 -23.5 77.5t-44 56t-61 33.5t-74.5 11l18 107q73 -1 133 -24.5t102.5 -67t65.5 -106t23 -140.5z" />
    <glyph glyph-name="product" unicode="&#x220f;" horiz-adv-x="784" 
d="M646 622v-863h-119v863h-268v-863h-121v863h-97v108h701v-108h-96z" />
    <glyph glyph-name="summation" unicode="&#x2211;" horiz-adv-x="607" 
d="M36 -241v99l291 396l-273 376v100h489v-108h-332l264 -364l-288 -387h371v-112h-522z" />
    <glyph glyph-name="minus" unicode="&#x2212;" 
d="M39 242v111h472v-111h-472z" />
    <glyph glyph-name="radical" unicode="&#x221a;" horiz-adv-x="616" 
d="M445 234l-72 -234h-148l-47 141l-88 260h-87v96h192l30 -96l50 -162q8 -23 15 -47.5t12 -49.5h1q5 26 10.5 48.5t10.5 43.5l141 524h140z" />
    <glyph glyph-name="infinity" unicode="&#x221e;" horiz-adv-x="984" 
d="M392 296q-47 35 -82.5 55.5t-65.5 20.5q-38 0 -57.5 -22t-19.5 -51q0 -32 20.5 -52.5t57.5 -20.5q31 0 67.5 19t79.5 51zM818 300q0 31 -20.5 51.5t-57.5 20.5q-32 0 -69.5 -20t-79.5 -51q48 -35 83.5 -55t65.5 -20q38 0 58 22t20 52zM940 304q0 -39 -13.5 -73t-39.5 -60
t-64.5 -41t-88.5 -15q-57 0 -117 28t-129 79q-27 -20 -57 -39.5t-61.5 -34.5t-64.5 -24t-68 -9q-48 0 -84.5 14t-60.5 38.5t-36 57t-12 69.5q0 41 14.5 75.5t41 60t63.5 39.5t82 14q61 0 122 -29t128 -80q26 19 55.5 38.5t61.5 35.5t65 25.5t67 9.5q47 0 83.5 -13.5
t61.5 -37.5t38 -57t13 -71z" />
    <glyph glyph-name="integral" unicode="&#x222b;" horiz-adv-x="345" 
d="M322 621q-9 3 -21.5 5t-24.5 2q-15 0 -26.5 -5t-18.5 -19t-10.5 -39.5t-3.5 -65.5q0 -60 2 -115t4.5 -112t4.5 -119.5t2 -136.5q0 -143 -41 -205t-126 -62q-14 0 -28.5 1.5t-27.5 4.5v111q10 -3 21.5 -5t21.5 -2q16 0 28 5t19.5 19.5t11 40t3.5 66.5q0 58 -2 112.5
t-4.5 111.5t-4.5 119.5t-2 137.5q0 73 11.5 124t33.5 82.5t53.5 46t72.5 14.5q11 0 25.5 -2t26.5 -5v-110v0z" />
    <glyph glyph-name="approxequal" unicode="&#x2248;" 
d="M513 174q-28 -25 -66 -42.5t-75 -17.5q-35 0 -59.5 9t-45.5 20t-42 20t-47 9q-28 0 -52.5 -13t-45.5 -30l-42 86q24 23 59.5 43.5t77.5 20.5q34 0 58.5 -9t46.5 -20.5t44 -20.5t52 -9q51 0 96 39l41 -85v0zM512 375q-27 -27 -62 -45.5t-78 -18.5q-32 0 -55.5 9t-44.5 20
t-43 20t-51 9q-28 0 -53.5 -12.5t-46.5 -29.5l-40 85q28 26 65.5 45t78.5 19q33 0 58.5 -9t47.5 -20.5t42.5 -20.5t43.5 -9q26 0 50 12t45 32l43 -86v0z" />
    <glyph glyph-name="notequal" unicode="&#x2260;" 
d="M274 150l-48 -121h-114l48 121h-114v103h154l35 88h-189v103h229l48 121h115l-48 -121h114v-103h-155l-35 -88h190v-103h-230z" />
    <glyph glyph-name="lessequal" unicode="&#x2264;" 
d="M71 0v107h408v-107h-408zM388 145l-333 257l332 257l81 -87l-242 -169l242 -169z" />
    <glyph glyph-name="greaterequal" unicode="&#x2265;" 
d="M71 0v107h408v-107h-408zM163 145l-81 87l242 169l-242 169l80 89l333 -257z" />
    <glyph glyph-name="lozenge" unicode="&#x25ca;" horiz-adv-x="626" 
d="M308 545l-145 -203l154 -213l147 202zM355 -9h-80l-253 348l251 345h78l253 -348z" />
    <glyph glyph-name="Acute" unicode="&#xf6c9;" horiz-adv-x="337" 
d="M101 716l-21 70l207 75l29 -92z" />
    <glyph glyph-name="Caron" unicode="&#xf6ca;" horiz-adv-x="431" 
d="M212 715l-166 86l30 63l137 -59l135 59l29 -62z" />
    <glyph glyph-name="Dieresis" unicode="&#xf6cb;" horiz-adv-x="439" 
d="M215 786q0 -26 -17.5 -43.5t-43.5 -17.5t-44 17.5t-18 43.5t18 44t44 18t43.5 -18t17.5 -44zM431 786q0 -26 -18 -43.5t-44 -17.5t-43.5 17.5t-17.5 43.5t17.5 44t43.5 18t44 -18t18 -44z" />
    <glyph glyph-name="Grave" unicode="&#xf6ce;" horiz-adv-x="337" 
d="M278 716l-216 53l30 92l207 -75z" />
    <glyph glyph-name="apple" unicode="&#xf8ff;" horiz-adv-x="1044" 
d="M166 366q-3 -31 0 -60l-150 -15q-6 44 0 89zM531 355q2 0 2 5t-2 5q3 -5 0 -10zM528 357q5 0 2.5 2t-0.5 2v1q-5 0 -2 -2t0 -2v-1v0zM525 359q-2 -2 -2 -1q0 2 2 1zM525 357h1v3q0 5 -4 1q2 0 3 -1q-2 0 -3 -2t3 0v-1zM522 355q-3 5 0 10q-2 0 -2 -5t2 -5zM518 358
q-2 -1 -2 1q0 3 2 2v1q-2 1 -2.5 -2.5t2.5 -2.5v1zM513 362v-3q0 -2 -0.5 -1.5t-0.5 1.5v3h-1v-3q0 -2 1 -2q2 0 2 2v3h-1zM510 358h-2v6h-1v-7h3v1zM632 -20l-234 -61l23 -55h202l11 27l-4 10l-70 -18l-15 41l100 25zM632 64l-234 -60l13 -31l234 59zM400 138v-47l14 -34
l230 59v22h-244zM561 329q-11 2 -20.5 2.5t-18.5 0.5q-8 0 -18 -0.5t-22 -2.5l15 -137h51l13 137v0zM449 192l-16 129q-14 -3 -22.5 -6.5t-15.5 -5.5q-8 -3 -12.5 6t-5 20.5t1.5 22.5t8 13q30 8 65 14t70 6q37 0 71.5 -6t65.5 -14q5 -2 7 -12.5t1 -22.5t-5.5 -21t-12.5 -6
q-14 6 -40 12l-13 -129h49q28 24 47 61t19 82q0 39 -15 74t-40.5 60.5t-60 40.5t-73.5 15t-73.5 -15t-60 -40.5t-40.5 -60.5t-15 -74q0 -42 17.5 -79.5t48.5 -63.5h50zM779 335q0 -51 -18.5 -95.5t-47.5 -75.5v-80l-16 -5l32 -76l-32 -8l32 -73l-33 -9l10 -24l-31 -71h-57
q-3 -20 -30.5 -34t-65.5 -14q-39 0 -66 14t-30 34h-57l-54 130l31 9l-32 75l35 10l-19 44v79q-29 33 -47 77t-18 93q0 54 20 100.5t55 81.5t82 55t100 20t99.5 -20t81.5 -55t55.5 -81.5t20.5 -100.5zM1028 379q2 -23 2.5 -44t-1.5 -43l-148 14q3 29 0 60l147 13v0zM845 721
q17 -14 32.5 -29.5t29.5 -32.5l-113 -93q-8 11 -20 22.5t-22 19.5zM552 685q-14 2 -30 2q-15 0 -29 -2l-15 145q22 2 44 2q23 0 44 -2l-14 -145v0zM136 660q15 17 30 32.5t32 29.5l96 -115q-11 -8 -22.5 -19.5t-19.5 -22.5l-116 95v0z" />
    <glyph glyph-name="Circumflex" horiz-adv-x="432" 
d="M345 715l-137 60l-135 -60l-29 62l165 87l166 -85z" />
    <glyph glyph-name="Tilde" horiz-adv-x="474" 
d="M428 810q-46 -82 -125 -82q-26 0 -43.5 7.5t-31.5 16t-26 16t-27 7.5q-34 0 -58 -43l-63 44q46 82 125 82q26 0 43.5 -7.5t31.5 -16t26 -16t27 -7.5q18 0 31.5 10.5t26.5 31.5l63 -43v0z" />
    </font>
</defs>
</svg>
